  0
SECTION
  2
HEADER
  9
$ACADVER
  1
AC1021
  9
$ACADMAINTVER
 70
    50
  9
$DWGCODEPAGE
  3
ANSI_1252
  9
$LASTSAVEDBY
  1
leeh
  9
$INSBASE
 10
0.0
 20
0.0
 30
0.0
  9
$EXTMIN
 10
7.837830576856958
 20
15.78447031437474
 30
-0.0015258207003583
  9
$EXTMAX
 10
393.4487924508853
 20
570.1896067224322
 30
0.0000000349246037
  9
$LIMMIN
 10
0.0
 20
0.0
  9
$LIMMAX
 10
420.0
 20
297.0
  9
$ORTHOMODE
 70
     0
  9
$REGENMODE
 70
     1
  9
$FILLMODE
 70
     1
  9
$QTEXTMODE
 70
     0
  9
$MIRRTEXT
 70
     0
  9
$LTSCALE
 40
1.0
  9
$ATTMODE
 70
     1
  9
$TEXTSIZE
 40
2.5
  9
$TRACEWID
 40
1.0
  9
$TEXTSTYLE
  7
Standard
  9
$CLAYER
  8
0
  9
$CELTYPE
  6
ByLayer
  9
$CECOLOR
 62
   256
  9
$CELTSCALE
 40
1.0
  9
$DISPSILH
 70
     0
  9
$DIMSCALE
 40
1.0
  9
$DIMASZ
 40
2.5
  9
$DIMEXO
 40
0.625
  9
$DIMDLI
 40
3.75
  9
$DIMRND
 40
0.0
  9
$DIMDLE
 40
0.0
  9
$DIMEXE
 40
1.25
  9
$DIMTP
 40
0.0
  9
$DIMTM
 40
0.0
  9
$DIMTXT
 40
2.5
  9
$DIMCEN
 40
2.5
  9
$DIMTSZ
 40
0.0
  9
$DIMTOL
 70
     0
  9
$DIMLIM
 70
     0
  9
$DIMTIH
 70
     0
  9
$DIMTOH
 70
     0
  9
$DIMSE1
 70
     0
  9
$DIMSE2
 70
     0
  9
$DIMTAD
 70
     1
  9
$DIMZIN
 70
     8
  9
$DIMBLK
  1

  9
$DIMASO
 70
     1
  9
$DIMSHO
 70
     1
  9
$DIMPOST
  1

  9
$DIMAPOST
  1

  9
$DIMALT
 70
     0
  9
$DIMALTD
 70
     3
  9
$DIMALTF
 40
0.03937007874016
  9
$DIMLFAC
 40
1.0
  9
$DIMTOFL
 70
     1
  9
$DIMTVP
 40
0.0
  9
$DIMTIX
 70
     0
  9
$DIMSOXD
 70
     0
  9
$DIMSAH
 70
     0
  9
$DIMBLK1
  1

  9
$DIMBLK2
  1

  9
$DIMSTYLE
  2
ISO-25
  9
$DIMCLRD
 70
     0
  9
$DIMCLRE
 70
     0
  9
$DIMCLRT
 70
     0
  9
$DIMTFAC
 40
1.0
  9
$DIMGAP
 40
0.625
  9
$DIMJUST
 70
     0
  9
$DIMSD1
 70
     0
  9
$DIMSD2
 70
     0
  9
$DIMTOLJ
 70
     0
  9
$DIMTZIN
 70
     8
  9
$DIMALTZ
 70
     0
  9
$DIMALTTZ
 70
     0
  9
$DIMUPT
 70
     0
  9
$DIMDEC
 70
     2
  9
$DIMTDEC
 70
     2
  9
$DIMALTU
 70
     2
  9
$DIMALTTD
 70
     3
  9
$DIMTXSTY
  7
Standard
  9
$DIMAUNIT
 70
     0
  9
$DIMADEC
 70
     0
  9
$DIMALTRND
 40
0.0
  9
$DIMAZIN
 70
     0
  9
$DIMDSEP
 70
    44
  9
$DIMATFIT
 70
     3
  9
$DIMFRAC
 70
     0
  9
$DIMLDRBLK
  1

  9
$DIMLUNIT
 70
     2
  9
$DIMLWD
 70
    -2
  9
$DIMLWE
 70
    -2
  9
$DIMTMOVE
 70
     0
  9
$DIMFXL
 40
1.0
  9
$DIMFXLON
 70
     0
  9
$DIMJOGANG
 40
1.570796326794896
  9
$DIMTFILL
 70
     0
  9
$DIMTFILLCLR
 70
     0
  9
$DIMARCSYM
 70
     0
  9
$DIMLTYPE
  6

  9
$DIMLTEX1
  6

  9
$DIMLTEX2
  6

  9
$LUNITS
 70
     2
  9
$LUPREC
 70
     4
  9
$SKETCHINC
 40
1.0
  9
$FILLETRAD
 40
0.0
  9
$AUNITS
 70
     0
  9
$AUPREC
 70
     0
  9
$MENU
  1
.
  9
$ELEVATION
 40
0.0
  9
$PELEVATION
 40
0.0
  9
$THICKNESS
 40
0.0
  9
$LIMCHECK
 70
     0
  9
$CHAMFERA
 40
0.0
  9
$CHAMFERB
 40
0.0
  9
$CHAMFERC
 40
0.0
  9
$CHAMFERD
 40
0.0
  9
$SKPOLY
 70
     0
  9
$TDCREATE
 40
2459481.641840278
  9
$TDUCREATE
 40
2459481.141840278
  9
$TDUPDATE
 40
2459481.642673611
  9
$TDUUPDATE
 40
2459481.142673611
  9
$TDINDWG
 40
0.0008333333
  9
$TDUSRTIMER
 40
0.0008333333
  9
$USRTIMER
 70
     1
  9
$ANGBASE
 50
0.0
  9
$ANGDIR
 70
     0
  9
$PDMODE
 70
     0
  9
$PDSIZE
 40
0.0
  9
$PLINEWID
 40
0.0
  9
$SPLFRAME
 70
     0
  9
$SPLINETYPE
 70
     6
  9
$SPLINESEGS
 70
     8
  9
$HANDSEED
  5
4BB
  9
$SURFTAB1
 70
     6
  9
$SURFTAB2
 70
     6
  9
$SURFTYPE
 70
     6
  9
$SURFU
 70
     6
  9
$SURFV
 70
     6
  9
$UCSBASE
  2

  9
$UCSNAME
  2

  9
$UCSORG
 10
0.0
 20
0.0
 30
0.0
  9
$UCSXDIR
 10
1.0
 20
0.0
 30
0.0
  9
$UCSYDIR
 10
0.0
 20
1.0
 30
0.0
  9
$UCSORTHOREF
  2

  9
$UCSORTHOVIEW
 70
     0
  9
$UCSORGTOP
 10
0.0
 20
0.0
 30
0.0
  9
$UCSORGBOTTOM
 10
0.0
 20
0.0
 30
0.0
  9
$UCSORGLEFT
 10
0.0
 20
0.0
 30
0.0
  9
$UCSORGRIGHT
 10
0.0
 20
0.0
 30
0.0
  9
$UCSORGFRONT
 10
0.0
 20
0.0
 30
0.0
  9
$UCSORGBACK
 10
0.0
 20
0.0
 30
0.0
  9
$PUCSBASE
  2

  9
$PUCSNAME
  2

  9
$PUCSORG
 10
0.0
 20
0.0
 30
0.0
  9
$PUCSXDIR
 10
1.0
 20
0.0
 30
0.0
  9
$PUCSYDIR
 10
0.0
 20
1.0
 30
0.0
  9
$PUCSORTHOREF
  2

  9
$PUCSORTHOVIEW
 70
     0
  9
$PUCSORGTOP
 10
0.0
 20
0.0
 30
0.0
  9
$PUCSORGBOTTOM
 10
0.0
 20
0.0
 30
0.0
  9
$PUCSORGLEFT
 10
0.0
 20
0.0
 30
0.0
  9
$PUCSORGRIGHT
 10
0.0
 20
0.0
 30
0.0
  9
$PUCSORGFRONT
 10
0.0
 20
0.0
 30
0.0
  9
$PUCSORGBACK
 10
0.0
 20
0.0
 30
0.0
  9
$USERI1
 70
     0
  9
$USERI2
 70
     0
  9
$USERI3
 70
     0
  9
$USERI4
 70
     0
  9
$USERI5
 70
     0
  9
$USERR1
 40
0.0
  9
$USERR2
 40
0.0
  9
$USERR3
 40
0.0
  9
$USERR4
 40
0.0
  9
$USERR5
 40
0.0
  9
$WORLDVIEW
 70
     1
  9
$SHADEDGE
 70
     3
  9
$SHADEDIF
 70
    70
  9
$TILEMODE
 70
     1
  9
$MAXACTVP
 70
    64
  9
$PINSBASE
 10
0.0
 20
0.0
 30
0.0
  9
$PLIMCHECK
 70
     0
  9
$PEXTMIN
 10
1.000000000000000E+20
 20
1.000000000000000E+20
 30
1.000000000000000E+20
  9
$PEXTMAX
 10
-1.000000000000000E+20
 20
-1.000000000000000E+20
 30
-1.000000000000000E+20
  9
$PLIMMIN
 10
0.0
 20
0.0
  9
$PLIMMAX
 10
420.0
 20
297.0
  9
$UNITMODE
 70
     0
  9
$VISRETAIN
 70
     1
  9
$PLINEGEN
 70
     0
  9
$PSLTSCALE
 70
     1
  9
$TREEDEPTH
 70
  3020
  9
$CMLSTYLE
  2
Standard
  9
$CMLJUST
 70
     0
  9
$CMLSCALE
 40
20.0
  9
$PROXYGRAPHICS
 70
     1
  9
$MEASUREMENT
 70
     1
  9
$CELWEIGHT
370
    -1
  9
$ENDCAPS
280
     0
  9
$JOINSTYLE
280
     0
  9
$LWDISPLAY
290
     0
  9
$INSUNITS
 70
     4
  9
$HYPERLINKBASE
  1

  9
$STYLESHEET
  1

  9
$XEDIT
290
     1
  9
$CEPSNTYPE
380
     0
  9
$PSTYLEMODE
290
     1
  9
$FINGERPRINTGUID
  2
{60B8E81A-33AF-9944-8692-0F292F528BDE}
  9
$VERSIONGUID
  2
{50DBB823-2842-624B-BFE0-90B09DDA56BA}
  9
$EXTNAMES
290
     1
  9
$PSVPSCALE
 40
0.0
  9
$OLESTARTUP
290
     0
  9
$SORTENTS
280
   127
  9
$INDEXCTL
280
     0
  9
$HIDETEXT
280
     1
  9
$XCLIPFRAME
290
     0
  9
$HALOGAP
280
     0
  9
$OBSCOLOR
 70
   257
  9
$OBSLTYPE
280
     0
  9
$INTERSECTIONDISPLAY
280
     0
  9
$INTERSECTIONCOLOR
 70
   257
  9
$DIMASSOC
280
     2
  9
$PROJECTNAME
  1

  9
$CAMERADISPLAY
290
     0
  9
$LENSLENGTH
 40
50.0
  9
$CAMERAHEIGHT
 40
0.0
  9
$STEPSPERSEC
 40
2.0
  9
$STEPSIZE
 40
6.0
  9
$3DDWFPREC
 40
2.0
  9
$PSOLWIDTH
 40
0.25
  9
$PSOLHEIGHT
 40
4.0
  9
$LOFTANG1
 40
1.570796326794896
  9
$LOFTANG2
 40
1.570796326794896
  9
$LOFTMAG1
 40
0.0
  9
$LOFTMAG2
 40
0.0
  9
$LOFTPARAM
 70
     7
  9
$LOFTNORMALS
280
     1
  9
$LATITUDE
 40
37.795
  9
$LONGITUDE
 40
-122.394
  9
$NORTHDIRECTION
 40
0.0
  9
$TIMEZONE
 70
 -8000
  9
$LIGHTGLYPHDISPLAY
280
     1
  9
$TILEMODELIGHTSYNCH
280
     1
  9
$CMATERIAL
347
11
  9
$SOLIDHIST
280
     0
  9
$SHOWHIST
280
     1
  9
$DWFFRAME
280
     2
  9
$DGNFRAME
280
     0
  9
$REALWORLDSCALE
290
     1
  9
$INTERFERECOLOR
 62
     1
  9
$INTERFEREOBJVS
345
33
  9
$INTERFEREVPVS
346
30
  9
$CSHADOW
280
     0
  9
$SHADOWPLANELOCATION
 40
0.0
  0
ENDSEC
  0
SECTION
  2
CLASSES
  0
CLASS
  1
ACDBDICTIONARYWDFLT
  2
AcDbDictionaryWithDefault
  3
ObjectDBX Classes
 90
        0
 91
        1
280
     0
281
     0
  0
CLASS
  1
MATERIAL
  2
AcDbMaterial
  3
ObjectDBX Classes
 90
     1153
 91
        3
280
     0
281
     0
  0
CLASS
  1
VISUALSTYLE
  2
AcDbVisualStyle
  3
ObjectDBX Classes
 90
     4095
 91
       24
280
     0
281
     0
  0
CLASS
  1
SCALE
  2
AcDbScale
  3
ObjectDBX Classes
 90
     1153
 91
       17
280
     0
281
     0
  0
CLASS
  1
TABLESTYLE
  2
AcDbTableStyle
  3
ObjectDBX Classes
 90
     4095
 91
        1
280
     0
281
     0
  0
CLASS
  1
MLEADERSTYLE
  2
AcDbMLeaderStyle
  3
ACDB_MLEADERSTYLE_CLASS
 90
     4095
 91
        1
280
     0
281
     0
  0
CLASS
  1
ACDBSECTIONVIEWSTYLE
  2
AcDbSectionViewStyle
  3
ObjectDBX Classes
 90
     1025
 91
        1
280
     0
281
     0
  0
CLASS
  1
ACDBDETAILVIEWSTYLE
  2
AcDbDetailViewStyle
  3
ObjectDBX Classes
 90
     1025
 91
        1
280
     0
281
     0
  0
CLASS
  1
DICTIONARYVAR
  2
AcDbDictionaryVar
  3
ObjectDBX Classes
 90
        0
 91
       24
280
     0
281
     0
  0
CLASS
  1
DIMASSOC
  2
AcDbDimAssoc
  3
"AcDbDimAssoc|Product Desc:     AcDim ARX App For Dimension|Company:          Autodesk, Inc.|WEB Address:      www.autodesk.com"
 90
        0
 91
        2
280
     0
281
     0
  0
CLASS
  1
ACDB_HATCHVIEWCONTEXTDATA_CLASS
  2
AcDbHatchViewContextData
  3
ObjectDBX Classes
 90
     1153
 91
        6
280
     0
281
     0
  0
CLASS
  1
ACDB_HATCHSCALECONTEXTDATA_CLASS
  2
AcDbHatchScaleContextData
  3
ObjectDBX Classes
 90
     1153
 91
        6
280
     0
281
     0
  0
CLASS
  1
SORTENTSTABLE
  2
AcDbSortentsTable
  3
ObjectDBX Classes
 90
        0
 91
        1
280
     0
281
     0
  0
CLASS
  1
CELLSTYLEMAP
  2
AcDbCellStyleMap
  3
ObjectDBX Classes
 90
     1152
 91
        2
280
     0
281
     0
  0
ENDSEC
  0
SECTION
  2
TABLES
  0
TABLE
  2
VPORT
  5
8
330
0
100
AcDbSymbolTable
 70
     1
  0
VPORT
  5
57
330
8
100
AcDbSymbolTableRecord
100
AcDbViewportTableRecord
  2
*Active
 70
     0
 10
0.0
 20
0.0
 11
1.0
 21
1.0
 12
200.6433115138712
 22
292.9870385184035
 13
0.0
 23
0.0
 14
10.0
 24
10.0
 15
10.0
 25
10.0
 16
0.0
 26
0.0
 36
1.0
 17
0.0
 27
0.0
 37
0.0
 40
558.9308926236334
 41
2.47683923705722
 42
50.0
 43
0.0
 44
0.0
 50
0.0
 51
0.0
 71
     0
 72
  1000
 73
     1
 74
     3
 75
     0
 76
     0
 77
     0
 78
     0
281
     0
 65
     1
110
0.0
120
0.0
130
0.0
111
1.0
121
0.0
131
0.0
112
0.0
122
1.0
132
0.0
 79
     0
146
0.0
348
2F
 60
     2
 61
     5
292
     1
282
     1
141
0.0
142
0.0
 63
   250
421
  3355443
1001
ACAD_NAV_VCDISPLAY
1070
     1
  0
ENDTAB
  0
TABLE
  2
LTYPE
  5
5
330
0
100
AcDbSymbolTable
 70
     3
  0
LTYPE
  5
5B
330
5
100
AcDbSymbolTableRecord
100
AcDbLinetypeTableRecord
  2
ByBlock
 70
     0
  3

 72
    65
 73
     0
 40
0.0
  0
LTYPE
  5
5C
330
5
100
AcDbSymbolTableRecord
100
AcDbLinetypeTableRecord
  2
ByLayer
 70
     0
  3

 72
    65
 73
     0
 40
0.0
  0
LTYPE
  5
5D
330
5
100
AcDbSymbolTableRecord
100
AcDbLinetypeTableRecord
  2
Continuous
 70
     0
  3
Solid line
 72
    65
 73
     0
 40
0.0
  0
LTYPE
  5
BB
330
5
100
AcDbSymbolTableRecord
100
AcDbLinetypeTableRecord
  2
CENTER
 70
     0
  3
Center ____ _ ____ _ ____ _ ____ _ ____ _ ____
 72
    65
 73
     4
 40
50.8
 49
31.75
 74
     0
 49
-6.349999999999999
 74
     0
 49
6.349999999999999
 74
     0
 49
-6.349999999999999
 74
     0
  0
LTYPE
  5
BC
330
5
100
AcDbSymbolTableRecord
100
AcDbLinetypeTableRecord
  2
DASHED
 70
     0
  3
Dashed __ __ __ __ __ __ __ __ __ __ __ __ __ _
 72
    65
 73
     2
 40
19.05
 49
12.7
 74
     0
 49
-6.349999999999999
 74
     0
  0
ENDTAB
  0
TABLE
  2
LAYER
  5
2
102
{ACAD_XDICTIONARY
360
E4
102
}
330
0
100
AcDbSymbolTable
 70
    13
  0
LAYER
  5
54
330
2
100
AcDbSymbolTableRecord
100
AcDbLayerTableRecord
  2
0
 70
     0
 62
     7
  6
Continuous
370
    -3
390
F
347
21
  0
LAYER
  5
BD
102
{ACAD_XDICTIONARY
360
BE
102
}
330
2
100
AcDbSymbolTableRecord
100
AcDbLayerTableRecord
  2
Viewport
 70
     0
 62
     1
  6
Continuous
290
     0
370
    -3
390
F
347
21
  0
LAYER
  5
BF
102
{ACAD_XDICTIONARY
360
C0
102
}
330
2
100
AcDbSymbolTableRecord
100
AcDbLayerTableRecord
  2
dim
 70
     0
 62
     7
  6
Continuous
370
     5
390
F
347
21
  0
LAYER
  5
C1
102
{ACAD_XDICTIONARY
360
C2
102
}
330
2
100
AcDbSymbolTableRecord
100
AcDbLayerTableRecord
  2
Post
 70
     0
 62
     3
  6
Continuous
370
    -3
390
F
347
21
1001
AcAecLayerStandard
1000

1000

  0
LAYER
  5
C3
330
2
100
AcDbSymbolTableRecord
100
AcDbLayerTableRecord
  2
Defpoints
 70
     0
 62
     7
  6
Continuous
290
     0
370
    -3
390
F
347
21
  0
LAYER
  5
C4
102
{ACAD_XDICTIONARY
360
C5
102
}
330
2
100
AcDbSymbolTableRecord
100
AcDbLayerTableRecord
  2
fixing
 70
     0
 62
     4
  6
Continuous
370
     5
390
F
347
21
1001
AcAecLayerStandard
1000

1000

  0
LAYER
  5
C6
102
{ACAD_XDICTIONARY
360
C7
102
}
330
2
100
AcDbSymbolTableRecord
100
AcDbLayerTableRecord
  2
Spigot
 70
     0
 62
     6
  6
DASHED
370
     9
390
F
347
21
  0
LAYER
  5
C8
102
{ACAD_XDICTIONARY
360
C9
102
}
330
2
100
AcDbSymbolTableRecord
100
AcDbLayerTableRecord
  2
baseplate
 70
     0
 62
     7
  6
Continuous
370
    25
390
F
347
21
1001
AcAecLayerStandard
1000

1000

  0
LAYER
  5
CA
102
{ACAD_XDICTIONARY
360
CB
102
}
330
2
100
AcDbSymbolTableRecord
100
AcDbLayerTableRecord
  2
decking
 70
     0
 62
     1
  6
Continuous
370
     9
390
F
347
21
1001
AcAecLayerStandard
1000

1000

  0
LAYER
  5
CC
102
{ACAD_XDICTIONARY
360
CD
102
}
330
2
100
AcDbSymbolTableRecord
100
AcDbLayerTableRecord
  2
shade 8
 70
     0
 62
     8
  6
Continuous
370
     9
390
F
347
21
  0
LAYER
  5
CE
102
{ACAD_XDICTIONARY
360
CF
102
}
330
2
100
AcDbSymbolTableRecord
100
AcDbLayerTableRecord
  2
shade 9
 70
     0
 62
     9
  6
Continuous
370
    -3
390
F
347
21
1001
AcAecLayerStandard
1000

1000

  0
LAYER
  5
D0
102
{ACAD_XDICTIONARY
360
D1
102
}
330
2
100
AcDbSymbolTableRecord
100
AcDbLayerTableRecord
  2
ctrl
 70
     0
 62
   220
  6
CENTER
370
     5
390
F
347
21
1001
AcAecLayerStandard
1000

1000

  0
LAYER
  5
D2
102
{ACAD_XDICTIONARY
360
D3
102
}
330
2
100
AcDbSymbolTableRecord
100
AcDbLayerTableRecord
  2
title
 70
     0
 62
     7
  6
Continuous
370
     0
390
F
347
21
  0
ENDTAB
  0
TABLE
  2
STYLE
  5
3
330
0
100
AcDbSymbolTable
 70
     5
  0
STYLE
  5
55
330
3
100
AcDbSymbolTableRecord
100
AcDbTextStyleTableRecord
  2
Standard
 70
     0
 40
0.0
 41
1.0
 50
0.0
 71
     0
 42
2.5
  3
txt
  4

  0
STYLE
  5
5A
330
3
100
AcDbSymbolTableRecord
100
AcDbTextStyleTableRecord
  2
Annotative
 70
     0
 40
0.0
 41
1.0
 50
0.0
 71
     0
 42
0.2
  3
txt
  4

1001
AcadAnnotative
1000
AnnotativeData
1002
{
1070
     1
1070
     1
1002
}
  0
STYLE
  5
D4
330
3
100
AcDbSymbolTableRecord
100
AcDbTextStyleTableRecord
  2
Arial Narrow
 70
     0
 40
0.0
 41
1.0
 50
0.0
 71
     0
 42
2.5
  3
ARIALN.TTF
  4

1001
ACAD
1000
Arial Narrow
1071
       34
  0
STYLE
  5
D5
330
3
100
AcDbSymbolTableRecord
100
AcDbTextStyleTableRecord
  2
Calibri
 70
     0
 40
0.0
 41
1.0
 50
0.0
 71
     0
 42
15.0
  3
calibri.ttf
  4

1001
ACAD
1000
Calibri
1071
       34
  0
STYLE
  5
D6
330
3
100
AcDbSymbolTableRecord
100
AcDbTextStyleTableRecord
  2
SAM TEXT 1
 70
     0
 40
0.0
 41
1.0
 50
0.0
 71
     0
 42
2.5
  3
arial.ttf
  4

1001
ACAD
1000
Arial
1071
       34
  0
ENDTAB
  0
TABLE
  2
VIEW
  5
6
330
0
100
AcDbSymbolTable
 70
     1
  0
ENDTAB
  0
TABLE
  2
UCS
  5
7
330
0
100
AcDbSymbolTable
 70
     0
  0
ENDTAB
  0
TABLE
  2
APPID
  5
9
330
0
100
AcDbSymbolTable
 70
    12
  0
APPID
  5
56
330
9
100
AcDbSymbolTableRecord
100
AcDbRegAppTableRecord
  2
ACAD
 70
     0
  0
APPID
  5
5E
330
9
100
AcDbSymbolTableRecord
100
AcDbRegAppTableRecord
  2
AcadAnnotative
 70
     0
  0
APPID
  5
7D
330
9
100
AcDbSymbolTableRecord
100
AcDbRegAppTableRecord
  2
ACAD_NAV_VCDISPLAY
 70
     0
  0
APPID
  5
DC
330
9
100
AcDbSymbolTableRecord
100
AcDbRegAppTableRecord
  2
ACAD_PSEXT
 70
     0
  0
APPID
  5
DD
330
9
100
AcDbSymbolTableRecord
100
AcDbRegAppTableRecord
  2
AcAecLayerStandard
 70
     0
  0
APPID
  5
DE
330
9
100
AcDbSymbolTableRecord
100
AcDbRegAppTableRecord
  2
ACAD_DSTYLE_DIMJAG
 70
     0
  0
APPID
  5
DF
330
9
100
AcDbSymbolTableRecord
100
AcDbRegAppTableRecord
  2
ACAD_DSTYLE_DIMTALN
 70
     0
  0
APPID
  5
E0
330
9
100
AcDbSymbolTableRecord
100
AcDbRegAppTableRecord
  2
GradientColor1ACI
 70
     0
  0
APPID
  5
E1
330
9
100
AcDbSymbolTableRecord
100
AcDbRegAppTableRecord
  2
GradientColor2ACI
 70
     0
  0
APPID
  5
E2
330
9
100
AcDbSymbolTableRecord
100
AcDbRegAppTableRecord
  2
ACAD_DSTYLE_DIMBREAK
 70
     0
  0
APPID
  5
E3
330
9
100
AcDbSymbolTableRecord
100
AcDbRegAppTableRecord
  2
Acad_TC
 70
     0
  0
APPID
  5
4B1
330
9
100
AcDbSymbolTableRecord
100
AcDbRegAppTableRecord
  2
ACAD_MLEADERVER
 70
     0
  0
ENDTAB
  0
TABLE
  2
DIMSTYLE
  5
A
330
0
100
AcDbSymbolTable
 70
     7
100
AcDbDimStyleTable
 71
     0
  0
DIMSTYLE
105
58
330
A
100
AcDbSymbolTableRecord
100
AcDbDimStyleTableRecord
  2
ISO-25
 70
     0
 41
2.5
 42
0.625
 43
3.75
 44
1.25
 50
90.0
 73
     0
 74
     0
 77
     1
 78
     8
140
2.5
141
2.5
143
0.03937007874016
147
0.625
171
     3
172
     1
271
     2
272
     2
274
     3
278
    44
283
     0
284
     8
340
55
  0
DIMSTYLE
105
59
330
A
100
AcDbSymbolTableRecord
100
AcDbDimStyleTableRecord
  2
Annotative
 70
     0
340
55
1001
AcadAnnotative
1000
AnnotativeData
1002
{
1070
     1
1070
     1
1002
}
  0
DIMSTYLE
105
D7
102
{ACAD_REACTORS
330
18B
330
18E
330
18F
330
190
330
191
330
2DD
330
2E0
330
2E1
330
2E2
330
2E3
102
}
330
A
100
AcDbSymbolTableRecord
100
AcDbDimStyleTableRecord
  2
Spectrum 2
 70
     0
 40
2.0
 41
3.0
 42
1.0
 43
6.0
 44
2.0
 73
     0
 74
     0
 77
     1
 78
     8
140
2.25
141
0.0
143
0.03937007874016
147
1.0
171
     3
172
     1
271
     1
272
     1
274
     3
283
     0
284
     8
340
D5
1001
ACAD_DSTYLE_DIMJAG
1070
   388
1040
1.5
1001
ACAD_DSTYLE_DIMTALN
1070
   392
1070
     0
  0
DIMSTYLE
105
D8
330
A
100
AcDbSymbolTableRecord
100
AcDbDimStyleTableRecord
  2
Spectrum 2.5
 70
     0
 40
2.5
 41
3.0
 42
1.0
 43
6.0
 44
2.0
 73
     0
 74
     0
 77
     1
 78
     8
140
2.25
141
0.0
143
0.03937007874016
147
1.0
171
     3
172
     1
271
     1
272
     1
274
     3
283
     0
284
     8
340
D5
1001
ACAD_DSTYLE_DIMBREAK
1070
   391
1040
3.75
1001
ACAD_DSTYLE_DIMJAG
1070
   388
1040
1.5
1001
ACAD_DSTYLE_DIMTALN
1070
   392
1070
     0
  0
DIMSTYLE
105
D9
330
A
100
AcDbSymbolTableRecord
100
AcDbDimStyleTableRecord
  2
Spectrum
 70
     0
 40
2.0
 41
3.0
 42
1.0
 43
6.0
 44
2.0
 73
     0
 74
     0
 77
     1
 78
     8
140
2.25
141
0.0
143
0.03937007874016
147
1.0
171
     3
172
     1
271
     1
272
     1
274
     3
283
     0
284
     8
340
D5
1001
ACAD_DSTYLE_DIMJAG
1070
   388
1040
1.5
1001
ACAD_DSTYLE_DIMTALN
1070
   392
1070
     0
  0
DIMSTYLE
105
DA
330
A
100
AcDbSymbolTableRecord
100
AcDbDimStyleTableRecord
  2
DIM 1
 70
     0
 40
0.0
 41
2.0
 42
3.0
 43
6.0
 44
1.0
 73
     0
 74
     0
 77
     1
 78
     8
140
2.5
141
0.0
143
0.03937007874016
147
1.0
171
     3
172
     1
179
     1
271
     1
272
     1
274
     3
283
     0
284
     8
340
D6
  0
DIMSTYLE
105
DB
330
A
100
AcDbSymbolTableRecord
100
AcDbDimStyleTableRecord
  2
DIM 2
 70
     0
 40
2.0
 41
2.0
 42
3.0
 43
6.0
 44
1.0
 73
     0
 77
     1
 78
     8
140
2.5
141
0.0
143
0.03937007874016
147
1.0
171
     3
172
     1
179
     1
271
     1
272
     1
274
     3
283
     0
284
     8
340
D6
1001
ACAD_DSTYLE_DIMBREAK
1070
   391
1040
3.75
1001
ACAD_DSTYLE_DIMJAG
1070
   388
1040
1.5
1001
ACAD_DSTYLE_DIMTALN
1070
   392
1070
     0
  0
ENDTAB
  0
TABLE
  2
BLOCK_RECORD
  5
1
330
0
100
AcDbSymbolTable
 70
    12
  0
BLOCK_RECORD
  5
70
330
1
100
AcDbSymbolTableRecord
100
AcDbBlockTableRecord
  2
*Model_Space
340
73
 70
     0
280
     1
281
     0
  0
BLOCK_RECORD
  5
6C
330
1
100
AcDbSymbolTableRecord
100
AcDbBlockTableRecord
  2
*Paper_Space
340
6F
 70
     0
280
     1
281
     0
  0
BLOCK_RECORD
  5
74
330
1
100
AcDbSymbolTableRecord
100
AcDbBlockTableRecord
  2
*Paper_Space0
340
77
 70
     0
280
     1
281
     0
  0
BLOCK_RECORD
  5
7F
330
1
100
AcDbSymbolTableRecord
100
AcDbBlockTableRecord
  2
*D1
340
0
 70
     0
280
     1
281
     0
  0
BLOCK_RECORD
  5
8B
330
1
100
AcDbSymbolTableRecord
100
AcDbBlockTableRecord
  2
*D2
340
0
 70
     0
280
     1
281
     0
  0
BLOCK_RECORD
  5
97
330
1
100
AcDbSymbolTableRecord
100
AcDbBlockTableRecord
  2
*D3
340
0
 70
     0
280
     1
281
     0
  0
BLOCK_RECORD
  5
A3
330
1
100
AcDbSymbolTableRecord
100
AcDbBlockTableRecord
  2
*D4
340
0
 70
     0
280
     1
281
     0
  0
BLOCK_RECORD
  5
AF
330
1
100
AcDbSymbolTableRecord
100
AcDbBlockTableRecord
  2
*D5
340
0
 70
     0
280
     1
281
     0
  0
BLOCK_RECORD
  5
37F
330
1
100
AcDbSymbolTableRecord
100
AcDbBlockTableRecord
  2
*D7
340
0
 70
     0
280
     1
281
     0
  0
BLOCK_RECORD
  5
38B
330
1
100
AcDbSymbolTableRecord
100
AcDbBlockTableRecord
  2
*D8
340
0
 70
     0
280
     1
281
     0
  0
BLOCK_RECORD
  5
397
330
1
100
AcDbSymbolTableRecord
100
AcDbBlockTableRecord
  2
*D9
340
0
 70
     0
280
     1
281
     0
  0
BLOCK_RECORD
  5
3A3
330
1
100
AcDbSymbolTableRecord
100
AcDbBlockTableRecord
  2
*D10
340
0
 70
     0
280
     1
281
     0
  0
BLOCK_RECORD
  5
3D3
330
1
100
AcDbSymbolTableRecord
100
AcDbBlockTableRecord
  2
*D11
340
0
 70
     0
280
     1
281
     0
  0
ENDTAB
  0
ENDSEC
  0
SECTION
  2
BLOCKS
  0
BLOCK
  5
71
330
70
100
AcDbEntity
  8
0
100
AcDbBlockBegin
  2
*Model_Space
 70
     0
 10
0.0
 20
0.0
 30
0.0
  3
*Model_Space
  1

  0
ENDBLK
  5
72
330
70
100
AcDbEntity
  8
0
100
AcDbBlockEnd
  0
BLOCK
  5
6D
330
6C
100
AcDbEntity
 67
     1
  8
0
100
AcDbBlockBegin
  2
*Paper_Space
 70
     0
 10
0.0
 20
0.0
 30
0.0
  3
*Paper_Space
  1

  0
ENDBLK
  5
6E
330
6C
100
AcDbEntity
 67
     1
  8
0
100
AcDbBlockEnd
  0
BLOCK
  5
75
330
74
100
AcDbEntity
 67
     1
  8
0
100
AcDbBlockBegin
  2
*Paper_Space0
 70
     0
 10
0.0
 20
0.0
 30
0.0
  3
*Paper_Space0
  1

  0
ENDBLK
  5
76
330
74
100
AcDbEntity
 67
     1
  8
0
100
AcDbBlockEnd
  0
BLOCK
  5
80
330
7F
100
AcDbEntity
  8
0
100
AcDbBlockBegin
  2
*D1
 70
     1
 10
0.0
 20
0.0
 30
0.0
  3
*D1
  1

  0
LINE
  5
81
330
7F
100
AcDbEntity
  8
dim
 62
     0
440
 16777216
370
    -2
100
AcDbLine
 10
3778.880734196938
 20
441.8853462447172
 30
0.0
 11
3756.591073264644
 21
441.8853462447172
 31
0.0
  0
LINE
  5
82
330
7F
100
AcDbEntity
  8
dim
 62
     0
440
 16777216
370
    -2
100
AcDbLine
 10
3778.880734196938
 20
581.8853462447171
 30
0.0
 11
3756.591073264644
 21
581.8853462447171
 31
0.0
  0
LINE
  5
83
330
7F
100
AcDbEntity
  8
dim
 62
     0
440
 16777216
370
    -2
100
AcDbLine
 10
3760.591073264644
 20
447.8853462447172
 30
0.0
 11
3760.591073264644
 21
575.8853462447172
 31
0.0
  0
SOLID
  5
84
330
7F
100
AcDbEntity
  8
dim
 62
     0
440
 16777216
100
AcDbTrace
 10
3759.591073264644
 20
447.8853462447172
 30
0.0
 11
3761.591073264645
 21
447.8853462447172
 31
0.0
 12
3760.591073264644
 22
441.8853462447172
 32
0.0
 13
3760.591073264644
 23
441.8853462447172
 33
0.0
  0
SOLID
  5
85
330
7F
100
AcDbEntity
  8
dim
 62
     0
440
 16777216
100
AcDbTrace
 10
3759.591073264644
 20
575.8853462447172
 30
0.0
 11
3761.591073264645
 21
575.8853462447172
 31
0.0
 12
3760.591073264644
 22
581.8853462447171
 32
0.0
 13
3760.591073264644
 23
581.8853462447171
 33
0.0
  0
MTEXT
  5
86
330
7F
100
AcDbEntity
  8
dim
 62
     0
440
 16777216
100
AcDbMText
 10
3756.261457880028
 20
523.72641012424
 30
0.0
 40
4.5
 41
0.0
 46
0.0
 71
     5
 72
     1
  1
140mm min
  7
Calibri
 11
0.0000000000000001
 21
1.0
 31
0.0
 73
     1
 44
1.0
  0
POINT
  5
87
330
7F
100
AcDbEntity
  8
Defpoints
 62
     0
440
 16777216
100
AcDbPoint
 10
3782.880734196938
 20
441.8853462447172
 30
0.0
  0
POINT
  5
88
330
7F
100
AcDbEntity
  8
Defpoints
 62
     0
440
 16777216
100
AcDbPoint
 10
3782.880734196938
 20
581.8853462447171
 30
0.0
  0
POINT
  5
89
330
7F
100
AcDbEntity
  8
Defpoints
 62
     0
440
 16777216
100
AcDbPoint
 10
3760.591073264644
 20
581.8853462447171
 30
0.0
  0
ENDBLK
  5
8A
330
7F
100
AcDbEntity
  8
0
100
AcDbBlockEnd
  0
BLOCK
  5
8C
330
8B
100
AcDbEntity
  8
0
100
AcDbBlockBegin
  2
*D2
 70
     1
 10
0.0
 20
0.0
 30
0.0
  3
*D2
  1

  0
LINE
  5
8D
330
8B
100
AcDbEntity
  8
dim
 62
     0
440
 16777216
370
    -2
100
AcDbLine
 10
3766.068083097912
 20
606.8853462447171
 30
0.0
 11
3756.591073264644
 21
606.8853462447171
 31
0.0
  0
LINE
  5
8E
330
8B
100
AcDbEntity
  8
dim
 62
     0
440
 16777216
370
    -2
100
AcDbLine
 10
3778.880734196938
 20
581.8853462447171
 30
0.0
 11
3756.591073264644
 21
581.8853462447171
 31
0.0
  0
LINE
  5
8F
330
8B
100
AcDbEntity
  8
dim
 62
     0
440
 16777216
370
    -2
100
AcDbLine
 10
3760.591073264644
 20
600.8853462447172
 30
0.0
 11
3760.591073264644
 21
587.8853462447172
 31
0.0
  0
SOLID
  5
90
330
8B
100
AcDbEntity
  8
dim
 62
     0
440
 16777216
100
AcDbTrace
 10
3759.591073264644
 20
600.8853462447172
 30
0.0
 11
3761.591073264645
 21
600.8853462447172
 31
0.0
 12
3760.591073264644
 22
606.8853462447171
 32
0.0
 13
3760.591073264644
 23
606.8853462447171
 33
0.0
  0
SOLID
  5
91
330
8B
100
AcDbEntity
  8
dim
 62
     0
440
 16777216
100
AcDbTrace
 10
3759.591073264644
 20
587.8853462447172
 30
0.0
 11
3761.591073264645
 21
587.8853462447172
 31
0.0
 12
3760.591073264644
 22
581.8853462447171
 32
0.0
 13
3760.591073264644
 23
581.8853462447171
 33
0.0
  0
MTEXT
  5
92
330
8B
100
AcDbEntity
  8
dim
 62
     0
440
 16777216
100
AcDbMText
 10
3756.261457880028
 20
594.3854305591432
 30
0.0
 40
4.5
 41
0.0
 46
0.0
 71
     5
 72
     1
  1
25 min
  7
Calibri
 11
0.0000000000000001
 21
1.0
 31
0.0
 73
     1
 44
1.0
  0
POINT
  5
93
330
8B
100
AcDbEntity
  8
Defpoints
 62
     0
440
 16777216
100
AcDbPoint
 10
3770.068083097912
 20
606.8853462447171
 30
0.0
  0
POINT
  5
94
330
8B
100
AcDbEntity
  8
Defpoints
 62
     0
440
 16777216
100
AcDbPoint
 10
3782.880734196938
 20
581.8853462447171
 30
0.0
  0
POINT
  5
95
330
8B
100
AcDbEntity
  8
Defpoints
 62
     0
440
 16777216
100
AcDbPoint
 10
3760.591073264644
 20
581.8853462447171
 30
0.0
  0
ENDBLK
  5
96
330
8B
100
AcDbEntity
  8
0
100
AcDbBlockEnd
  0
BLOCK
  5
98
330
97
100
AcDbEntity
  8
0
100
AcDbBlockBegin
  2
*D3
 70
     1
 10
0.0
 20
0.0
 30
0.0
  3
*D3
  1

  0
LINE
  5
99
330
97
100
AcDbEntity
  8
dim
 62
     0
440
 16777216
370
    -2
100
AcDbLine
 10
3805.880734196936
 20
610.885346244717
 30
0.0
 11
3805.880734196936
 21
644.5183487553223
 31
0.0
  0
LINE
  5
9A
330
97
100
AcDbEntity
  8
dim
 62
     0
440
 16777216
370
    -2
100
AcDbLine
 10
3895.880734196936
 20
628.8853462447169
 30
0.0
 11
3895.880734196936
 21
644.5183487553223
 31
0.0
  0
LINE
  5
9B
330
97
100
AcDbEntity
  8
dim
 62
     0
440
 16777216
370
    -2
100
AcDbLine
 10
3811.880734196936
 20
640.5183487553223
 30
0.0
 11
3889.880734196936
 21
640.5183487553223
 31
0.0
  0
SOLID
  5
9C
330
97
100
AcDbEntity
  8
dim
 62
     0
440
 16777216
100
AcDbTrace
 10
3811.880734196936
 20
641.5183487553223
 30
0.0
 11
3811.880734196936
 21
639.5183487553223
 31
0.0
 12
3805.880734196936
 22
640.5183487553223
 32
0.0
 13
3805.880734196936
 23
640.5183487553223
 33
0.0
  0
SOLID
  5
9D
330
97
100
AcDbEntity
  8
dim
 62
     0
440
 16777216
100
AcDbTrace
 10
3889.880734196936
 20
641.5183487553223
 30
0.0
 11
3889.880734196936
 21
639.5183487553223
 31
0.0
 12
3895.880734196936
 22
640.5183487553223
 32
0.0
 13
3895.880734196936
 23
640.5183487553223
 33
0.0
  0
MTEXT
  5
9E
330
97
100
AcDbEntity
  8
dim
 62
     0
440
 16777216
100
AcDbMText
 10
3850.880734196936
 20
644.9621949091684
 30
0.0
 40
4.5
 41
0.0
 46
0.0
 71
     5
 72
     1
  1
90 min timber width
  7
Calibri
 73
     1
 44
1.0
  0
POINT
  5
9F
330
97
100
AcDbEntity
  8
Defpoints
 62
     0
440
 16777216
100
AcDbPoint
 10
3805.880734196936
 20
606.885346244717
 30
0.0
  0
POINT
  5
A0
330
97
100
AcDbEntity
  8
Defpoints
 62
     0
440
 16777216
100
AcDbPoint
 10
3895.880734196936
 20
624.8853462447169
 30
0.0
  0
POINT
  5
A1
330
97
100
AcDbEntity
  8
Defpoints
 62
     0
440
 16777216
100
AcDbPoint
 10
3895.880734196936
 20
640.5183487553223
 30
0.0
  0
ENDBLK
  5
A2
330
97
100
AcDbEntity
  8
0
100
AcDbBlockEnd
  0
BLOCK
  5
A4
330
A3
100
AcDbEntity
  8
0
100
AcDbBlockBegin
  2
*D4
 70
     1
 10
0.0
 20
0.0
 30
0.0
  3
*D4
  1

  0
LINE
  5
A5
330
A3
100
AcDbEntity
  8
dim
 62
     0
440
 16777216
370
    -2
100
AcDbLine
 10
3766.068083097912
 20
441.8853462447172
 30
0.0
 11
3756.591073264644
 21
441.8853462447172
 31
0.0
  0
LINE
  5
A6
330
A3
100
AcDbEntity
  8
dim
 62
     0
440
 16777216
370
    -2
100
AcDbLine
 10
3778.880734196938
 20
416.8853462447172
 30
0.0
 11
3756.591073264644
 21
416.8853462447172
 31
0.0
  0
LINE
  5
A7
330
A3
100
AcDbEntity
  8
dim
 62
     0
440
 16777216
370
    -2
100
AcDbLine
 10
3760.591073264644
 20
435.8853462447171
 30
0.0
 11
3760.591073264644
 21
422.8853462447172
 31
0.0
  0
SOLID
  5
A8
330
A3
100
AcDbEntity
  8
dim
 62
     0
440
 16777216
100
AcDbTrace
 10
3759.591073264644
 20
435.8853462447171
 30
0.0
 11
3761.591073264645
 21
435.8853462447171
 31
0.0
 12
3760.591073264644
 22
441.8853462447172
 32
0.0
 13
3760.591073264644
 23
441.8853462447172
 33
0.0
  0
SOLID
  5
A9
330
A3
100
AcDbEntity
  8
dim
 62
     0
440
 16777216
100
AcDbTrace
 10
3759.591073264644
 20
422.8853462447172
 30
0.0
 11
3761.591073264645
 21
422.8853462447172
 31
0.0
 12
3760.591073264644
 22
416.8853462447172
 32
0.0
 13
3760.591073264644
 23
416.8853462447172
 33
0.0
  0
MTEXT
  5
AA
330
A3
100
AcDbEntity
  8
dim
 62
     0
440
 16777216
100
AcDbMText
 10
3756.261457880028
 20
429.3854305591431
 30
0.0
 40
4.5
 41
0.0
 46
0.0
 71
     5
 72
     1
  1
25 min
  7
Calibri
 11
0.0000000000000001
 21
1.0
 31
0.0
 73
     1
 44
1.0
  0
POINT
  5
AB
330
A3
100
AcDbEntity
  8
Defpoints
 62
     0
440
 16777216
100
AcDbPoint
 10
3770.068083097912
 20
441.8853462447172
 30
0.0
  0
POINT
  5
AC
330
A3
100
AcDbEntity
  8
Defpoints
 62
     0
440
 16777216
100
AcDbPoint
 10
3782.880734196938
 20
416.8853462447172
 30
0.0
  0
POINT
  5
AD
330
A3
100
AcDbEntity
  8
Defpoints
 62
     0
440
 16777216
100
AcDbPoint
 10
3760.591073264644
 20
416.8853462447172
 30
0.0
  0
ENDBLK
  5
AE
330
A3
100
AcDbEntity
  8
0
100
AcDbBlockEnd
  0
BLOCK
  5
B0
330
AF
100
AcDbEntity
  8
0
100
AcDbBlockBegin
  2
*D5
 70
     1
 10
0.0
 20
0.0
 30
0.0
  3
*D5
  1

  0
LINE
  5
B1
330
AF
100
AcDbEntity
  8
dim
 62
     0
440
 16777216
370
    -2
100
AcDbLine
 10
3801.880734196938
 20
416.8853462447172
 30
0.0
 11
3742.591073264645
 21
416.8853462447172
 31
0.0
  0
LINE
  5
B2
330
AF
100
AcDbEntity
  8
dim
 62
     0
440
 16777216
370
    -2
100
AcDbLine
 10
3768.068083097912
 20
606.8853462447171
 30
0.0
 11
3742.591073264645
 21
606.8853462447171
 31
0.0
  0
LINE
  5
B3
330
AF
100
AcDbEntity
  8
dim
 62
     0
440
 16777216
370
    -2
100
AcDbLine
 10
3746.591073264645
 20
422.8853462447172
 30
0.0
 11
3746.591073264645
 21
600.8853462447172
 31
0.0
  0
SOLID
  5
B4
330
AF
100
AcDbEntity
  8
dim
 62
     0
440
 16777216
100
AcDbTrace
 10
3745.591073264645
 20
422.8853462447172
 30
0.0
 11
3747.591073264645
 21
422.8853462447172
 31
0.0
 12
3746.591073264645
 22
416.8853462447172
 32
0.0
 13
3746.591073264645
 23
416.8853462447172
 33
0.0
  0
SOLID
  5
B5
330
AF
100
AcDbEntity
  8
dim
 62
     0
440
 16777216
100
AcDbTrace
 10
3745.591073264645
 20
600.8853462447172
 30
0.0
 11
3747.591073264645
 21
600.8853462447172
 31
0.0
 12
3746.591073264645
 22
606.8853462447171
 32
0.0
 13
3746.591073264645
 23
606.8853462447171
 33
0.0
  0
MTEXT
  5
B6
330
AF
100
AcDbEntity
  8
dim
 62
     0
440
 16777216
100
AcDbMText
 10
3741.550111726182
 20
511.8853462447279
 30
0.0
 40
4.5
 41
0.0
 46
0.0
 71
     5
 72
     1
  1
190 min section depth
  7
Calibri
 11
0.0000000000000001
 21
1.0
 31
0.0
 73
     1
 44
1.0
  0
POINT
  5
B7
330
AF
100
AcDbEntity
  8
Defpoints
 62
     0
440
 16777216
100
AcDbPoint
 10
3803.880734196938
 20
416.8853462447172
 30
0.0
  0
POINT
  5
B8
330
AF
100
AcDbEntity
  8
Defpoints
 62
     0
440
 16777216
100
AcDbPoint
 10
3770.068083097912
 20
606.8853462447171
 30
0.0
  0
POINT
  5
B9
330
AF
100
AcDbEntity
  8
Defpoints
 62
     0
440
 16777216
100
AcDbPoint
 10
3746.591073264645
 20
606.8853462447171
 30
0.0
  0
ENDBLK
  5
BA
330
AF
100
AcDbEntity
  8
0
100
AcDbBlockEnd
  0
BLOCK
  5
380
330
37F
100
AcDbEntity
  8
0
100
AcDbBlockBegin
  2
*D7
 70
     1
 10
0.0
 20
0.0
 30
0.0
  3
*D7
  1

  0
LINE
  5
3E4
330
37F
100
AcDbEntity
  8
dim
 62
     0
440
 16777216
370
    -2
100
AcDbLine
 10
78.73232658804048
 20
223.1566519237896
 30
0.0
 11
56.44266565574793
 21
223.1566519237896
 31
0.0
  0
LINE
  5
3E5
330
37F
100
AcDbEntity
  8
dim
 62
     0
440
 16777216
370
    -2
100
AcDbLine
 10
78.73232658804048
 20
363.1566519237896
 30
0.0
 11
56.4426656557479
 21
363.1566519237896
 31
0.0
  0
LINE
  5
3E6
330
37F
100
AcDbEntity
  8
dim
 62
     0
440
 16777216
370
    -2
100
AcDbLine
 10
60.44266565574793
 20
229.1566519237896
 30
0.0
 11
60.4426656557479
 21
357.1566519237896
 31
0.0
  0
SOLID
  5
3E7
330
37F
100
AcDbEntity
  8
dim
 62
     0
440
 16777216
100
AcDbTrace
 10
59.44266565574793
 20
229.1566519237896
 30
0.0
 11
61.44266565574793
 21
229.1566519237896
 31
0.0
 12
60.44266565574793
 22
223.1566519237896
 32
0.0
 13
60.44266565574793
 23
223.1566519237896
 33
0.0
  0
SOLID
  5
3E8
330
37F
100
AcDbEntity
  8
dim
 62
     0
440
 16777216
100
AcDbTrace
 10
59.4426656557479
 20
357.1566519237896
 30
0.0
 11
61.4426656557479
 21
357.1566519237896
 31
0.0
 12
60.4426656557479
 22
363.1566519237896
 32
0.0
 13
60.4426656557479
 23
363.1566519237896
 33
0.0
  0
MTEXT
  5
3E9
330
37F
100
AcDbEntity
  8
dim
 62
     0
440
 16777216
100
AcDbMText
 10
56.1130502711326
 20
304.9977158033125
 30
0.0
 40
4.5
 41
0.0
 46
0.0
 71
     5
 72
     1
  1
140mm min
  7
Calibri
 11
0.0000000000000001
 21
1.0
 31
0.0
 73
     1
 44
1.0
  0
POINT
  5
3EA
330
37F
100
AcDbEntity
  8
Defpoints
 62
     0
440
 16777216
100
AcDbPoint
 10
82.73232658804047
 20
223.1566519237896
 30
0.0
  0
POINT
  5
3EB
330
37F
100
AcDbEntity
  8
Defpoints
 62
     0
440
 16777216
100
AcDbPoint
 10
82.73232658804047
 20
363.1566519237896
 30
0.0
  0
POINT
  5
3EC
330
37F
100
AcDbEntity
  8
Defpoints
 62
     0
440
 16777216
100
AcDbPoint
 10
60.4426656557479
 20
363.1566519237896
 30
0.0
  0
ENDBLK
  5
381
330
37F
100
AcDbEntity
  8
0
100
AcDbBlockEnd
  0
BLOCK
  5
38C
330
38B
100
AcDbEntity
  8
0
100
AcDbBlockBegin
  2
*D8
 70
     1
 10
0.0
 20
0.0
 30
0.0
  3
*D8
  1

  0
LINE
  5
3ED
330
38B
100
AcDbEntity
  8
dim
 62
     0
440
 16777216
370
    -2
100
AcDbLine
 10
65.9196754890145
 20
388.1566519237897
 30
0.0
 11
56.44266565574789
 21
388.1566519237897
 31
0.0
  0
LINE
  5
3EE
330
38B
100
AcDbEntity
  8
dim
 62
     0
440
 16777216
370
    -2
100
AcDbLine
 10
78.73232658804048
 20
363.1566519237896
 30
0.0
 11
56.4426656557479
 21
363.1566519237896
 31
0.0
  0
LINE
  5
3EF
330
38B
100
AcDbEntity
  8
dim
 62
     0
440
 16777216
370
    -2
100
AcDbLine
 10
60.4426656557479
 20
382.1566519237896
 30
0.0
 11
60.4426656557479
 21
369.1566519237896
 31
0.0
  0
SOLID
  5
3F0
330
38B
100
AcDbEntity
  8
dim
 62
     0
440
 16777216
100
AcDbTrace
 10
59.44266565574789
 20
382.1566519237896
 30
0.0
 11
61.44266565574789
 21
382.1566519237896
 31
0.0
 12
60.4426656557479
 22
388.1566519237897
 32
0.0
 13
60.4426656557479
 23
388.1566519237897
 33
0.0
  0
SOLID
  5
3F1
330
38B
100
AcDbEntity
  8
dim
 62
     0
440
 16777216
100
AcDbTrace
 10
59.44266565574789
 20
369.1566519237896
 30
0.0
 11
61.44266565574789
 21
369.1566519237896
 31
0.0
 12
60.4426656557479
 22
363.1566519237896
 32
0.0
 13
60.4426656557479
 23
363.1566519237896
 33
0.0
  0
MTEXT
  5
3F2
330
38B
100
AcDbEntity
  8
dim
 62
     0
440
 16777216
100
AcDbMText
 10
56.1130502711326
 20
375.6567362382157
 30
0.0
 40
4.5
 41
0.0
 46
0.0
 71
     5
 72
     1
  1
25 min
  7
Calibri
 11
0.0000000000000001
 21
1.0
 31
0.0
 73
     1
 44
1.0
  0
POINT
  5
3F3
330
38B
100
AcDbEntity
  8
Defpoints
 62
     0
440
 16777216
100
AcDbPoint
 10
69.91967548901451
 20
388.1566519237897
 30
0.0
  0
POINT
  5
3F4
330
38B
100
AcDbEntity
  8
Defpoints
 62
     0
440
 16777216
100
AcDbPoint
 10
82.73232658804047
 20
363.1566519237896
 30
0.0
  0
POINT
  5
3F5
330
38B
100
AcDbEntity
  8
Defpoints
 62
     0
440
 16777216
100
AcDbPoint
 10
60.4426656557479
 20
363.1566519237896
 30
0.0
  0
ENDBLK
  5
38D
330
38B
100
AcDbEntity
  8
0
100
AcDbBlockEnd
  0
BLOCK
  5
398
330
397
100
AcDbEntity
  8
0
100
AcDbBlockBegin
  2
*D9
 70
     1
 10
0.0
 20
0.0
 30
0.0
  3
*D9
  1

  0
LINE
  5
3F6
330
397
100
AcDbEntity
  8
dim
 62
     0
440
 16777216
370
    -2
100
AcDbLine
 10
105.7323265880404
 20
392.1566519237895
 30
0.0
 11
105.7323265880404
 21
425.7896544343948
 31
0.0
  0
LINE
  5
3F7
330
397
100
AcDbEntity
  8
dim
 62
     0
440
 16777216
370
    -2
100
AcDbLine
 10
195.7323265880404
 20
410.1566519237894
 30
0.0
 11
195.7323265880404
 21
425.7896544343948
 31
0.0
  0
LINE
  5
3F8
330
397
100
AcDbEntity
  8
dim
 62
     0
440
 16777216
370
    -2
100
AcDbLine
 10
111.7323265880404
 20
421.7896544343948
 30
0.0
 11
189.7323265880404
 21
421.7896544343948
 31
0.0
  0
SOLID
  5
3F9
330
397
100
AcDbEntity
  8
dim
 62
     0
440
 16777216
100
AcDbTrace
 10
111.7323265880404
 20
422.7896544343948
 30
0.0
 11
111.7323265880404
 21
420.7896544343948
 31
0.0
 12
105.7323265880404
 22
421.7896544343948
 32
0.0
 13
105.7323265880404
 23
421.7896544343948
 33
0.0
  0
SOLID
  5
3FA
330
397
100
AcDbEntity
  8
dim
 62
     0
440
 16777216
100
AcDbTrace
 10
189.7323265880404
 20
422.7896544343948
 30
0.0
 11
189.7323265880404
 21
420.7896544343948
 31
0.0
 12
195.7323265880404
 22
421.7896544343948
 32
0.0
 13
195.7323265880404
 23
421.7896544343948
 33
0.0
  0
MTEXT
  5
3FB
330
397
100
AcDbEntity
  8
dim
 62
     0
440
 16777216
100
AcDbMText
 10
150.7323265880404
 20
426.233500588241
 30
0.0
 40
4.5
 41
0.0
 46
0.0
 71
     5
 72
     1
  1
90 min timber width
  7
Calibri
 73
     1
 44
1.0
  0
POINT
  5
3FC
330
397
100
AcDbEntity
  8
Defpoints
 62
     0
440
 16777216
100
AcDbPoint
 10
105.7323265880404
 20
388.1566519237895
 30
0.0
  0
POINT
  5
3FD
330
397
100
AcDbEntity
  8
Defpoints
 62
     0
440
 16777216
100
AcDbPoint
 10
195.7323265880404
 20
406.1566519237894
 30
0.0
  0
POINT
  5
3FE
330
397
100
AcDbEntity
  8
Defpoints
 62
     0
440
 16777216
100
AcDbPoint
 10
195.7323265880404
 20
421.7896544343948
 30
0.0
  0
ENDBLK
  5
399
330
397
100
AcDbEntity
  8
0
100
AcDbBlockEnd
  0
BLOCK
  5
3A4
330
3A3
100
AcDbEntity
  8
0
100
AcDbBlockBegin
  2
*D10
 70
     1
 10
0.0
 20
0.0
 30
0.0
  3
*D10
  1

  0
LINE
  5
3FF
330
3A3
100
AcDbEntity
  8
dim
 62
     0
440
 16777216
370
    -2
100
AcDbLine
 10
65.9196754890145
 20
223.1566519237896
 30
0.0
 11
56.44266565574794
 21
223.1566519237896
 31
0.0
  0
LINE
  5
400
330
3A3
100
AcDbEntity
  8
dim
 62
     0
440
 16777216
370
    -2
100
AcDbLine
 10
78.73232658804048
 20
198.1566519237896
 30
0.0
 11
56.44266565574795
 21
198.1566519237895
 31
0.0
  0
LINE
  5
401
330
3A3
100
AcDbEntity
  8
dim
 62
     0
440
 16777216
370
    -2
100
AcDbLine
 10
60.44266565574794
 20
217.1566519237896
 30
0.0
 11
60.44266565574794
 21
204.1566519237896
 31
0.0
  0
SOLID
  5
402
330
3A3
100
AcDbEntity
  8
dim
 62
     0
440
 16777216
100
AcDbTrace
 10
59.44266565574793
 20
217.1566519237896
 30
0.0
 11
61.44266565574794
 21
217.1566519237896
 31
0.0
 12
60.44266565574794
 22
223.1566519237896
 32
0.0
 13
60.44266565574794
 23
223.1566519237896
 33
0.0
  0
SOLID
  5
403
330
3A3
100
AcDbEntity
  8
dim
 62
     0
440
 16777216
100
AcDbTrace
 10
59.44266565574794
 20
204.1566519237896
 30
0.0
 11
61.44266565574795
 21
204.1566519237896
 31
0.0
 12
60.44266565574794
 22
198.1566519237895
 32
0.0
 13
60.44266565574794
 23
198.1566519237895
 33
0.0
  0
MTEXT
  5
404
330
3A3
100
AcDbEntity
  8
dim
 62
     0
440
 16777216
100
AcDbMText
 10
56.1130502711326
 20
210.6567362382157
 30
0.0
 40
4.5
 41
0.0
 46
0.0
 71
     5
 72
     1
  1
25 min
  7
Calibri
 11
0.0000000000000001
 21
1.0
 31
0.0
 73
     1
 44
1.0
  0
POINT
  5
405
330
3A3
100
AcDbEntity
  8
Defpoints
 62
     0
440
 16777216
100
AcDbPoint
 10
69.91967548901451
 20
223.1566519237896
 30
0.0
  0
POINT
  5
406
330
3A3
100
AcDbEntity
  8
Defpoints
 62
     0
440
 16777216
100
AcDbPoint
 10
82.73232658804047
 20
198.1566519237896
 30
0.0
  0
POINT
  5
407
330
3A3
100
AcDbEntity
  8
Defpoints
 62
     0
440
 16777216
100
AcDbPoint
 10
60.44266565574794
 20
198.1566519237895
 30
0.0
  0
ENDBLK
  5
3A5
330
3A3
100
AcDbEntity
  8
0
100
AcDbBlockEnd
  0
BLOCK
  5
3D4
330
3D3
100
AcDbEntity
  8
0
100
AcDbBlockBegin
  2
*D11
 70
     1
 10
0.0
 20
0.0
 30
0.0
  3
*D11
  1

  0
LINE
  5
408
330
3D3
100
AcDbEntity
  8
dim
 62
     0
440
 16777216
370
    -2
100
AcDbLine
 10
101.7323265880405
 20
198.1566519237896
 30
0.0
 11
42.44266565574792
 21
198.1566519237895
 31
0.0
  0
LINE
  5
409
330
3D3
100
AcDbEntity
  8
dim
 62
     0
440
 16777216
370
    -2
100
AcDbLine
 10
67.91967548901451
 20
388.1566519237897
 30
0.0
 11
42.44266565574789
 21
388.1566519237897
 31
0.0
  0
LINE
  5
40A
330
3D3
100
AcDbEntity
  8
dim
 62
     0
440
 16777216
370
    -2
100
AcDbLine
 10
46.44266565574793
 20
204.1566519237896
 30
0.0
 11
46.44266565574788
 21
382.1566519237896
 31
0.0
  0
SOLID
  5
40B
330
3D3
100
AcDbEntity
  8
dim
 62
     0
440
 16777216
100
AcDbTrace
 10
45.44266565574793
 20
204.1566519237896
 30
0.0
 11
47.44266565574792
 21
204.1566519237896
 31
0.0
 12
46.44266565574793
 22
198.1566519237895
 32
0.0
 13
46.44266565574793
 23
198.1566519237895
 33
0.0
  0
SOLID
  5
40C
330
3D3
100
AcDbEntity
  8
dim
 62
     0
440
 16777216
100
AcDbTrace
 10
45.44266565574789
 20
382.1566519237896
 30
0.0
 11
47.44266565574789
 21
382.1566519237896
 31
0.0
 12
46.44266565574788
 22
388.1566519237897
 32
0.0
 13
46.44266565574788
 23
388.1566519237897
 33
0.0
  0
MTEXT
  5
40D
330
3D3
100
AcDbEntity
  8
dim
 62
     0
440
 16777216
100
AcDbMText
 10
41.40170411728645
 20
293.1566519238004
 30
0.0
 40
4.5
 41
0.0
 46
0.0
 71
     5
 72
     1
  1
190 min section depth
  7
Calibri
 11
0.0000000000000001
 21
1.0
 31
0.0
 73
     1
 44
1.0
  0
POINT
  5
40E
330
3D3
100
AcDbEntity
  8
Defpoints
 62
     0
440
 16777216
100
AcDbPoint
 10
103.7323265880405
 20
198.1566519237896
 30
0.0
  0
POINT
  5
40F
330
3D3
100
AcDbEntity
  8
Defpoints
 62
     0
440
 16777216
100
AcDbPoint
 10
69.91967548901451
 20
388.1566519237897
 30
0.0
  0
POINT
  5
410
330
3D3
100
AcDbEntity
  8
Defpoints
 62
     0
440
 16777216
100
AcDbPoint
 10
46.44266565574788
 20
388.1566519237897
 30
0.0
  0
ENDBLK
  5
3D5
330
3D3
100
AcDbEntity
  8
0
100
AcDbBlockEnd
  0
ENDSEC
  0
SECTION
  2
ENTITIES
  0
LINE
  5
239
330
70
100
AcDbEntity
  8
Post
100
AcDbLine
 10
248.0323265880433
 20
198.15682055262
 30
0.0
 11
248.0323265880433
 21
527.8310650565217
 31
0.0
  0
LINE
  5
23A
330
70
100
AcDbEntity
  8
Post
100
AcDbLine
 10
197.2323265880404
 20
198.15682055262
 30
0.0
 11
197.2323265880404
 21
527.9299231557979
 31
0.0
  0
LINE
  5
23B
330
70
100
AcDbEntity
  8
Post
370
     9
100
AcDbLine
 10
200.2323265880404
 20
201.15682055262
 30
0.0
 11
200.2323265880404
 21
529.2645737065249
 31
0.0
  0
LINE
  5
23C
330
70
100
AcDbEntity
  8
Post
370
     9
100
AcDbLine
 10
245.0323265880288
 20
201.15682055262
 30
0.0
 11
245.0323265880434
 21
526.4193258678242
 31
0.0
  0
SPLINE
  5
23D
330
70
100
AcDbEntity
  8
dim
  6
DASHED
 48
0.2
370
     5
100
AcDbSpline
210
0.0
220
0.0
230
1.0
 70
  1064
 71
     3
 72
    10
 73
     6
 74
     4
 42
0.000000001
 43
0.0000000001
 44
0.00001
 40
0.0
 40
0.0
 40
0.0
 40
0.0
 40
25.64484207790902
 40
44.54267333147243
 40
68.78748080469866
 40
68.78748080469866
 40
68.78748080469866
 40
68.78748080469866
 10
189.7701186081976
 20
524.0531636424038
 30
0.0
 10
198.0670570299136
 20
528.5463236184241
 30
0.0
 10
212.4780571746831
 20
536.3504968613589
 30
0.0
 10
233.3827932481096
 20
519.3434503128097
 30
0.0
 10
247.2094560658899
 20
527.2109049152195
 30
0.0
 10
254.9796057599451
 20
531.6321792635426
 30
0.0
 11
189.7701186081976
 21
524.0531636424038
 31
0.0
 11
214.3711153272743
 21
531.2953356195648
 31
0.0
 11
231.895109250021
 21
524.2215872344786
 31
0.0
 11
254.9796057599451
 21
531.6321792635426
 31
0.0
  0
LINE
  5
23E
330
70
100
AcDbEntity
  8
0
100
AcDbLine
 10
195.7323265880404
 20
198.15682055262
 30
0.0
 11
105.7323265880404
 21
198.15682055262
 31
0.0
  0
HATCH
  5
23F
330
70
100
AcDbEntity
  8
shade 8
100
AcDbHatch
 10
0.0
 20
0.0
 30
0.0
210
0.0
220
0.0
230
1.0
  2
HWOOD2E1
 70
     0
 71
     0
 91
        1
 92
        7
 72
     0
 73
     1
 93
        4
 10
195.7323265880404
 20
406.1566519237894
 10
70.06478992155462
 20
406.1566519237894
 10
70.06478992155462
 20
388.1566519237895
 10
195.7323265880404
 20
388.1566519237895
 97
        0
 75
     1
 76
     2
 52
0.0
 41
0.25
 77
     0
 78
   314
 53
4.085616590000006
 43
-66716.77103025542
 44
-1115.376241310895
 45
-0.0000000115101622
 46
25.00000062409175
 79
     2
 49
3.508917092499999
 49
-347.3828125
 53
4.085616590000006
 43
-66691.77103025542
 44
-1115.376241310895
 45
-0.0000000115101622
 46
25.00000062409175
 79
     2
 49
3.508917092499999
 49
-347.3828125
 53
4.085616590000006
 43
-66666.77103025541
 44
-1115.376241310895
 45
-0.0000000115101622
 46
25.00000062409175
 79
     2
 49
3.508917092499999
 49
-347.3828125
 53
4.085616590000006
 43
-66641.77103025542
 44
-1115.376241310895
 45
-0.0000000115101622
 46
25.00000062409175
 79
     2
 49
3.508917092499999
 49
-347.3828125
 53
4.085616590000006
 43
-66616.77103025541
 44
-1115.376241310895
 45
-0.0000000115101622
 46
25.00000062409175
 79
     2
 49
3.508917092499999
 49
-347.3828125
 53
4.085616590000006
 43
-66591.77103025542
 44
-1115.376241310895
 45
-0.0000000115101622
 46
25.00000062409175
 79
     2
 49
3.508917092499999
 49
-347.3828125
 53
4.085616590000006
 43
-66566.77103025542
 44
-1115.376241310895
 45
-0.0000000115101622
 46
25.00000062409175
 79
     2
 49
3.508917092499999
 49
-347.3828125
 53
4.085616590000006
 43
-66541.77103025542
 44
-1115.376241310895
 45
-0.0000000115101622
 46
25.00000062409175
 79
     2
 49
3.508917092499999
 49
-347.3828125
 53
4.085616590000006
 43
-66516.77103025542
 44
-1115.376241310895
 45
-0.0000000115101622
 46
25.00000062409175
 79
     2
 49
3.508917092499999
 49
-347.3828125
 53
4.085616590000006
 43
-66491.77103025541
 44
-1115.376241310895
 45
-0.0000000115101622
 46
25.00000062409175
 79
     2
 49
3.508917092499999
 49
-347.3828125
 53
4.085616590000006
 43
-66466.77103025542
 44
-1115.376241310895
 45
-0.0000000115101622
 46
25.00000062409175
 79
     2
 49
3.508917092499999
 49
-347.3828125
 53
4.085616590000006
 43
-66441.77103025541
 44
-1115.376241310895
 45
-0.0000000115101622
 46
25.00000062409175
 79
     2
 49
3.508917092499999
 49
-347.3828125
 53
4.085616590000006
 43
-66416.77103025542
 44
-1115.376241310895
 45
-0.0000000115101622
 46
25.00000062409175
 79
     2
 49
3.508917092499999
 49
-347.3828125
 53
4.085616590000006
 43
-66391.77103025541
 44
-1115.376241310895
 45
-0.0000000115101622
 46
25.00000062409175
 79
     2
 49
3.508917092499999
 49
-347.3828125
 53
0.0
 43
-66713.27103025542
 44
-1115.126241310895
 45
0.0
 46
25.0
 79
     2
 49
2.0
 49
-23.0
 53
355.6012945
 43
-66711.27103025542
 44
-1115.126241310895
 45
0.000000076692025
 46
25.0000008639759
 79
     2
 49
3.259601115
 49
-322.700531
 53
355.6012945
 43
-66686.27103025542
 44
-1115.126241310895
 45
0.000000076692025
 46
25.0000008639759
 79
     2
 49
3.259601115
 49
-322.700531
 53
355.6012945
 43
-66661.27103025542
 44
-1115.126241310895
 45
0.000000076692025
 46
25.0000008639759
 79
     2
 49
3.259601115
 49
-322.700531
 53
355.6012945
 43
-66636.27103025541
 44
-1115.126241310895
 45
0.000000076692025
 46
25.0000008639759
 79
     2
 49
3.259601115
 49
-322.700531
 53
355.6012945
 43
-66611.27103025542
 44
-1115.126241310895
 45
0.000000076692025
 46
25.0000008639759
 79
     2
 49
3.259601115
 49
-322.700531
 53
355.6012945
 43
-66586.27103025541
 44
-1115.126241310895
 45
0.000000076692025
 46
25.0000008639759
 79
     2
 49
3.259601115
 49
-322.700531
 53
355.6012945
 43
-66561.27103025542
 44
-1115.126241310895
 45
0.000000076692025
 46
25.0000008639759
 79
     2
 49
3.259601115
 49
-322.700531
 53
355.6012945
 43
-66536.27103025542
 44
-1115.126241310895
 45
0.000000076692025
 46
25.0000008639759
 79
     2
 49
3.259601115
 49
-322.700531
 53
355.6012945
 43
-66511.27103025542
 44
-1115.126241310895
 45
0.000000076692025
 46
25.0000008639759
 79
     2
 49
3.259601115
 49
-322.700531
 53
355.6012945
 43
-66486.27103025542
 44
-1115.126241310895
 45
0.000000076692025
 46
25.0000008639759
 79
     2
 49
3.259601115
 49
-322.700531
 53
355.6012945
 43
-66461.27103025541
 44
-1115.126241310895
 45
0.000000076692025
 46
25.0000008639759
 79
     2
 49
3.259601115
 49
-322.700531
 53
355.6012945
 43
-66436.27103025542
 44
-1115.126241310895
 45
0.000000076692025
 46
25.0000008639759
 79
     2
 49
3.259601115
 49
-322.700531
 53
355.6012945
 43
-66411.27103025541
 44
-1115.126241310895
 45
0.000000076692025
 46
25.0000008639759
 79
     2
 49
3.259601115
 49
-322.700531
 53
3.366460599999999
 43
-66708.02103025541
 44
-1115.376241310895
 45
0.0000000629096855
 46
25.00000027316545
 79
     2
 49
4.257346629999999
 49
-421.4773254499999
 53
3.366460599999999
 43
-66683.02103025542
 44
-1115.376241310895
 45
0.0000000629096855
 46
25.00000027316545
 79
     2
 49
4.257346629999999
 49
-421.4773254499999
 53
3.366460599999999
 43
-66658.02103025542
 44
-1115.376241310895
 45
0.0000000629096855
 46
25.00000027316545
 79
     2
 49
4.257346629999999
 49
-421.4773254499999
 53
3.366460599999999
 43
-66633.02103025542
 44
-1115.376241310895
 45
0.0000000629096855
 46
25.00000027316545
 79
     2
 49
4.257346629999999
 49
-421.4773254499999
 53
3.366460599999999
 43
-66608.02103025542
 44
-1115.376241310895
 45
0.0000000629096855
 46
25.00000027316545
 79
     2
 49
4.257346629999999
 49
-421.4773254499999
 53
3.366460599999999
 43
-66583.02103025541
 44
-1115.376241310895
 45
0.0000000629096855
 46
25.00000027316545
 79
     2
 49
4.257346629999999
 49
-421.4773254499999
 53
3.366460599999999
 43
-66558.02103025542
 44
-1115.376241310895
 45
0.0000000629096855
 46
25.00000027316545
 79
     2
 49
4.257346629999999
 49
-421.4773254499999
 53
3.366460599999999
 43
-66533.02103025541
 44
-1115.376241310895
 45
0.0000000629096855
 46
25.00000027316545
 79
     2
 49
4.257346629999999
 49
-421.4773254499999
 53
3.366460599999999
 43
-66508.02103025542
 44
-1115.376241310895
 45
0.0000000629096855
 46
25.00000027316545
 79
     2
 49
4.257346629999999
 49
-421.4773254499999
 53
3.366460599999999
 43
-66483.02103025542
 44
-1115.376241310895
 45
0.0000000629096855
 46
25.00000027316545
 79
     2
 49
4.257346629999999
 49
-421.4773254499999
 53
3.366460599999999
 43
-66458.02103025542
 44
-1115.376241310895
 45
0.0000000629096855
 46
25.00000027316545
 79
     2
 49
4.257346629999999
 49
-421.4773254499999
 53
3.366460599999999
 43
-66433.02103025542
 44
-1115.376241310895
 45
0.0000000629096855
 46
25.00000027316545
 79
     2
 49
4.257346629999999
 49
-421.4773254499999
 53
3.366460599999999
 43
-66408.02103025542
 44
-1115.376241310895
 45
0.0000000629096855
 46
25.00000027316545
 79
     2
 49
4.257346629999999
 49
-421.4773254499999
 53
3.366460599999999
 43
-66383.02103025542
 44
-1115.376241310895
 45
0.0000000629096855
 46
25.00000027316545
 79
     2
 49
4.257346629999999
 49
-421.4773254499999
 53
3.366460599999999
 43
-66358.02103025541
 44
-1115.376241310895
 45
0.0000000629096855
 46
25.00000027316545
 79
     2
 49
4.257346629999999
 49
-421.4773254499999
 53
3.366460599999999
 43
-66333.02103025542
 44
-1115.376241310895
 45
0.0000000629096855
 46
25.00000027316545
 79
     2
 49
4.257346629999999
 49
-421.4773254499999
 53
3.366460599999999
 43
-66308.02103025541
 44
-1115.376241310895
 45
0.0000000629096855
 46
25.00000027316545
 79
     2
 49
4.257346629999999
 49
-421.4773254499999
 53
0.0
 43
-66703.77103025542
 44
-1115.126241310895
 45
0.0
 46
25.0
 79
     2
 49
2.25
 49
-22.75
 53
354.2894068000001
 43
-66701.52103025542
 44
-1115.126241310895
 45
-0.00000001004297
 46
24.99999911909136
 79
     2
 49
2.512468815
 49
-248.734420775
 53
354.2894068000001
 43
-66676.52103025542
 44
-1115.126241310895
 45
-0.00000001004297
 46
24.99999911909136
 79
     2
 49
2.512468815
 49
-248.734420775
 53
354.2894068000001
 43
-66651.52103025541
 44
-1115.126241310895
 45
-0.00000001004297
 46
24.99999911909136
 79
     2
 49
2.512468815
 49
-248.734420775
 53
354.2894068000001
 43
-66626.52103025542
 44
-1115.126241310895
 45
-0.00000001004297
 46
24.99999911909136
 79
     2
 49
2.512468815
 49
-248.734420775
 53
354.2894068000001
 43
-66601.52103025541
 44
-1115.126241310895
 45
-0.00000001004297
 46
24.99999911909136
 79
     2
 49
2.512468815
 49
-248.734420775
 53
354.2894068000001
 43
-66576.52103025542
 44
-1115.126241310895
 45
-0.00000001004297
 46
24.99999911909136
 79
     2
 49
2.512468815
 49
-248.734420775
 53
354.2894068000001
 43
-66551.52103025542
 44
-1115.126241310895
 45
-0.00000001004297
 46
24.99999911909136
 79
     2
 49
2.512468815
 49
-248.734420775
 53
354.2894068000001
 43
-66526.52103025542
 44
-1115.126241310895
 45
-0.00000001004297
 46
24.99999911909136
 79
     2
 49
2.512468815
 49
-248.734420775
 53
354.2894068000001
 43
-66501.52103025542
 44
-1115.126241310895
 45
-0.00000001004297
 46
24.99999911909136
 79
     2
 49
2.512468815
 49
-248.734420775
 53
354.2894068000001
 43
-66476.52103025541
 44
-1115.126241310895
 45
-0.00000001004297
 46
24.99999911909136
 79
     2
 49
2.512468815
 49
-248.734420775
 53
354.2894068000001
 43
-66699.02103025542
 44
-1115.376241310895
 45
-0.00000001004297
 46
24.99999911909136
 79
     2
 49
2.512468815
 49
-248.734420775
 53
354.2894068000001
 43
-66674.02103025541
 44
-1115.376241310895
 45
-0.00000001004297
 46
24.99999911909136
 79
     2
 49
2.512468815
 49
-248.734420775
 53
354.2894068000001
 43
-66649.02103025542
 44
-1115.376241310895
 45
-0.00000001004297
 46
24.99999911909136
 79
     2
 49
2.512468815
 49
-248.734420775
 53
354.2894068000001
 43
-66624.02103025542
 44
-1115.376241310895
 45
-0.00000001004297
 46
24.99999911909136
 79
     2
 49
2.512468815
 49
-248.734420775
 53
354.2894068000001
 43
-66599.02103025542
 44
-1115.376241310895
 45
-0.00000001004297
 46
24.99999911909136
 79
     2
 49
2.512468815
 49
-248.734420775
 53
354.2894068000001
 43
-66574.02103025542
 44
-1115.376241310895
 45
-0.00000001004297
 46
24.99999911909136
 79
     2
 49
2.512468815
 49
-248.734420775
 53
354.2894068000001
 43
-66549.02103025541
 44
-1115.376241310895
 45
-0.00000001004297
 46
24.99999911909136
 79
     2
 49
2.512468815
 49
-248.734420775
 53
354.2894068000001
 43
-66524.02103025542
 44
-1115.376241310895
 45
-0.00000001004297
 46
24.99999911909136
 79
     2
 49
2.512468815
 49
-248.734420775
 53
354.2894068000001
 43
-66499.02103025541
 44
-1115.376241310895
 45
-0.00000001004297
 46
24.99999911909136
 79
     2
 49
2.512468815
 49
-248.734420775
 53
354.2894068000001
 43
-66474.02103025542
 44
-1115.376241310895
 45
-0.00000001004297
 46
24.99999911909136
 79
     2
 49
2.512468815
 49
-248.734420775
 53
0.0
 43
-66696.52103025542
 44
-1115.626241310895
 45
0.0
 46
25.0
 79
     2
 49
2.25
 49
-22.75
 53
8.130102199999999
 43
-66694.27103025542
 44
-1115.626241310895
 45
0.0000000637277005
 46
24.99999998279795
 79
     2
 49
1.767766952499999
 49
-175.0089263925
 53
8.130102199999999
 43
-66669.27103025542
 44
-1115.626241310895
 45
0.0000000637277005
 46
24.99999998279795
 79
     2
 49
1.767766952499999
 49
-175.0089263925
 53
8.130102199999999
 43
-66644.27103025541
 44
-1115.626241310895
 45
0.0000000637277005
 46
24.99999998279795
 79
     2
 49
1.767766952499999
 49
-175.0089263925
 53
8.130102199999999
 43
-66619.27103025542
 44
-1115.626241310895
 45
0.0000000637277005
 46
24.99999998279795
 79
     2
 49
1.767766952499999
 49
-175.0089263925
 53
8.130102199999999
 43
-66594.27103025541
 44
-1115.626241310895
 45
0.0000000637277005
 46
24.99999998279795
 79
     2
 49
1.767766952499999
 49
-175.0089263925
 53
8.130102199999999
 43
-66569.27103025542
 44
-1115.626241310895
 45
0.0000000637277005
 46
24.99999998279795
 79
     2
 49
1.767766952499999
 49
-175.0089263925
 53
8.130102199999999
 43
-66544.27103025541
 44
-1115.626241310895
 45
0.0000000637277005
 46
24.99999998279795
 79
     2
 49
1.767766952499999
 49
-175.0089263925
 53
0.0
 43
-66692.52103025542
 44
-1115.376241310895
 45
0.0
 46
25.0
 79
     2
 49
0.75
 49
-24.25
 53
0.0
 43
-66692.52103025542
 44
-1122.376241310895
 45
0.0
 46
25.0
 79
     2
 49
0.75
 49
-24.25
 53
8.130102199999999
 43
-66694.27103025542
 44
-1122.626241310895
 45
0.0000000637277005
 46
24.99999998279795
 79
     2
 49
1.767766952499999
 49
-175.0089263925
 53
8.130102199999999
 43
-66669.27103025542
 44
-1122.626241310895
 45
0.0000000637277005
 46
24.99999998279795
 79
     2
 49
1.767766952499999
 49
-175.0089263925
 53
8.130102199999999
 43
-66644.27103025541
 44
-1122.626241310895
 45
0.0000000637277005
 46
24.99999998279795
 79
     2
 49
1.767766952499999
 49
-175.0089263925
 53
8.130102199999999
 43
-66619.27103025542
 44
-1122.626241310895
 45
0.0000000637277005
 46
24.99999998279795
 79
     2
 49
1.767766952499999
 49
-175.0089263925
 53
8.130102199999999
 43
-66594.27103025541
 44
-1122.626241310895
 45
0.0000000637277005
 46
24.99999998279795
 79
     2
 49
1.767766952499999
 49
-175.0089263925
 53
8.130102199999999
 43
-66569.27103025542
 44
-1122.626241310895
 45
0.0000000637277005
 46
24.99999998279795
 79
     2
 49
1.767766952499999
 49
-175.0089263925
 53
8.130102199999999
 43
-66544.27103025541
 44
-1122.626241310895
 45
0.0000000637277005
 46
24.99999998279795
 79
     2
 49
1.767766952499999
 49
-175.0089263925
 53
0.0
 43
-66696.52103025542
 44
-1122.626241310895
 45
0.0
 46
25.0
 79
     2
 49
2.25
 49
-22.75
 53
354.2894068000001
 43
-66699.02103025542
 44
-1122.376241310895
 45
-0.00000001004297
 46
24.99999911909136
 79
     2
 49
2.512468815
 49
-248.734420775
 53
354.2894068000001
 43
-66674.02103025541
 44
-1122.376241310895
 45
-0.00000001004297
 46
24.99999911909136
 79
     2
 49
2.512468815
 49
-248.734420775
 53
354.2894068000001
 43
-66649.02103025542
 44
-1122.376241310895
 45
-0.00000001004297
 46
24.99999911909136
 79
     2
 49
2.512468815
 49
-248.734420775
 53
354.2894068000001
 43
-66624.02103025542
 44
-1122.376241310895
 45
-0.00000001004297
 46
24.99999911909136
 79
     2
 49
2.512468815
 49
-248.734420775
 53
354.2894068000001
 43
-66599.02103025542
 44
-1122.376241310895
 45
-0.00000001004297
 46
24.99999911909136
 79
     2
 49
2.512468815
 49
-248.734420775
 53
354.2894068000001
 43
-66574.02103025542
 44
-1122.376241310895
 45
-0.00000001004297
 46
24.99999911909136
 79
     2
 49
2.512468815
 49
-248.734420775
 53
354.2894068000001
 43
-66549.02103025541
 44
-1122.376241310895
 45
-0.00000001004297
 46
24.99999911909136
 79
     2
 49
2.512468815
 49
-248.734420775
 53
354.2894068000001
 43
-66524.02103025542
 44
-1122.376241310895
 45
-0.00000001004297
 46
24.99999911909136
 79
     2
 49
2.512468815
 49
-248.734420775
 53
354.2894068000001
 43
-66499.02103025541
 44
-1122.376241310895
 45
-0.00000001004297
 46
24.99999911909136
 79
     2
 49
2.512468815
 49
-248.734420775
 53
354.2894068000001
 43
-66474.02103025542
 44
-1122.376241310895
 45
-0.00000001004297
 46
24.99999911909136
 79
     2
 49
2.512468815
 49
-248.734420775
 53
354.2894068000001
 43
-66701.52103025542
 44
-1122.126241310895
 45
-0.00000001004297
 46
24.99999911909136
 79
     2
 49
2.512468815
 49
-248.734420775
 53
354.2894068000001
 43
-66676.52103025542
 44
-1122.126241310895
 45
-0.00000001004297
 46
24.99999911909136
 79
     2
 49
2.512468815
 49
-248.734420775
 53
354.2894068000001
 43
-66651.52103025541
 44
-1122.126241310895
 45
-0.00000001004297
 46
24.99999911909136
 79
     2
 49
2.512468815
 49
-248.734420775
 53
354.2894068000001
 43
-66626.52103025542
 44
-1122.126241310895
 45
-0.00000001004297
 46
24.99999911909136
 79
     2
 49
2.512468815
 49
-248.734420775
 53
354.2894068000001
 43
-66601.52103025541
 44
-1122.126241310895
 45
-0.00000001004297
 46
24.99999911909136
 79
     2
 49
2.512468815
 49
-248.734420775
 53
354.2894068000001
 43
-66576.52103025542
 44
-1122.126241310895
 45
-0.00000001004297
 46
24.99999911909136
 79
     2
 49
2.512468815
 49
-248.734420775
 53
354.2894068000001
 43
-66551.52103025542
 44
-1122.126241310895
 45
-0.00000001004297
 46
24.99999911909136
 79
     2
 49
2.512468815
 49
-248.734420775
 53
354.2894068000001
 43
-66526.52103025542
 44
-1122.126241310895
 45
-0.00000001004297
 46
24.99999911909136
 79
     2
 49
2.512468815
 49
-248.734420775
 53
354.2894068000001
 43
-66501.52103025542
 44
-1122.126241310895
 45
-0.00000001004297
 46
24.99999911909136
 79
     2
 49
2.512468815
 49
-248.734420775
 53
354.2894068000001
 43
-66476.52103025541
 44
-1122.126241310895
 45
-0.00000001004297
 46
24.99999911909136
 79
     2
 49
2.512468815
 49
-248.734420775
 53
0.0
 43
-66703.77103025542
 44
-1122.126241310895
 45
0.0
 46
25.0
 79
     2
 49
2.25
 49
-22.75
 53
3.366460599999999
 43
-66708.02103025541
 44
-1122.376241310895
 45
0.0000000629096855
 46
25.00000027316545
 79
     2
 49
4.257346629999999
 49
-421.4773254499999
 53
3.366460599999999
 43
-66683.02103025542
 44
-1122.376241310895
 45
0.0000000629096855
 46
25.00000027316545
 79
     2
 49
4.257346629999999
 49
-421.4773254499999
 53
3.366460599999999
 43
-66658.02103025542
 44
-1122.376241310895
 45
0.0000000629096855
 46
25.00000027316545
 79
     2
 49
4.257346629999999
 49
-421.4773254499999
 53
3.366460599999999
 43
-66633.02103025542
 44
-1122.376241310895
 45
0.0000000629096855
 46
25.00000027316545
 79
     2
 49
4.257346629999999
 49
-421.4773254499999
 53
3.366460599999999
 43
-66608.02103025542
 44
-1122.376241310895
 45
0.0000000629096855
 46
25.00000027316545
 79
     2
 49
4.257346629999999
 49
-421.4773254499999
 53
3.366460599999999
 43
-66583.02103025541
 44
-1122.376241310895
 45
0.0000000629096855
 46
25.00000027316545
 79
     2
 49
4.257346629999999
 49
-421.4773254499999
 53
3.366460599999999
 43
-66558.02103025542
 44
-1122.376241310895
 45
0.0000000629096855
 46
25.00000027316545
 79
     2
 49
4.257346629999999
 49
-421.4773254499999
 53
3.366460599999999
 43
-66533.02103025541
 44
-1122.376241310895
 45
0.0000000629096855
 46
25.00000027316545
 79
     2
 49
4.257346629999999
 49
-421.4773254499999
 53
3.366460599999999
 43
-66508.02103025542
 44
-1122.376241310895
 45
0.0000000629096855
 46
25.00000027316545
 79
     2
 49
4.257346629999999
 49
-421.4773254499999
 53
3.366460599999999
 43
-66483.02103025542
 44
-1122.376241310895
 45
0.0000000629096855
 46
25.00000027316545
 79
     2
 49
4.257346629999999
 49
-421.4773254499999
 53
3.366460599999999
 43
-66458.02103025542
 44
-1122.376241310895
 45
0.0000000629096855
 46
25.00000027316545
 79
     2
 49
4.257346629999999
 49
-421.4773254499999
 53
3.366460599999999
 43
-66433.02103025542
 44
-1122.376241310895
 45
0.0000000629096855
 46
25.00000027316545
 79
     2
 49
4.257346629999999
 49
-421.4773254499999
 53
3.366460599999999
 43
-66408.02103025542
 44
-1122.376241310895
 45
0.0000000629096855
 46
25.00000027316545
 79
     2
 49
4.257346629999999
 49
-421.4773254499999
 53
3.366460599999999
 43
-66383.02103025542
 44
-1122.376241310895
 45
0.0000000629096855
 46
25.00000027316545
 79
     2
 49
4.257346629999999
 49
-421.4773254499999
 53
3.366460599999999
 43
-66358.02103025541
 44
-1122.376241310895
 45
0.0000000629096855
 46
25.00000027316545
 79
     2
 49
4.257346629999999
 49
-421.4773254499999
 53
3.366460599999999
 43
-66333.02103025542
 44
-1122.376241310895
 45
0.0000000629096855
 46
25.00000027316545
 79
     2
 49
4.257346629999999
 49
-421.4773254499999
 53
3.366460599999999
 43
-66308.02103025541
 44
-1122.376241310895
 45
0.0000000629096855
 46
25.00000027316545
 79
     2
 49
4.257346629999999
 49
-421.4773254499999
 53
355.6012945
 43
-66711.27103025542
 44
-1122.126241310895
 45
0.000000076692025
 46
25.0000008639759
 79
     2
 49
3.259601115
 49
-322.700531
 53
355.6012945
 43
-66686.27103025542
 44
-1122.126241310895
 45
0.000000076692025
 46
25.0000008639759
 79
     2
 49
3.259601115
 49
-322.700531
 53
355.6012945
 43
-66661.27103025542
 44
-1122.126241310895
 45
0.000000076692025
 46
25.0000008639759
 79
     2
 49
3.259601115
 49
-322.700531
 53
355.6012945
 43
-66636.27103025541
 44
-1122.126241310895
 45
0.000000076692025
 46
25.0000008639759
 79
     2
 49
3.259601115
 49
-322.700531
 53
355.6012945
 43
-66611.27103025542
 44
-1122.126241310895
 45
0.000000076692025
 46
25.0000008639759
 79
     2
 49
3.259601115
 49
-322.700531
 53
355.6012945
 43
-66586.27103025541
 44
-1122.126241310895
 45
0.000000076692025
 46
25.0000008639759
 79
     2
 49
3.259601115
 49
-322.700531
 53
355.6012945
 43
-66561.27103025542
 44
-1122.126241310895
 45
0.000000076692025
 46
25.0000008639759
 79
     2
 49
3.259601115
 49
-322.700531
 53
355.6012945
 43
-66536.27103025542
 44
-1122.126241310895
 45
0.000000076692025
 46
25.0000008639759
 79
     2
 49
3.259601115
 49
-322.700531
 53
355.6012945
 43
-66511.27103025542
 44
-1122.126241310895
 45
0.000000076692025
 46
25.0000008639759
 79
     2
 49
3.259601115
 49
-322.700531
 53
355.6012945
 43
-66486.27103025542
 44
-1122.126241310895
 45
0.000000076692025
 46
25.0000008639759
 79
     2
 49
3.259601115
 49
-322.700531
 53
355.6012945
 43
-66461.27103025541
 44
-1122.126241310895
 45
0.000000076692025
 46
25.0000008639759
 79
     2
 49
3.259601115
 49
-322.700531
 53
355.6012945
 43
-66436.27103025542
 44
-1122.126241310895
 45
0.000000076692025
 46
25.0000008639759
 79
     2
 49
3.259601115
 49
-322.700531
 53
355.6012945
 43
-66411.27103025541
 44
-1122.126241310895
 45
0.000000076692025
 46
25.0000008639759
 79
     2
 49
3.259601115
 49
-322.700531
 53
0.0
 43
-66713.27103025542
 44
-1122.126241310895
 45
0.0
 46
25.0
 79
     2
 49
2.0
 49
-23.0
 53
4.085616590000006
 43
-66716.77103025542
 44
-1122.376241310895
 45
-0.0000000115101622
 46
25.00000062409175
 79
     2
 49
3.508917092499999
 49
-347.3828125
 53
4.085616590000006
 43
-66691.77103025542
 44
-1122.376241310895
 45
-0.0000000115101622
 46
25.00000062409175
 79
     2
 49
3.508917092499999
 49
-347.3828125
 53
4.085616590000006
 43
-66666.77103025541
 44
-1122.376241310895
 45
-0.0000000115101622
 46
25.00000062409175
 79
     2
 49
3.508917092499999
 49
-347.3828125
 53
4.085616590000006
 43
-66641.77103025542
 44
-1122.376241310895
 45
-0.0000000115101622
 46
25.00000062409175
 79
     2
 49
3.508917092499999
 49
-347.3828125
 53
4.085616590000006
 43
-66616.77103025541
 44
-1122.376241310895
 45
-0.0000000115101622
 46
25.00000062409175
 79
     2
 49
3.508917092499999
 49
-347.3828125
 53
4.085616590000006
 43
-66591.77103025542
 44
-1122.376241310895
 45
-0.0000000115101622
 46
25.00000062409175
 79
     2
 49
3.508917092499999
 49
-347.3828125
 53
4.085616590000006
 43
-66566.77103025542
 44
-1122.376241310895
 45
-0.0000000115101622
 46
25.00000062409175
 79
     2
 49
3.508917092499999
 49
-347.3828125
 53
4.085616590000006
 43
-66541.77103025542
 44
-1122.376241310895
 45
-0.0000000115101622
 46
25.00000062409175
 79
     2
 49
3.508917092499999
 49
-347.3828125
 53
4.085616590000006
 43
-66516.77103025542
 44
-1122.376241310895
 45
-0.0000000115101622
 46
25.00000062409175
 79
     2
 49
3.508917092499999
 49
-347.3828125
 53
4.085616590000006
 43
-66491.77103025541
 44
-1122.376241310895
 45
-0.0000000115101622
 46
25.00000062409175
 79
     2
 49
3.508917092499999
 49
-347.3828125
 53
4.085616590000006
 43
-66466.77103025542
 44
-1122.376241310895
 45
-0.0000000115101622
 46
25.00000062409175
 79
     2
 49
3.508917092499999
 49
-347.3828125
 53
4.085616590000006
 43
-66441.77103025541
 44
-1122.376241310895
 45
-0.0000000115101622
 46
25.00000062409175
 79
     2
 49
3.508917092499999
 49
-347.3828125
 53
4.085616590000006
 43
-66416.77103025542
 44
-1122.376241310895
 45
-0.0000000115101622
 46
25.00000062409175
 79
     2
 49
3.508917092499999
 49
-347.3828125
 53
4.085616590000006
 43
-66391.77103025541
 44
-1122.376241310895
 45
-0.0000000115101622
 46
25.00000062409175
 79
     2
 49
3.508917092499999
 49
-347.3828125
 53
0.0
 43
-66716.77103025542
 44
-1133.876241310895
 45
0.0
 46
25.0
 79
     2
 49
6.25
 49
-18.75
 53
7.594643599999987
 43
-66710.52103025542
 44
-1133.876241310895
 45
0.0000001055347854
 46
24.99999937978613
 79
     2
 49
3.783186424999999
 49
-374.535461425
 53
7.594643599999987
 43
-66685.52103025541
 44
-1133.876241310895
 45
0.0000001055347854
 46
24.99999937978613
 79
     2
 49
3.783186424999999
 49
-374.535461425
 53
7.594643599999987
 43
-66660.52103025542
 44
-1133.876241310895
 45
0.0000001055347854
 46
24.99999937978613
 79
     2
 49
3.783186424999999
 49
-374.535461425
 53
7.594643599999987
 43
-66635.52103025542
 44
-1133.876241310895
 45
0.0000001055347854
 46
24.99999937978613
 79
     2
 49
3.783186424999999
 49
-374.535461425
 53
7.594643599999987
 43
-66610.52103025542
 44
-1133.876241310895
 45
0.0000001055347854
 46
24.99999937978613
 79
     2
 49
3.783186424999999
 49
-374.535461425
 53
7.594643599999987
 43
-66585.52103025542
 44
-1133.876241310895
 45
0.0000001055347854
 46
24.99999937978613
 79
     2
 49
3.783186424999999
 49
-374.535461425
 53
7.594643599999987
 43
-66560.52103025542
 44
-1133.876241310895
 45
0.0000001055347854
 46
24.99999937978613
 79
     2
 49
3.783186424999999
 49
-374.535461425
 53
7.594643599999987
 43
-66535.52103025542
 44
-1133.876241310895
 45
0.0000001055347854
 46
24.99999937978613
 79
     2
 49
3.783186424999999
 49
-374.535461425
 53
7.594643599999987
 43
-66510.52103025541
 44
-1133.876241310895
 45
0.0000001055347854
 46
24.99999937978613
 79
     2
 49
3.783186424999999
 49
-374.535461425
 53
7.594643599999987
 43
-66485.52103025542
 44
-1133.876241310895
 45
0.0000001055347854
 46
24.99999937978613
 79
     2
 49
3.783186424999999
 49
-374.535461425
 53
7.594643599999987
 43
-66460.52103025541
 44
-1133.876241310895
 45
0.0000001055347854
 46
24.99999937978613
 79
     2
 49
3.783186424999999
 49
-374.535461425
 53
7.594643599999987
 43
-66435.52103025542
 44
-1133.876241310895
 45
0.0000001055347854
 46
24.99999937978613
 79
     2
 49
3.783186424999999
 49
-374.535461425
 53
7.594643599999987
 43
-66410.52103025542
 44
-1133.876241310895
 45
0.0000001055347854
 46
24.99999937978613
 79
     2
 49
3.783186424999999
 49
-374.535461425
 53
7.594643599999987
 43
-66385.52103025542
 44
-1133.876241310895
 45
0.0000001055347854
 46
24.99999937978613
 79
     2
 49
3.783186424999999
 49
-374.535461425
 53
7.594643599999987
 43
-66360.52103025542
 44
-1133.876241310895
 45
0.0000001055347854
 46
24.99999937978613
 79
     2
 49
3.783186424999999
 49
-374.535461425
 53
3.179830299999999
 43
-66706.77103025542
 44
-1133.376241310895
 45
-0.0000000425435449
 46
25.00000087320912
 79
     2
 49
4.506938934999999
 49
-446.1869811999999
 53
3.179830299999999
 43
-66681.77103025541
 44
-1133.376241310895
 45
-0.0000000425435449
 46
25.00000087320912
 79
     2
 49
4.506938934999999
 49
-446.1869811999999
 53
3.179830299999999
 43
-66656.77103025542
 44
-1133.376241310895
 45
-0.0000000425435449
 46
25.00000087320912
 79
     2
 49
4.506938934999999
 49
-446.1869811999999
 53
3.179830299999999
 43
-66631.77103025542
 44
-1133.376241310895
 45
-0.0000000425435449
 46
25.00000087320912
 79
     2
 49
4.506938934999999
 49
-446.1869811999999
 53
3.179830299999999
 43
-66606.77103025542
 44
-1133.376241310895
 45
-0.0000000425435449
 46
25.00000087320912
 79
     2
 49
4.506938934999999
 49
-446.1869811999999
 53
3.179830299999999
 43
-66581.77103025542
 44
-1133.376241310895
 45
-0.0000000425435449
 46
25.00000087320912
 79
     2
 49
4.506938934999999
 49
-446.1869811999999
 53
3.179830299999999
 43
-66556.77103025542
 44
-1133.376241310895
 45
-0.0000000425435449
 46
25.00000087320912
 79
     2
 49
4.506938934999999
 49
-446.1869811999999
 53
3.179830299999999
 43
-66531.77103025542
 44
-1133.376241310895
 45
-0.0000000425435449
 46
25.00000087320912
 79
     2
 49
4.506938934999999
 49
-446.1869811999999
 53
3.179830299999999
 43
-66506.77103025541
 44
-1133.376241310895
 45
-0.0000000425435449
 46
25.00000087320912
 79
     2
 49
4.506938934999999
 49
-446.1869811999999
 53
3.179830299999999
 43
-66481.77103025542
 44
-1133.376241310895
 45
-0.0000000425435449
 46
25.00000087320912
 79
     2
 49
4.506938934999999
 49
-446.1869811999999
 53
3.179830299999999
 43
-66456.77103025541
 44
-1133.376241310895
 45
-0.0000000425435449
 46
25.00000087320912
 79
     2
 49
4.506938934999999
 49
-446.1869811999999
 53
3.179830299999999
 43
-66431.77103025542
 44
-1133.376241310895
 45
-0.0000000425435449
 46
25.00000087320912
 79
     2
 49
4.506938934999999
 49
-446.1869811999999
 53
3.179830299999999
 43
-66406.77103025542
 44
-1133.376241310895
 45
-0.0000000425435449
 46
25.00000087320912
 79
     2
 49
4.506938934999999
 49
-446.1869811999999
 53
3.179830299999999
 43
-66381.77103025542
 44
-1133.376241310895
 45
-0.0000000425435449
 46
25.00000087320912
 79
     2
 49
4.506938934999999
 49
-446.1869811999999
 53
3.179830299999999
 43
-66356.77103025542
 44
-1133.376241310895
 45
-0.0000000425435449
 46
25.00000087320912
 79
     2
 49
4.506938934999999
 49
-446.1869811999999
 53
3.179830299999999
 43
-66331.77103025541
 44
-1133.376241310895
 45
-0.0000000425435449
 46
25.00000087320912
 79
     2
 49
4.506938934999999
 49
-446.1869811999999
 53
3.179830299999999
 43
-66306.77103025542
 44
-1133.376241310895
 45
-0.0000000425435449
 46
25.00000087320912
 79
     2
 49
4.506938934999999
 49
-446.1869811999999
 53
3.179830299999999
 43
-66281.77103025541
 44
-1133.376241310895
 45
-0.0000000425435449
 46
25.00000087320912
 79
     2
 49
4.506938934999999
 49
-446.1869811999999
 53
0.0
 43
-66702.27103025542
 44
-1133.126241310895
 45
0.0
 46
25.0
 79
     2
 49
4.25
 49
-20.75
 53
351.2538376
 43
-66698.02103025542
 44
-1133.126241310895
 45
0.0000003070645307
 46
25.00000090670576
 79
     2
 49
3.288236624999999
 49
-325.5354309
 53
351.2538376
 43
-66673.02103025542
 44
-1133.126241310895
 45
0.0000003070645307
 46
25.00000090670576
 79
     2
 49
3.288236624999999
 49
-325.5354309
 53
351.2538376
 43
-66648.02103025541
 44
-1133.126241310895
 45
0.0000003070645307
 46
25.00000090670576
 79
     2
 49
3.288236624999999
 49
-325.5354309
 53
351.2538376
 43
-66623.02103025542
 44
-1133.126241310895
 45
0.0000003070645307
 46
25.00000090670576
 79
     2
 49
3.288236624999999
 49
-325.5354309
 53
351.2538376
 43
-66598.02103025541
 44
-1133.126241310895
 45
0.0000003070645307
 46
25.00000090670576
 79
     2
 49
3.288236624999999
 49
-325.5354309
 53
351.2538376
 43
-66573.02103025542
 44
-1133.126241310895
 45
0.0000003070645307
 46
25.00000090670576
 79
     2
 49
3.288236624999999
 49
-325.5354309
 53
351.2538376
 43
-66548.02103025541
 44
-1133.126241310895
 45
0.0000003070645307
 46
25.00000090670576
 79
     2
 49
3.288236624999999
 49
-325.5354309
 53
351.2538376
 43
-66523.02103025542
 44
-1133.126241310895
 45
0.0000003070645307
 46
25.00000090670576
 79
     2
 49
3.288236624999999
 49
-325.5354309
 53
351.2538376
 43
-66498.02103025542
 44
-1133.126241310895
 45
0.0000003070645307
 46
25.00000090670576
 79
     2
 49
3.288236624999999
 49
-325.5354309
 53
351.2538376
 43
-66473.02103025542
 44
-1133.126241310895
 45
0.0000003070645307
 46
25.00000090670576
 79
     2
 49
3.288236624999999
 49
-325.5354309
 53
351.2538376
 43
-66448.02103025542
 44
-1133.126241310895
 45
0.0000003070645307
 46
25.00000090670576
 79
     2
 49
3.288236624999999
 49
-325.5354309
 53
351.2538376
 43
-66423.02103025541
 44
-1133.126241310895
 45
0.0000003070645307
 46
25.00000090670576
 79
     2
 49
3.288236624999999
 49
-325.5354309
 53
351.2538376
 43
-66398.02103025542
 44
-1133.126241310895
 45
0.0000003070645307
 46
25.00000090670576
 79
     2
 49
3.288236624999999
 49
-325.5354309
 53
352.8749838
 43
-66694.77103025542
 44
-1133.626241310895
 45
-0.0000000773741422
 46
25.00000078979567
 79
     2
 49
2.0155644425
 49
-199.5408783
 53
352.8749838
 43
-66669.77103025542
 44
-1133.626241310895
 45
-0.0000000773741422
 46
25.00000078979567
 79
     2
 49
2.0155644425
 49
-199.5408783
 53
352.8749838
 43
-66644.77103025542
 44
-1133.626241310895
 45
-0.0000000773741422
 46
25.00000078979567
 79
     2
 49
2.0155644425
 49
-199.5408783
 53
352.8749838
 43
-66619.77103025542
 44
-1133.626241310895
 45
-0.0000000773741422
 46
25.00000078979567
 79
     2
 49
2.0155644425
 49
-199.5408783
 53
352.8749838
 43
-66594.77103025542
 44
-1133.626241310895
 45
-0.0000000773741422
 46
25.00000078979567
 79
     2
 49
2.0155644425
 49
-199.5408783
 53
352.8749838
 43
-66569.77103025542
 44
-1133.626241310895
 45
-0.0000000773741422
 46
25.00000078979567
 79
     2
 49
2.0155644425
 49
-199.5408783
 53
352.8749838
 43
-66544.77103025541
 44
-1133.626241310895
 45
-0.0000000773741422
 46
25.00000078979567
 79
     2
 49
2.0155644425
 49
-199.5408783
 53
352.8749838
 43
-66519.77103025542
 44
-1133.626241310895
 45
-0.0000000773741422
 46
25.00000078979567
 79
     2
 49
2.0155644425
 49
-199.5408783
 53
0.0
 43
-66692.77103025541
 44
-1133.876241310895
 45
0.0
 46
25.0
 79
     2
 49
1.0
 49
-24.0
 53
345.96375656
 43
-66694.02103025542
 44
-1128.376241310895
 45
-0.0000000055154956
 46
25.00000043524436
 79
     2
 49
1.030776375
 49
-102.046867375
 53
345.96375656
 43
-66669.02103025542
 44
-1128.376241310895
 45
-0.0000000055154956
 46
25.00000043524436
 79
     2
 49
1.030776375
 49
-102.046867375
 53
345.96375656
 43
-66644.02103025541
 44
-1128.376241310895
 45
-0.0000000055154956
 46
25.00000043524436
 79
     2
 49
1.030776375
 49
-102.046867375
 53
345.96375656
 43
-66619.02103025542
 44
-1128.376241310895
 45
-0.0000000055154956
 46
25.00000043524436
 79
     2
 49
1.030776375
 49
-102.046867375
 53
351.8698978
 43
-66695.77103025542
 44
-1128.126241310895
 45
-0.0000000637277005
 46
24.99999998279795
 79
     2
 49
1.767766952499999
 49
-175.0089263925
 53
351.8698978
 43
-66670.77103025541
 44
-1128.126241310895
 45
-0.0000000637277005
 46
24.99999998279795
 79
     2
 49
1.767766952499999
 49
-175.0089263925
 53
351.8698978
 43
-66645.77103025542
 44
-1128.126241310895
 45
-0.0000000637277005
 46
24.99999998279795
 79
     2
 49
1.767766952499999
 49
-175.0089263925
 53
351.8698978
 43
-66620.77103025541
 44
-1128.126241310895
 45
-0.0000000637277005
 46
24.99999998279795
 79
     2
 49
1.767766952499999
 49
-175.0089263925
 53
351.8698978
 43
-66595.77103025542
 44
-1128.126241310895
 45
-0.0000000637277005
 46
24.99999998279795
 79
     2
 49
1.767766952499999
 49
-175.0089263925
 53
351.8698978
 43
-66570.77103025542
 44
-1128.126241310895
 45
-0.0000000637277005
 46
24.99999998279795
 79
     2
 49
1.767766952499999
 49
-175.0089263925
 53
351.8698978
 43
-66545.77103025542
 44
-1128.126241310895
 45
-0.0000000637277005
 46
24.99999998279795
 79
     2
 49
1.767766952499999
 49
-175.0089263925
 53
356.4236655
 43
-66699.77103025542
 44
-1127.876241310895
 45
0.0000000623399818
 46
25.00000046334374
 79
     2
 49
4.00780487
 49
-396.77267456
 53
356.4236655
 43
-66674.77103025541
 44
-1127.876241310895
 45
0.0000000623399818
 46
25.00000046334374
 79
     2
 49
4.00780487
 49
-396.77267456
 53
356.4236655
 43
-66649.77103025542
 44
-1127.876241310895
 45
0.0000000623399818
 46
25.00000046334374
 79
     2
 49
4.00780487
 49
-396.77267456
 53
356.4236655
 43
-66624.77103025541
 44
-1127.876241310895
 45
0.0000000623399818
 46
25.00000046334374
 79
     2
 49
4.00780487
 49
-396.77267456
 53
356.4236655
 43
-66599.77103025542
 44
-1127.876241310895
 45
0.0000000623399818
 46
25.00000046334374
 79
     2
 49
4.00780487
 49
-396.77267456
 53
356.4236655
 43
-66574.77103025541
 44
-1127.876241310895
 45
0.0000000623399818
 46
25.00000046334374
 79
     2
 49
4.00780487
 49
-396.77267456
 53
356.4236655
 43
-66549.77103025542
 44
-1127.876241310895
 45
0.0000000623399818
 46
25.00000046334374
 79
     2
 49
4.00780487
 49
-396.77267456
 53
356.4236655
 43
-66524.77103025542
 44
-1127.876241310895
 45
0.0000000623399818
 46
25.00000046334374
 79
     2
 49
4.00780487
 49
-396.77267456
 53
356.4236655
 43
-66499.77103025542
 44
-1127.876241310895
 45
0.0000000623399818
 46
25.00000046334374
 79
     2
 49
4.00780487
 49
-396.77267456
 53
356.4236655
 43
-66474.77103025542
 44
-1127.876241310895
 45
0.0000000623399818
 46
25.00000046334374
 79
     2
 49
4.00780487
 49
-396.77267456
 53
356.4236655
 43
-66449.77103025541
 44
-1127.876241310895
 45
0.0000000623399818
 46
25.00000046334374
 79
     2
 49
4.00780487
 49
-396.77267456
 53
356.4236655
 43
-66424.77103025542
 44
-1127.876241310895
 45
0.0000000623399818
 46
25.00000046334374
 79
     2
 49
4.00780487
 49
-396.77267456
 53
356.4236655
 43
-66399.77103025541
 44
-1127.876241310895
 45
0.0000000623399818
 46
25.00000046334374
 79
     2
 49
4.00780487
 49
-396.77267456
 53
356.4236655
 43
-66374.77103025542
 44
-1127.876241310895
 45
0.0000000623399818
 46
25.00000046334374
 79
     2
 49
4.00780487
 49
-396.77267456
 53
356.4236655
 43
-66349.77103025542
 44
-1127.876241310895
 45
0.0000000623399818
 46
25.00000046334374
 79
     2
 49
4.00780487
 49
-396.77267456
 53
356.4236655
 43
-66324.77103025542
 44
-1127.876241310895
 45
0.0000000623399818
 46
25.00000046334374
 79
     2
 49
4.00780487
 49
-396.77267456
 53
356.4236655
 43
-66703.77103025542
 44
-1127.626241310895
 45
0.0000000623399818
 46
25.00000046334374
 79
     2
 49
4.00780487
 49
-396.77267456
 53
356.4236655
 43
-66678.77103025542
 44
-1127.626241310895
 45
0.0000000623399818
 46
25.00000046334374
 79
     2
 49
4.00780487
 49
-396.77267456
 53
356.4236655
 43
-66653.77103025542
 44
-1127.626241310895
 45
0.0000000623399818
 46
25.00000046334374
 79
     2
 49
4.00780487
 49
-396.77267456
 53
356.4236655
 43
-66628.77103025541
 44
-1127.626241310895
 45
0.0000000623399818
 46
25.00000046334374
 79
     2
 49
4.00780487
 49
-396.77267456
 53
356.4236655
 43
-66603.77103025542
 44
-1127.626241310895
 45
0.0000000623399818
 46
25.00000046334374
 79
     2
 49
4.00780487
 49
-396.77267456
 53
356.4236655
 43
-66578.77103025541
 44
-1127.626241310895
 45
0.0000000623399818
 46
25.00000046334374
 79
     2
 49
4.00780487
 49
-396.77267456
 53
356.4236655
 43
-66553.77103025542
 44
-1127.626241310895
 45
0.0000000623399818
 46
25.00000046334374
 79
     2
 49
4.00780487
 49
-396.77267456
 53
356.4236655
 43
-66528.77103025542
 44
-1127.626241310895
 45
0.0000000623399818
 46
25.00000046334374
 79
     2
 49
4.00780487
 49
-396.77267456
 53
356.4236655
 43
-66503.77103025542
 44
-1127.626241310895
 45
0.0000000623399818
 46
25.00000046334374
 79
     2
 49
4.00780487
 49
-396.77267456
 53
356.4236655
 43
-66478.77103025542
 44
-1127.626241310895
 45
0.0000000623399818
 46
25.00000046334374
 79
     2
 49
4.00780487
 49
-396.77267456
 53
356.4236655
 43
-66453.77103025542
 44
-1127.626241310895
 45
0.0000000623399818
 46
25.00000046334374
 79
     2
 49
4.00780487
 49
-396.77267456
 53
356.4236655
 43
-66428.77103025542
 44
-1127.626241310895
 45
0.0000000623399818
 46
25.00000046334374
 79
     2
 49
4.00780487
 49
-396.77267456
 53
356.4236655
 43
-66403.77103025541
 44
-1127.626241310895
 45
0.0000000623399818
 46
25.00000046334374
 79
     2
 49
4.00780487
 49
-396.77267456
 53
356.4236655
 43
-66378.77103025542
 44
-1127.626241310895
 45
0.0000000623399818
 46
25.00000046334374
 79
     2
 49
4.00780487
 49
-396.77267456
 53
356.4236655
 43
-66353.77103025541
 44
-1127.626241310895
 45
0.0000000623399818
 46
25.00000046334374
 79
     2
 49
4.00780487
 49
-396.77267456
 53
356.4236655
 43
-66328.77103025542
 44
-1127.626241310895
 45
0.0000000623399818
 46
25.00000046334374
 79
     2
 49
4.00780487
 49
-396.77267456
 53
6.009005547000002
 43
-66708.52103025541
 44
-1128.126241310895
 45
0.0000000901299604
 46
25.0000002439904
 79
     2
 49
4.776243199999999
 49
-472.8480835
 53
6.009005547000002
 43
-66683.52103025542
 44
-1128.126241310895
 45
0.0000000901299604
 46
25.0000002439904
 79
     2
 49
4.776243199999999
 49
-472.8480835
 53
6.009005547000002
 43
-66658.52103025541
 44
-1128.126241310895
 45
0.0000000901299604
 46
25.0000002439904
 79
     2
 49
4.776243199999999
 49
-472.8480835
 53
6.009005547000002
 43
-66633.52103025542
 44
-1128.126241310895
 45
0.0000000901299604
 46
25.0000002439904
 79
     2
 49
4.776243199999999
 49
-472.8480835
 53
6.009005547000002
 43
-66608.52103025542
 44
-1128.126241310895
 45
0.0000000901299604
 46
25.0000002439904
 79
     2
 49
4.776243199999999
 49
-472.8480835
 53
6.009005547000002
 43
-66583.52103025542
 44
-1128.126241310895
 45
0.0000000901299604
 46
25.0000002439904
 79
     2
 49
4.776243199999999
 49
-472.8480835
 53
6.009005547000002
 43
-66558.52103025542
 44
-1128.126241310895
 45
0.0000000901299604
 46
25.0000002439904
 79
     2
 49
4.776243199999999
 49
-472.8480835
 53
6.009005547000002
 43
-66533.52103025541
 44
-1128.126241310895
 45
0.0000000901299604
 46
25.0000002439904
 79
     2
 49
4.776243199999999
 49
-472.8480835
 53
6.009005547000002
 43
-66508.52103025542
 44
-1128.126241310895
 45
0.0000000901299604
 46
25.0000002439904
 79
     2
 49
4.776243199999999
 49
-472.8480835
 53
6.009005547000002
 43
-66483.52103025541
 44
-1128.126241310895
 45
0.0000000901299604
 46
25.0000002439904
 79
     2
 49
4.776243199999999
 49
-472.8480835
 53
6.009005547000002
 43
-66458.52103025542
 44
-1128.126241310895
 45
0.0000000901299604
 46
25.0000002439904
 79
     2
 49
4.776243199999999
 49
-472.8480835
 53
6.009005547000002
 43
-66433.52103025542
 44
-1128.126241310895
 45
0.0000000901299604
 46
25.0000002439904
 79
     2
 49
4.776243199999999
 49
-472.8480835
 53
6.009005547000002
 43
-66408.52103025542
 44
-1128.126241310895
 45
0.0000000901299604
 46
25.0000002439904
 79
     2
 49
4.776243199999999
 49
-472.8480835
 53
6.009005547000002
 43
-66383.52103025542
 44
-1128.126241310895
 45
0.0000000901299604
 46
25.0000002439904
 79
     2
 49
4.776243199999999
 49
-472.8480835
 53
6.009005547000002
 43
-66358.52103025542
 44
-1128.126241310895
 45
0.0000000901299604
 46
25.0000002439904
 79
     2
 49
4.776243199999999
 49
-472.8480835
 53
6.009005547000002
 43
-66333.52103025542
 44
-1128.126241310895
 45
0.0000000901299604
 46
25.0000002439904
 79
     2
 49
4.776243199999999
 49
-472.8480835
 53
6.009005547000002
 43
-66308.52103025541
 44
-1128.126241310895
 45
0.0000000901299604
 46
25.0000002439904
 79
     2
 49
4.776243199999999
 49
-472.8480835
 53
6.009005547000002
 43
-66283.52103025542
 44
-1128.126241310895
 45
0.0000000901299604
 46
25.0000002439904
 79
     2
 49
4.776243199999999
 49
-472.8480835
 53
6.009005547000002
 43
-66258.52103025541
 44
-1128.126241310895
 45
0.0000000901299604
 46
25.0000002439904
 79
     2
 49
4.776243199999999
 49
-472.8480835
 53
7.594643599999987
 43
-66712.27103025541
 44
-1128.626241310895
 45
0.0000001055347854
 46
24.99999937978613
 79
     2
 49
3.783186424999999
 49
-374.535461425
 53
7.594643599999987
 43
-66687.27103025542
 44
-1128.626241310895
 45
0.0000001055347854
 46
24.99999937978613
 79
     2
 49
3.783186424999999
 49
-374.535461425
 53
7.594643599999987
 43
-66662.27103025542
 44
-1128.626241310895
 45
0.0000001055347854
 46
24.99999937978613
 79
     2
 49
3.783186424999999
 49
-374.535461425
 53
7.594643599999987
 43
-66637.27103025542
 44
-1128.626241310895
 45
0.0000001055347854
 46
24.99999937978613
 79
     2
 49
3.783186424999999
 49
-374.535461425
 53
7.594643599999987
 43
-66612.27103025542
 44
-1128.626241310895
 45
0.0000001055347854
 46
24.99999937978613
 79
     2
 49
3.783186424999999
 49
-374.535461425
 53
7.594643599999987
 43
-66587.27103025542
 44
-1128.626241310895
 45
0.0000001055347854
 46
24.99999937978613
 79
     2
 49
3.783186424999999
 49
-374.535461425
 53
7.594643599999987
 43
-66562.27103025542
 44
-1128.626241310895
 45
0.0000001055347854
 46
24.99999937978613
 79
     2
 49
3.783186424999999
 49
-374.535461425
 53
7.594643599999987
 43
-66537.27103025541
 44
-1128.626241310895
 45
0.0000001055347854
 46
24.99999937978613
 79
     2
 49
3.783186424999999
 49
-374.535461425
 53
7.594643599999987
 43
-66512.27103025542
 44
-1128.626241310895
 45
0.0000001055347854
 46
24.99999937978613
 79
     2
 49
3.783186424999999
 49
-374.535461425
 53
7.594643599999987
 43
-66487.27103025541
 44
-1128.626241310895
 45
0.0000001055347854
 46
24.99999937978613
 79
     2
 49
3.783186424999999
 49
-374.535461425
 53
7.594643599999987
 43
-66462.27103025542
 44
-1128.626241310895
 45
0.0000001055347854
 46
24.99999937978613
 79
     2
 49
3.783186424999999
 49
-374.535461425
 53
7.594643599999987
 43
-66437.27103025542
 44
-1128.626241310895
 45
0.0000001055347854
 46
24.99999937978613
 79
     2
 49
3.783186424999999
 49
-374.535461425
 53
7.594643599999987
 43
-66412.27103025542
 44
-1128.626241310895
 45
0.0000001055347854
 46
24.99999937978613
 79
     2
 49
3.783186424999999
 49
-374.535461425
 53
7.594643599999987
 43
-66387.27103025542
 44
-1128.626241310895
 45
0.0000001055347854
 46
24.99999937978613
 79
     2
 49
3.783186424999999
 49
-374.535461425
 53
7.594643599999987
 43
-66362.27103025541
 44
-1128.626241310895
 45
0.0000001055347854
 46
24.99999937978613
 79
     2
 49
3.783186424999999
 49
-374.535461425
 53
0.0
 43
-66716.77103025542
 44
-1128.626241310895
 45
0.0
 46
25.0
 79
     2
 49
4.5
 49
-20.5
 53
0.0
 43
-66693.02103025541
 44
-1128.626241310895
 45
0.0
 46
25.0
 79
     2
 49
1.25
 49
-23.75
 53
0.0
 43
-66714.52103025542
 44
-1124.626241310895
 45
0.0
 46
25.0
 79
     2
 49
0.5
 49
-24.5
 53
0.0
 43
-66709.02103025541
 44
-1126.876241310895
 45
0.0
 46
25.0
 79
     2
 49
0.5
 49
-24.5
 53
0.0
 43
-66703.77103025542
 44
-1123.626241310895
 45
0.0
 46
25.0
 79
     2
 49
0.5
 49
-24.5
 53
0.0
 43
-66699.27103025542
 44
-1126.126241310895
 45
0.0
 46
25.0
 79
     2
 49
0.5
 49
-24.5
 53
0.0
 43
-66695.02103025542
 44
-1120.876241310895
 45
0.0
 46
25.0
 79
     2
 49
0.5
 49
-24.5
 53
0.0
 43
-66698.02103025542
 44
-1117.626241310895
 45
0.0
 46
25.0
 79
     2
 49
0.5
 49
-24.5
 53
0.0
 43
-66702.27103025542
 44
-1118.876241310895
 45
0.0
 46
25.0
 79
     2
 49
0.5
 49
-24.5
 53
0.0
 43
-66706.52103025542
 44
-1120.626241310895
 45
0.0
 46
25.0
 79
     2
 49
0.5
 49
-24.5
 53
0.0
 43
-66708.52103025541
 44
-1116.876241310895
 45
0.0
 46
25.0
 79
     2
 49
0.5
 49
-24.5
 53
0.0
 43
-66713.52103025542
 44
-1116.876241310895
 45
0.0
 46
25.0
 79
     2
 49
0.5
 49
-24.5
 53
0.0
 43
-66714.77103025542
 44
-1119.876241310895
 45
0.0
 46
25.0
 79
     2
 49
0.5
 49
-24.5
 53
0.0
 43
-66715.77103025541
 44
-1130.376241310895
 45
0.0
 46
25.0
 79
     2
 49
0.5
 49
-24.5
 53
0.0
 43
-66713.02103025542
 44
-1132.626241310895
 45
0.0
 46
25.0
 79
     2
 49
0.5
 49
-24.5
 53
0.0
 43
-66708.27103025541
 44
-1129.126241310895
 45
0.0
 46
25.0
 79
     2
 49
0.5
 49
-24.5
 53
0.0
 43
-66706.02103025542
 44
-1131.876241310895
 45
0.0
 46
25.0
 79
     2
 49
0.5
 49
-24.5
 53
0.0
 43
-66701.77103025542
 44
-1128.626241310895
 45
0.0
 46
25.0
 79
     2
 49
0.5
 49
-24.5
 53
0.0
 43
-66701.27103025541
 44
-1131.126241310895
 45
0.0
 46
25.0
 79
     2
 49
0.5
 49
-24.5
 53
0.0
 43
-66695.52103025542
 44
-1129.376241310895
 45
0.0
 46
25.0
 79
     2
 49
0.5
 49
-24.5
 53
0.0
 43
-66693.52103025541
 44
-1132.126241310895
 45
0.0
 46
25.0
 79
     2
 49
0.5
 49
-24.5
 53
0.0
 43
-66693.77103025541
 44
-1136.376241310895
 45
0.0
 46
25.0
 79
     2
 49
0.5
 49
-24.5
 53
0.0
 43
-66698.27103025542
 44
-1134.626241310895
 45
0.0
 46
25.0
 79
     2
 49
0.5
 49
-24.5
 53
0.0
 43
-66704.27103025541
 44
-1136.626241310895
 45
0.0
 46
25.0
 79
     2
 49
0.5
 49
-24.5
 53
0.0
 43
-66709.27103025542
 44
-1135.126241310895
 45
0.0
 46
25.0
 79
     2
 49
0.5
 49
-24.5
 53
0.0
 43
-66713.77103025542
 44
-1135.626241310895
 45
0.0
 46
25.0
 79
     2
 49
0.5
 49
-24.5
 53
0.0
 43
-66697.77103025542
 44
-1112.876241310895
 45
0.0
 46
25.0
 79
     2
 49
0.5
 49
-24.5
 53
0.0
 43
-66707.27103025542
 44
-1114.376241310895
 45
0.0
 46
25.0
 79
     2
 49
0.5
 49
-24.5
 53
0.0
 43
-66713.27103025542
 44
-1113.376241310895
 45
0.0
 46
25.0
 79
     2
 49
0.5
 49
-24.5
 53
0.0
 43
-66710.02103025542
 44
-1123.626241310895
 45
0.0
 46
25.0
 79
     2
 49
0.5
 49
-24.5
 47
0.5143684007572481
 98
        1
 10
87.08735087634705
 20
398.1260614232451
1001
GradientColor1ACI
1070
     5
1001
GradientColor2ACI
1070
     2
1001
ACAD
1010
0.0
1020
0.0
1030
0.0
  0
LINE
  5
240
330
70
100
AcDbEntity
  8
0
100
AcDbLine
 10
195.7323265880404
 20
388.1566519237895
 30
0.0
 11
70.06478992155462
 21
388.1566519237895
 31
0.0
  0
LINE
  5
241
330
70
100
AcDbEntity
  8
Post
100
AcDbLine
 10
197.2323265880404
 20
198.15682055262
 30
0.0
 11
248.0323265880433
 21
198.15682055262
 31
0.0
  0
LINE
  5
242
330
70
100
AcDbEntity
  8
fixing
100
AcDbLine
 10
250.0323265880433
 20
373.1566519237895
 30
0.0
 11
250.0323265880433
 21
353.1566519237895
 31
0.0
  0
LINE
  5
243
330
70
100
AcDbEntity
  8
fixing
100
AcDbLine
 10
258.0323265880434
 20
370.8459523031343
 30
0.0
 11
258.0323265880434
 21
355.4673515444447
 31
0.0
  0
LINE
  5
244
330
70
100
AcDbEntity
  8
fixing
100
AcDbLine
 10
250.0323265880433
 20
373.1566519237895
 30
0.0
 11
248.0323265880433
 21
373.1566519237895
 31
0.0
  0
LINE
  5
245
330
70
100
AcDbEntity
  8
fixing
100
AcDbLine
 10
248.0323265880433
 20
373.1566519237895
 30
0.0
 11
248.0323265880433
 21
353.1566519237895
 31
0.0
  0
LINE
  5
246
330
70
100
AcDbEntity
  8
fixing
100
AcDbLine
 10
248.0323265880433
 20
353.1566519237895
 30
0.0
 11
250.0323265880433
 21
353.1566519237895
 31
0.0
  0
ARC
  5
247
330
70
100
AcDbEntity
  8
fixing
100
AcDbCircle
 10
260.5323265880433
 20
363.1566519237895
 30
0.0
 40
7.5
100
AcDbArc
 50
270.0
 51
90.0
  0
LINE
  5
248
330
70
100
AcDbEntity
  8
fixing
100
AcDbLine
 10
260.5323265880433
 20
370.6566519237895
 30
0.0
 11
258.6177889054233
 21
370.6566519237895
 31
0.0
  0
LINE
  5
249
330
70
100
AcDbEntity
  8
fixing
100
AcDbLine
 10
260.5323265880433
 20
355.6566519237895
 30
0.0
 11
258.6177889054233
 21
355.6566519237895
 31
0.0
  0
ARC
  5
24A
330
70
100
AcDbEntity
  8
fixing
100
AcDbCircle
 10
258.6177889054233
 20
354.6566519237895
 30
0.0
 40
1.0
100
AcDbArc
 50
90.0
 51
138.1896851045227
  0
ARC
  5
24B
330
70
100
AcDbEntity
  8
fixing
100
AcDbCircle
 10
257.4997549166728
 20
355.6566519237895
 30
0.0
 40
0.5
100
AcDbArc
 50
270.0
 51
318.1896851045225
  0
LINE
  5
24C
330
70
100
AcDbEntity
  8
fixing
100
AcDbLine
 10
257.4997549166728
 20
355.1566519237895
 30
0.0
 11
251.2726390117896
 21
355.1566519237895
 31
0.0
  0
ARC
  5
24D
330
70
100
AcDbEntity
  8
fixing
100
AcDbCircle
 10
251.2726390117896
 20
355.6566519237895
 30
0.0
 40
0.5
100
AcDbArc
 50
218.6598082543634
 51
270.0
  0
LINE
  5
24E
330
70
100
AcDbEntity
  8
fixing
100
AcDbLine
 10
256.6283249867556
 20
363.1566519237895
 30
0.0
 11
251.4363281893166
 21
363.1566519237895
 31
0.0
  0
ARC
  5
24F
330
70
100
AcDbEntity
  8
fixing
100
AcDbCircle
 10
251.6323265880346
 20
359.1566519237895
 30
0.0
 40
6.4
100
AcDbArc
 50
323.614132183216
 51
38.68218745361446
  0
ARC
  5
250
330
70
100
AcDbEntity
  8
fixing
100
AcDbCircle
 10
256.3820634228614
 20
355.6566519237895
 30
0.0
 40
0.5
100
AcDbArc
 50
270.0
 51
323.614132183216
  0
ARC
  5
251
330
70
100
AcDbEntity
  8
fixing
100
AcDbCircle
 10
256.4323265880375
 20
359.1566519237895
 30
0.0
 40
6.4
100
AcDbArc
 50
141.3178125463856
 51
216.3858678167839
  0
ARC
  5
252
330
70
100
AcDbEntity
  8
fixing
100
AcDbCircle
 10
251.6825897532253
 20
355.6566519237895
 30
0.0
 40
0.5
100
AcDbArc
 50
216.3858678167839
 51
270.0
  0
LINE
  5
253
330
70
100
AcDbEntity
  8
fixing
100
AcDbLine
 10
250.0323265880433
 20
356.4066519237895
 30
0.0
 11
250.8822046070709
 21
355.3443044000123
 31
0.0
  0
ARC
  5
254
330
70
100
AcDbEntity
  8
fixing
100
AcDbCircle
 10
258.6177889054233
 20
371.6566519237895
 30
0.0
 40
1.0
100
AcDbArc
 50
221.8103148954773
 51
270.0
  0
ARC
  5
255
330
70
100
AcDbEntity
  8
fixing
100
AcDbCircle
 10
257.4997549166728
 20
370.6566519237895
 30
0.0
 40
0.5
100
AcDbArc
 50
41.8103148954773
 51
90.0
  0
LINE
  5
256
330
70
100
AcDbEntity
  8
fixing
100
AcDbLine
 10
257.4997549166728
 20
371.1566519237895
 30
0.0
 11
251.2726390117896
 21
371.1566519237895
 31
0.0
  0
ARC
  5
257
330
70
100
AcDbEntity
  8
fixing
100
AcDbCircle
 10
251.2726390117896
 20
370.6566519237895
 30
0.0
 40
0.5
100
AcDbArc
 50
90.0
 51
141.3401917455545
  0
ARC
  5
258
330
70
100
AcDbEntity
  8
fixing
100
AcDbCircle
 10
251.6323265880346
 20
367.1566519237895
 30
0.0
 40
6.4
100
AcDbArc
 50
321.3178125463855
 51
36.38586781678397
  0
ARC
  5
259
330
70
100
AcDbEntity
  8
fixing
100
AcDbCircle
 10
256.3820634228614
 20
370.6566519237895
 30
0.0
 40
0.5
100
AcDbArc
 50
36.38586781678397
 51
90.0
  0
ARC
  5
25A
330
70
100
AcDbEntity
  8
fixing
100
AcDbCircle
 10
256.4323265880375
 20
367.1566519237895
 30
0.0
 40
6.4
100
AcDbArc
 50
143.614132183216
 51
218.6821874536144
  0
ARC
  5
25B
330
70
100
AcDbEntity
  8
fixing
100
AcDbCircle
 10
251.6825897532253
 20
370.6566519237895
 30
0.0
 40
0.5
100
AcDbArc
 50
90.0
 51
143.614132183216
  0
LINE
  5
25C
330
70
100
AcDbEntity
  8
fixing
100
AcDbLine
 10
250.0323265880433
 20
369.9066519237895
 30
0.0
 11
250.8822046070709
 21
370.9689994475666
 31
0.0
  0
LINE
  5
25D
330
70
100
AcDbEntity
  8
fixing
100
AcDbLine
 10
250.0323265880433
 20
233.1566519237895
 30
0.0
 11
250.0323265880433
 21
213.1566519237895
 31
0.0
  0
LINE
  5
25E
330
70
100
AcDbEntity
  8
fixing
100
AcDbLine
 10
258.0323265880434
 20
230.8459523031343
 30
0.0
 11
258.0323265880434
 21
215.4673515444447
 31
0.0
  0
LINE
  5
25F
330
70
100
AcDbEntity
  8
fixing
100
AcDbLine
 10
250.0323265880433
 20
233.1566519237895
 30
0.0
 11
248.0323265880433
 21
233.1566519237895
 31
0.0
  0
LINE
  5
260
330
70
100
AcDbEntity
  8
fixing
100
AcDbLine
 10
248.0323265880433
 20
233.1566519237895
 30
0.0
 11
248.0323265880433
 21
213.1566519237895
 31
0.0
  0
LINE
  5
261
330
70
100
AcDbEntity
  8
fixing
100
AcDbLine
 10
248.0323265880433
 20
213.1566519237895
 30
0.0
 11
250.0323265880433
 21
213.1566519237895
 31
0.0
  0
ARC
  5
262
330
70
100
AcDbEntity
  8
fixing
100
AcDbCircle
 10
260.5323265880433
 20
223.1566519237895
 30
0.0
 40
7.5
100
AcDbArc
 50
270.0
 51
90.0
  0
LINE
  5
263
330
70
100
AcDbEntity
  8
fixing
100
AcDbLine
 10
260.5323265880433
 20
230.6566519237895
 30
0.0
 11
258.6177889054233
 21
230.6566519237895
 31
0.0
  0
LINE
  5
264
330
70
100
AcDbEntity
  8
fixing
100
AcDbLine
 10
260.5323265880433
 20
215.6566519237895
 30
0.0
 11
258.6177889054233
 21
215.6566519237895
 31
0.0
  0
ARC
  5
265
330
70
100
AcDbEntity
  8
fixing
100
AcDbCircle
 10
258.6177889054233
 20
214.6566519237895
 30
0.0
 40
1.0
100
AcDbArc
 50
90.0
 51
138.1896851045227
  0
ARC
  5
266
330
70
100
AcDbEntity
  8
fixing
100
AcDbCircle
 10
257.4997549166728
 20
215.6566519237895
 30
0.0
 40
0.5
100
AcDbArc
 50
270.0
 51
318.1896851045225
  0
LINE
  5
267
330
70
100
AcDbEntity
  8
fixing
100
AcDbLine
 10
257.4997549166728
 20
215.1566519237895
 30
0.0
 11
251.2726390117896
 21
215.1566519237895
 31
0.0
  0
ARC
  5
268
330
70
100
AcDbEntity
  8
fixing
100
AcDbCircle
 10
251.2726390117896
 20
215.6566519237895
 30
0.0
 40
0.5
100
AcDbArc
 50
218.6598082543634
 51
270.0
  0
LINE
  5
269
330
70
100
AcDbEntity
  8
fixing
100
AcDbLine
 10
256.6283249867556
 20
223.1566519237895
 30
0.0
 11
251.4363281893166
 21
223.1566519237895
 31
0.0
  0
ARC
  5
26A
330
70
100
AcDbEntity
  8
fixing
100
AcDbCircle
 10
251.6323265880346
 20
219.1566519237895
 30
0.0
 40
6.4
100
AcDbArc
 50
323.614132183216
 51
38.68218745361446
  0
ARC
  5
26B
330
70
100
AcDbEntity
  8
fixing
100
AcDbCircle
 10
256.3820634228614
 20
215.6566519237895
 30
0.0
 40
0.5
100
AcDbArc
 50
270.0
 51
323.614132183216
  0
ARC
  5
26C
330
70
100
AcDbEntity
  8
fixing
100
AcDbCircle
 10
256.4323265880375
 20
219.1566519237895
 30
0.0
 40
6.4
100
AcDbArc
 50
141.3178125463856
 51
216.3858678167839
  0
ARC
  5
26D
330
70
100
AcDbEntity
  8
fixing
100
AcDbCircle
 10
251.6825897532253
 20
215.6566519237895
 30
0.0
 40
0.5
100
AcDbArc
 50
216.3858678167839
 51
270.0
  0
LINE
  5
26E
330
70
100
AcDbEntity
  8
fixing
100
AcDbLine
 10
250.0323265880433
 20
216.4066519237895
 30
0.0
 11
250.8822046070709
 21
215.3443044000123
 31
0.0
  0
ARC
  5
26F
330
70
100
AcDbEntity
  8
fixing
100
AcDbCircle
 10
258.6177889054233
 20
231.6566519237895
 30
0.0
 40
1.0
100
AcDbArc
 50
221.8103148954773
 51
270.0
  0
ARC
  5
270
330
70
100
AcDbEntity
  8
fixing
100
AcDbCircle
 10
257.4997549166728
 20
230.6566519237895
 30
0.0
 40
0.5
100
AcDbArc
 50
41.8103148954773
 51
90.0
  0
LINE
  5
271
330
70
100
AcDbEntity
  8
fixing
100
AcDbLine
 10
257.4997549166728
 20
231.1566519237895
 30
0.0
 11
251.2726390117896
 21
231.1566519237895
 31
0.0
  0
ARC
  5
272
330
70
100
AcDbEntity
  8
fixing
100
AcDbCircle
 10
251.2726390117896
 20
230.6566519237895
 30
0.0
 40
0.5
100
AcDbArc
 50
90.0
 51
141.3401917455545
  0
ARC
  5
273
330
70
100
AcDbEntity
  8
fixing
100
AcDbCircle
 10
251.6323265880346
 20
227.1566519237895
 30
0.0
 40
6.4
100
AcDbArc
 50
321.3178125463855
 51
36.38586781678397
  0
ARC
  5
274
330
70
100
AcDbEntity
  8
fixing
100
AcDbCircle
 10
256.3820634228614
 20
230.6566519237895
 30
0.0
 40
0.5
100
AcDbArc
 50
36.38586781678397
 51
90.0
  0
ARC
  5
275
330
70
100
AcDbEntity
  8
fixing
100
AcDbCircle
 10
256.4323265880375
 20
227.1566519237895
 30
0.0
 40
6.4
100
AcDbArc
 50
143.614132183216
 51
218.6821874536144
  0
ARC
  5
276
330
70
100
AcDbEntity
  8
fixing
100
AcDbCircle
 10
251.6825897532253
 20
230.6566519237895
 30
0.0
 40
0.5
100
AcDbArc
 50
90.0
 51
143.614132183216
  0
LINE
  5
277
330
70
100
AcDbEntity
  8
fixing
100
AcDbLine
 10
250.0323265880433
 20
229.9066519237895
 30
0.0
 11
250.8822046070709
 21
230.9689994475666
 31
0.0
  0
LINE
  5
278
330
70
100
AcDbEntity
  8
Post
100
AcDbLine
 10
197.2323265880404
 20
201.15682055262
 30
0.0
 11
248.0323265880433
 21
201.15682055262
 31
0.0
  0
LINE
  5
279
330
70
100
AcDbEntity
  8
Spigot
 48
0.2
370
     5
100
AcDbLine
 10
218.9753369254613
 20
201.15682055262
 30
0.0
 11
218.9753369254759
 21
426.1600324380815
 31
0.0
  0
LINE
  5
27A
330
70
100
AcDbEntity
  8
Spigot
 48
0.2
370
     5
100
AcDbLine
 10
226.2679391642741
 20
201.15682055262
 30
0.0
 11
226.2679391642887
 21
426.1600324380815
 31
0.0
  0
LINE
  5
27B
330
70
100
AcDbEntity
  8
Spigot
 48
0.2
370
     5
100
AcDbLine
 10
222.6269368977228
 20
201.15682055262
 30
0.0
 11
222.6269368977228
 21
426.1600324380815
 31
0.0
  0
LINE
  5
27C
330
70
100
AcDbEntity
  8
Spigot
 48
0.2
370
     5
100
AcDbLine
 10
202.2306652123079
 20
201.15682055262
 30
0.0
 11
202.2306652123225
 21
426.1600324380815
 31
0.0
  0
LINE
  5
27D
330
70
100
AcDbEntity
  8
Spigot
 48
0.2
370
     5
100
AcDbLine
 10
204.2265333379182
 20
201.15682055262
 30
0.0
 11
204.2265333379619
 21
426.1600324380815
 31
0.0
  0
LINE
  5
27E
330
70
100
AcDbEntity
  8
Spigot
 48
0.2
370
     5
100
AcDbLine
 10
241.041929617073
 20
201.15682055262
 30
0.0
 11
241.0419296171022
 21
426.1600324380815
 31
0.0
  0
LINE
  5
27F
330
70
100
AcDbEntity
  8
Spigot
 48
0.2
370
     5
100
AcDbLine
 10
243.0306572562549
 20
201.15682055262
 30
0.0
 11
243.0306572562695
 21
426.1600324380815
 31
0.0
  0
LINE
  5
280
330
70
100
AcDbEntity
  8
Spigot
 48
0.2
370
     5
100
AcDbLine
 10
202.2306652123225
 20
426.1600324380815
 30
0.0
 11
243.0306572562695
 21
426.1600324380815
 31
0.0
  0
LINE
  5
281
330
70
100
AcDbEntity
  8
0
100
AcDbLine
 10
150.7323265880404
 20
198.1568205526673
 30
0.0
 11
150.7323265880404
 21
388.1566519237895
 31
0.0
  0
LINE
  5
282
330
70
100
AcDbEntity
  8
0
100
AcDbLine
 10
105.7322886465263
 20
198.1566519237894
 30
0.0
 11
105.7323265880404
 21
388.1566519237895
 31
0.0
  0
LINE
  5
283
330
70
100
AcDbEntity
  8
decking
100
AcDbLine
 10
195.7323265880404
 20
406.1566519237894
 30
0.0
 11
70.06478992155462
 21
406.1566519237894
 31
0.0
  0
LINE
  5
284
330
70
100
AcDbEntity
  8
ctrl
 48
0.25
100
AcDbLine
 10
269.3809554609034
 20
223.1566519237895
 30
0.0
 11
84.23232658804044
 21
223.1566519237895
 31
0.0
  0
LINE
  5
285
330
70
100
AcDbEntity
  8
ctrl
 48
0.25
100
AcDbLine
 10
271.8991385040572
 20
363.1566519237895
 30
0.0
 11
84.23232658804044
 21
363.1566519237895
 31
0.0
  0
LINE
  5
286
330
70
100
AcDbEntity
  8
fixing
100
AcDbLine
 10
95.73232658804045
 20
368.1566519237895
 30
0.0
 11
87.72625099016295
 21
368.1566519237895
 31
0.0
  0
LINE
  5
287
330
70
100
AcDbEntity
  8
fixing
100
AcDbLine
 10
103.7323265880404
 20
388.1566519237895
 30
0.0
 11
103.7323265880404
 21
338.1566519237895
 31
0.0
  0
LINE
  5
288
330
70
100
AcDbEntity
  8
fixing
100
AcDbLine
 10
95.73232658804045
 20
371.1566519237895
 30
0.0
 11
95.73232658804045
 21
355.1566519237895
 31
0.0
  0
LINE
  5
289
330
70
100
AcDbEntity
  8
fixing
100
AcDbLine
 10
103.7323265880404
 20
388.1566519237895
 30
0.0
 11
105.7323265880404
 21
388.1566519237895
 31
0.0
  0
LINE
  5
28A
330
70
100
AcDbEntity
  8
fixing
100
AcDbLine
 10
105.7323265880404
 20
338.1566519237895
 30
0.0
 11
103.7323265880404
 21
338.1566519237895
 31
0.0
  0
LINE
  5
28B
330
70
100
AcDbEntity
  8
fixing
100
AcDbLine
 10
95.73232658804045
 20
355.1566519237895
 30
0.0
 11
103.7323265880404
 21
355.1566519237895
 31
0.0
  0
LINE
  5
28C
330
70
100
AcDbEntity
  8
fixing
100
AcDbLine
 10
97.1363281893282
 20
363.1566519237895
 30
0.0
 11
103.7323265880404
 21
363.1566519237895
 31
0.0
  0
ARC
  5
28D
330
70
100
AcDbEntity
  8
fixing
100
AcDbCircle
 10
102.1323265880492
 20
359.1566519237895
 30
0.0
 40
6.4
100
AcDbArc
 50
141.3178125460481
 51
216.3858678167839
  0
ARC
  5
28E
330
70
100
AcDbEntity
  8
fixing
100
AcDbCircle
 10
97.38258975322242
 20
355.6566519237895
 30
0.0
 40
0.5
100
AcDbArc
 50
216.3858678167839
 51
270.0
  0
LINE
  5
28F
330
70
100
AcDbEntity
  8
fixing
100
AcDbLine
 10
95.73232658804045
 20
371.1566519237895
 30
0.0
 11
103.7323265880404
 21
371.1566519237895
 31
0.0
  0
ARC
  5
290
330
70
100
AcDbEntity
  8
fixing
100
AcDbCircle
 10
102.1323265880492
 20
367.1566519237895
 30
0.0
 40
6.4
100
AcDbArc
 50
143.614132183216
 51
218.6821874539519
  0
ARC
  5
291
330
70
100
AcDbEntity
  8
fixing
100
AcDbCircle
 10
97.38258975322242
 20
370.6566519237895
 30
0.0
 40
0.5
100
AcDbArc
 50
90.0
 51
143.614132183216
  0
LINE
  5
292
330
70
100
AcDbEntity
  8
fixing
100
AcDbLine
 10
95.73232658804045
 20
367.3566519237902
 30
0.0
 11
86.92625099016003
 21
367.3566519237902
 31
0.0
  0
LINE
  5
293
330
70
100
AcDbEntity
  8
fixing
100
AcDbLine
 10
95.73232658804045
 20
358.9566519237887
 30
0.0
 11
86.92625099016003
 21
358.9566519237887
 31
0.0
  0
LINE
  5
294
330
70
100
AcDbEntity
  8
fixing
100
AcDbLine
 10
95.73232658804045
 20
358.1566519237895
 30
0.0
 11
87.72625099016295
 21
358.1566519237895
 31
0.0
  0
LINE
  5
295
330
70
100
AcDbEntity
  8
fixing
100
AcDbLine
 10
87.72625099016295
 20
368.1566519237895
 30
0.0
 11
87.72625099016295
 21
358.1566519237895
 31
0.0
  0
LINE
  5
296
330
70
100
AcDbEntity
  8
fixing
100
AcDbLine
 10
86.92625099016003
 20
367.3566519237902
 30
0.0
 11
86.92625099016003
 21
358.9566519237887
 31
0.0
  0
LINE
  5
297
330
70
100
AcDbEntity
  8
fixing
100
AcDbLine
 10
86.92625099016003
 20
367.3566519237902
 30
0.0
 11
87.72625099016295
 21
368.1566519237895
 31
0.0
  0
LINE
  5
298
330
70
100
AcDbEntity
  8
fixing
100
AcDbLine
 10
86.92625099016003
 20
358.9566519237887
 30
0.0
 11
87.72625099016295
 21
358.1566519237895
 31
0.0
  0
LINE
  5
299
330
70
100
AcDbEntity
  8
fixing
100
AcDbLine
 10
95.73232658804045
 20
228.1566519237895
 30
0.0
 11
87.72625099016295
 21
228.1566519237895
 31
0.0
  0
LINE
  5
29A
330
70
100
AcDbEntity
  8
fixing
100
AcDbLine
 10
103.7323265880404
 20
248.1566519237895
 30
0.0
 11
103.7323265880404
 21
198.1566519237894
 31
0.0
  0
LINE
  5
29B
330
70
100
AcDbEntity
  8
fixing
100
AcDbLine
 10
95.73232658804045
 20
231.1566519237895
 30
0.0
 11
95.73232658804045
 21
215.1566519237895
 31
0.0
  0
LINE
  5
29C
330
70
100
AcDbEntity
  8
fixing
100
AcDbLine
 10
103.7323265880404
 20
248.1566519237895
 30
0.0
 11
105.7323265880404
 21
248.1566519237895
 31
0.0
  0
LINE
  5
29D
102
{ACAD_REACTORS
330
2E5
102
}
330
70
100
AcDbEntity
  8
fixing
100
AcDbLine
 10
105.7323265880404
 20
198.1566519237894
 30
0.0
 11
103.7323265880404
 21
198.1566519237894
 31
0.0
  0
LINE
  5
29E
330
70
100
AcDbEntity
  8
fixing
100
AcDbLine
 10
95.73232658804045
 20
215.1566519237895
 30
0.0
 11
103.7323265880404
 21
215.1566519237895
 31
0.0
  0
LINE
  5
29F
330
70
100
AcDbEntity
  8
fixing
100
AcDbLine
 10
97.1363281893282
 20
223.1566519237895
 30
0.0
 11
103.7323265880404
 21
223.1566519237895
 31
0.0
  0
ARC
  5
2A0
330
70
100
AcDbEntity
  8
fixing
100
AcDbCircle
 10
102.1323265880492
 20
219.1566519237895
 30
0.0
 40
6.4
100
AcDbArc
 50
141.3178125460481
 51
216.3858678167839
  0
ARC
  5
2A1
330
70
100
AcDbEntity
  8
fixing
100
AcDbCircle
 10
97.38258975322242
 20
215.6566519237895
 30
0.0
 40
0.5
100
AcDbArc
 50
216.3858678167839
 51
270.0
  0
LINE
  5
2A2
330
70
100
AcDbEntity
  8
fixing
100
AcDbLine
 10
95.73232658804045
 20
231.1566519237895
 30
0.0
 11
103.7323265880404
 21
231.1566519237895
 31
0.0
  0
ARC
  5
2A3
330
70
100
AcDbEntity
  8
fixing
100
AcDbCircle
 10
102.1323265880492
 20
227.1566519237895
 30
0.0
 40
6.4
100
AcDbArc
 50
143.614132183216
 51
218.6821874539519
  0
ARC
  5
2A4
330
70
100
AcDbEntity
  8
fixing
100
AcDbCircle
 10
97.38258975322242
 20
230.6566519237895
 30
0.0
 40
0.5
100
AcDbArc
 50
90.0
 51
143.614132183216
  0
LINE
  5
2A5
330
70
100
AcDbEntity
  8
fixing
100
AcDbLine
 10
95.73232658804045
 20
227.3566519237902
 30
0.0
 11
86.92625099016003
 21
227.3566519237902
 31
0.0
  0
LINE
  5
2A6
330
70
100
AcDbEntity
  8
fixing
100
AcDbLine
 10
95.73232658804045
 20
218.9566519237887
 30
0.0
 11
86.92625099016003
 21
218.9566519237887
 31
0.0
  0
LINE
  5
2A7
330
70
100
AcDbEntity
  8
fixing
100
AcDbLine
 10
95.73232658804045
 20
218.1566519237895
 30
0.0
 11
87.72625099016295
 21
218.1566519237895
 31
0.0
  0
LINE
  5
2A8
330
70
100
AcDbEntity
  8
fixing
100
AcDbLine
 10
87.72625099016295
 20
228.1566519237895
 30
0.0
 11
87.72625099016295
 21
218.1566519237895
 31
0.0
  0
LINE
  5
2A9
330
70
100
AcDbEntity
  8
fixing
100
AcDbLine
 10
86.92625099016003
 20
227.3566519237902
 30
0.0
 11
86.92625099016003
 21
218.9566519237887
 31
0.0
  0
LINE
  5
2AA
330
70
100
AcDbEntity
  8
fixing
100
AcDbLine
 10
86.92625099016003
 20
227.3566519237902
 30
0.0
 11
87.72625099016295
 21
228.1566519237895
 31
0.0
  0
LINE
  5
2AB
330
70
100
AcDbEntity
  8
fixing
100
AcDbLine
 10
86.92625099016003
 20
218.9566519237887
 30
0.0
 11
87.72625099016295
 21
218.1566519237895
 31
0.0
  0
LINE
  5
2AC
330
70
100
AcDbEntity
  8
0
100
AcDbLine
 10
195.7323265880404
 20
388.1566519237895
 30
0.0
 11
195.7323265880404
 21
198.15682055262
 31
0.0
  0
LINE
  5
2AD
330
70
100
AcDbEntity
  8
fixing
  6
DASHED
 48
0.3
370
     5
100
AcDbLine
 10
248.0323265880579
 20
358.1566519237895
 30
0.0
 11
105.7323265880404
 21
358.1566519237895
 31
0.0
  0
LINE
  5
2AE
330
70
100
AcDbEntity
  8
fixing
  6
DASHED
 48
0.3
370
     5
100
AcDbLine
 10
248.0323265880579
 20
358.9566519237887
 30
0.0
 11
105.7323265880404
 21
358.9566519237887
 31
0.0
  0
LINE
  5
2AF
330
70
100
AcDbEntity
  8
fixing
  6
DASHED
 48
0.3
370
     5
100
AcDbLine
 10
248.0323265880579
 20
367.3566519237902
 30
0.0
 11
105.7323265880404
 21
367.3566519237902
 31
0.0
  0
LINE
  5
2B0
330
70
100
AcDbEntity
  8
fixing
  6
DASHED
 48
0.3
370
     5
100
AcDbLine
 10
248.0323265880579
 20
368.1566519237895
 30
0.0
 11
105.7323265880404
 21
368.1566519237895
 31
0.0
  0
LINE
  5
2B1
330
70
100
AcDbEntity
  8
fixing
100
AcDbLine
 10
105.7323265880404
 20
358.1566519237895
 30
0.0
 11
105.7323265880404
 21
368.1566519237895
 31
0.0
  0
LINE
  5
2B2
330
70
100
AcDbEntity
  8
fixing
  6
DASHED
 48
0.3
370
     5
100
AcDbLine
 10
248.0323265880579
 20
218.1566519237895
 30
0.0
 11
105.7323265880404
 21
218.1566519237895
 31
0.0
  0
LINE
  5
2B3
330
70
100
AcDbEntity
  8
fixing
  6
DASHED
 48
0.3
370
     5
100
AcDbLine
 10
248.0323265880579
 20
218.9566519237887
 30
0.0
 11
105.7323265880404
 21
218.9566519237906
 31
0.0
  0
LINE
  5
2B4
330
70
100
AcDbEntity
  8
fixing
  6
DASHED
 48
0.3
370
     5
100
AcDbLine
 10
248.0323265880579
 20
227.3566519237902
 30
0.0
 11
105.7323265880404
 21
227.3566519237902
 31
0.0
  0
LINE
  5
2B5
330
70
100
AcDbEntity
  8
fixing
  6
DASHED
 48
0.3
370
     5
100
AcDbLine
 10
248.0323265880579
 20
228.1566519237895
 30
0.0
 11
105.7323265880404
 21
228.1566519237895
 31
0.0
  0
LINE
  5
2B6
330
70
100
AcDbEntity
  8
dim
100
AcDbLine
 10
281.2779513826681
 20
285.5847725725398
 30
0.0
 11
232.4522678434296
 21
285.5847725725398
 31
0.0
  0
LINE
  5
2B7
330
70
100
AcDbEntity
  8
shade 8
100
AcDbLine
 10
105.7323265880404
 20
198.15682055262
 30
0.0
 11
110.4691329588822
 21
218.1566519237895
 31
0.0
  0
LINE
  5
2B8
330
70
100
AcDbEntity
  8
shade 8
100
AcDbLine
 10
112.8375561135471
 20
228.1566519237895
 30
0.0
 11
143.6270571240602
 21
358.1566519237895
 31
0.0
  0
LINE
  5
2B9
330
70
100
AcDbEntity
  8
shade 8
100
AcDbLine
 10
145.9954802787251
 20
368.1566519237895
 30
0.0
 11
150.7323265880404
 21
388.1566519237895
 31
0.0
  0
LINE
  5
2BA
330
70
100
AcDbEntity
  8
shade 8
100
AcDbLine
 10
150.7323265880404
 20
198.1568205526673
 30
0.0
 11
145.9955202171986
 21
218.1566519237895
 31
0.0
  0
LINE
  5
2BB
330
70
100
AcDbEntity
  8
shade 8
100
AcDbLine
 10
143.6270970625337
 20
228.1566519237895
 30
0.0
 11
112.8375960520061
 21
358.1566519237895
 31
0.0
  0
LINE
  5
2BC
330
70
100
AcDbEntity
  8
shade 8
100
AcDbLine
 10
110.4691728973412
 20
368.1566519237895
 30
0.0
 11
105.7323265880404
 21
388.1566519237895
 31
0.0
  0
LINE
  5
2BD
330
70
100
AcDbEntity
  8
shade 8
100
AcDbLine
 10
150.7323265880404
 20
198.1568205526673
 30
0.0
 11
155.4691329588968
 21
218.1566519237895
 31
0.0
  0
LINE
  5
2BE
330
70
100
AcDbEntity
  8
shade 8
100
AcDbLine
 10
157.8375561135617
 20
228.1566519237895
 30
0.0
 11
188.6270571240748
 21
358.1566519237895
 31
0.0
  0
LINE
  5
2BF
330
70
100
AcDbEntity
  8
shade 8
100
AcDbLine
 10
190.9954802787397
 20
368.1566519237895
 30
0.0
 11
195.7323265880404
 21
388.1566519238095
 31
0.0
  0
LINE
  5
2C0
330
70
100
AcDbEntity
  8
shade 8
100
AcDbLine
 10
195.7323265880404
 20
198.15682055262
 30
0.0
 11
190.9955202171841
 21
218.1566519237895
 31
0.0
  0
LINE
  5
2C1
330
70
100
AcDbEntity
  8
shade 8
100
AcDbLine
 10
188.6270970625191
 20
228.1566519237895
 30
0.0
 11
157.8375960520061
 21
358.1566519237895
 31
0.0
  0
LINE
  5
2C2
330
70
100
AcDbEntity
  8
shade 8
100
AcDbLine
 10
155.4691728973266
 20
368.1566519237895
 30
0.0
 11
150.7323265880404
 21
388.1566519237895
 31
0.0
  0
HATCH
  5
2C3
330
70
100
AcDbEntity
  8
shade 8
100
AcDbHatch
 10
0.0
 20
0.0
 30
0.0
210
0.0
220
0.0
230
1.0
  2
ANSI31
 70
     0
 71
     0
 91
       10
 92
        7
 72
     0
 73
     1
 93
        4
 10
200.232326588055
 20
358.1566519237895
 10
197.2323265880695
 20
358.1566519237895
 10
197.232326588055
 20
356.5566519237891
 10
200.2323265880696
 20
356.5566519237891
 97
        0
 92
        7
 72
     0
 73
     1
 93
        4
 10
202.2306652123225
 20
358.1566519237895
 10
200.2323265880696
 20
358.1566519237895
 10
200.232326588055
 20
356.5566519237891
 10
202.2306652123225
 20
356.5566519237891
 97
        0
 92
        7
 72
     0
 73
     1
 93
        4
 10
204.2265333379764
 20
358.1566519237895
 10
202.2306652123225
 20
358.1566519237895
 10
202.2306652123225
 20
356.5566519237891
 10
204.226533337991
 20
356.5566519237891
 97
        0
 92
        7
 72
     0
 73
     1
 93
        4
 10
218.975336925505
 20
358.1566519237895
 10
204.2265333379764
 20
358.1566519237895
 10
204.226533337991
 20
356.5566519237891
 10
218.975336925505
 20
356.5566519237891
 97
        0
 92
        7
 72
     0
 73
     1
 93
        4
 10
222.6269368977373
 20
358.1566519237895
 10
218.975336925505
 20
358.1566519237895
 10
218.975336925505
 20
356.5566519237891
 10
222.6269368977373
 20
356.5566519237891
 97
        0
 92
        7
 72
     0
 73
     1
 93
        4
 10
226.2679391642887
 20
358.1566519237895
 10
222.6269368977373
 20
358.1566519237895
 10
222.6269368977373
 20
356.5566519237891
 10
226.2679391642887
 20
356.5566519237891
 97
        0
 92
        7
 72
     0
 73
     1
 93
        4
 10
241.0419296171167
 20
358.1566519237895
 10
226.2679391643033
 20
358.1566519237895
 10
226.2679391642887
 20
356.5566519237891
 10
241.0419296171167
 20
356.5566519237891
 97
        0
 92
        7
 72
     0
 73
     1
 93
        4
 10
243.030657256284
 20
358.1566519237895
 10
241.0419296171312
 20
358.1566519237895
 10
241.0419296171312
 20
356.5566519237891
 10
243.030657256284
 20
356.5566519237891
 97
        0
 92
        7
 72
     0
 73
     1
 93
        4
 10
245.0323265880579
 20
358.1566519237895
 10
243.0306572562986
 20
358.1566519237895
 10
243.0306572562986
 20
356.5566519237891
 10
245.0323265880288
 20
356.5566519237891
 97
        0
 92
        7
 72
     0
 73
     1
 93
        4
 10
248.0323265880288
 20
358.1566519237895
 10
245.0323265880434
 20
358.1566519237895
 10
245.0323265880579
 20
356.5566519237891
 10
248.0323265880579
 20
356.5566519237891
 97
        0
 75
     0
 76
     1
 52
0.0
 41
0.75
 77
     0
 78
     1
 53
45.0
 43
-69786.6942487635
 44
-504.1512703145163
 45
-1.683798022700465
 46
1.683798022700466
 79
     0
 47
0.0445768482254879
 98
       10
 10
199.8716440798307
 20
357.7990875699143
 10
200.9419481343066
 20
357.665348646231
 10
202.5028369051288
 20
357.665348646231
 10
206.5611018030613
 20
357.5316284771288
 10
220.9657539931213
 20
357.4870488359011
 10
224.3996939868666
 20
357.5762081183566
 10
228.6363811490883
 20
357.7545079286865
 10
241.7923452755931
 20
357.6207690050032
 10
243.8883860736678
 20
357.4870488359011
 10
245.5384477214248
 20
357.4870488359011
  0
LWPOLYLINE
  5
2C4
330
70
100
AcDbEntity
  8
shade 8
  6
DASHED
 48
0.25
100
AcDbPolyline
 90
        4
 70
     1
 43
0.0
 10
197.232326588055
 20
356.5566519237891
 10
248.0323265880579
 20
356.5566519237891
 10
248.0323265880433
 20
358.1566519237895
 10
197.232326588055
 20
358.1566519237895
  0
HATCH
  5
2C5
330
70
100
AcDbEntity
  8
shade 8
100
AcDbHatch
 10
0.0
 20
0.0
 30
0.0
210
0.0
220
0.0
230
1.0
  2
ANSI31
 70
     0
 71
     0
 91
       10
 92
        7
 72
     0
 73
     1
 93
        4
 10
200.2323265880404
 20
369.7566519237899
 10
197.232326588055
 20
369.7566519237899
 10
197.2323265880404
 20
368.1566519237895
 10
200.232326588055
 20
368.1566519237895
 97
        0
 92
        7
 72
     0
 73
     1
 93
        4
 10
202.2306652123079
 20
369.7566519237899
 10
200.232326588055
 20
369.7566519237899
 10
200.2323265880404
 20
368.1566519237895
 10
202.2306652123079
 20
368.1566519237895
 97
        0
 92
        7
 72
     0
 73
     1
 93
        4
 10
204.2265333379619
 20
369.7566519237899
 10
202.2306652123079
 20
369.7566519237899
 10
202.2306652123079
 20
368.1566519237895
 10
204.2265333379764
 20
368.1566519237895
 97
        0
 92
        7
 72
     0
 73
     1
 93
        4
 10
218.9753369254904
 20
369.7566519237899
 10
204.2265333379619
 20
369.7566519237899
 10
204.2265333379764
 20
368.1566519237895
 10
218.9753369254904
 20
368.1566519237895
 97
        0
 92
        7
 72
     0
 73
     1
 93
        4
 10
222.6269368977228
 20
369.7566519237899
 10
218.9753369254904
 20
369.7566519237899
 10
218.9753369254904
 20
368.1566519237895
 10
222.6269368977228
 20
368.1566519237895
 97
        0
 92
        7
 72
     0
 73
     1
 93
        4
 10
226.2679391642741
 20
369.7566519237899
 10
222.6269368977228
 20
369.7566519237899
 10
222.6269368977228
 20
368.1566519237895
 10
226.2679391642741
 20
368.1566519237895
 97
        0
 92
        7
 72
     0
 73
     1
 93
        4
 10
241.0419296171022
 20
369.7566519237899
 10
226.2679391642887
 20
369.7566519237899
 10
226.2679391642741
 20
368.1566519237895
 10
241.0419296171022
 20
368.1566519237895
 97
        0
 92
        7
 72
     0
 73
     1
 93
        4
 10
243.0306572562695
 20
369.7566519237899
 10
241.0419296171167
 20
369.7566519237899
 10
241.0419296171167
 20
368.1566519237895
 10
243.0306572562695
 20
368.1566519237895
 97
        0
 92
        7
 72
     0
 73
     1
 93
        4
 10
245.0323265880434
 20
369.7566519237899
 10
243.030657256284
 20
369.7566519237899
 10
243.030657256284
 20
368.1566519237895
 10
245.0323265880143
 20
368.1566519237895
 97
        0
 92
        7
 72
     0
 73
     1
 93
        4
 10
248.0323265880143
 20
369.7566519237899
 10
245.0323265880288
 20
369.7566519237899
 10
245.0323265880434
 20
368.1566519237895
 10
248.0323265880433
 20
368.1566519237895
 97
        0
 75
     0
 76
     1
 52
0.0
 41
0.75
 77
     0
 78
     1
 53
45.0
 43
-69786.69424876351
 44
-492.5512703145177
 45
-1.683798022700465
 46
1.683798022700466
 79
     0
 47
0.0445768482254879
 98
       10
 10
199.8716440798162
 20
369.3990875699128
 10
200.941948134292
 20
369.2653486462295
 10
202.5028369051142
 20
369.2653486462295
 10
206.5611018030468
 20
369.1316284771274
 10
220.9657539931068
 20
369.0870488358996
 10
224.3996939868521
 20
369.1762081183551
 10
228.6363811490737
 20
369.3545079286851
 10
241.7923452755786
 20
369.2207690050018
 10
243.8883860736532
 20
369.0870488358996
 10
245.5384477214102
 20
369.0870488358996
  0
LWPOLYLINE
  5
2C6
330
70
100
AcDbEntity
  8
shade 8
  6
DASHED
 48
0.25
100
AcDbPolyline
 90
        4
 70
     1
 43
0.0
 10
197.2323265880404
 20
368.1566519237895
 10
248.0323265880433
 20
368.1566519237895
 10
248.0323265880288
 20
369.7566519237899
 10
197.2323265880404
 20
369.7566519237899
  0
HATCH
  5
2C7
330
70
100
AcDbEntity
  8
shade 8
100
AcDbHatch
 10
0.0
 20
0.0
 30
0.0
210
0.0
220
0.0
230
1.0
  2
ANSI31
 70
     0
 71
     0
 91
       10
 92
        7
 72
     0
 73
     1
 93
        4
 10
200.232326588055
 20
218.1566519237895
 10
197.2323265880695
 20
218.1566519237895
 10
197.232326588055
 20
216.5566519237891
 10
200.2323265880696
 20
216.5566519237891
 97
        0
 92
        7
 72
     0
 73
     1
 93
        4
 10
202.2306652123225
 20
218.1566519237895
 10
200.2323265880696
 20
218.1566519237895
 10
200.232326588055
 20
216.5566519237891
 10
202.2306652123225
 20
216.5566519237891
 97
        0
 92
        7
 72
     0
 73
     1
 93
        4
 10
204.2265333379764
 20
218.1566519237895
 10
202.2306652123225
 20
218.1566519237895
 10
202.2306652123225
 20
216.5566519237891
 10
204.226533337991
 20
216.5566519237891
 97
        0
 92
        7
 72
     0
 73
     1
 93
        4
 10
218.975336925505
 20
218.1566519237895
 10
204.2265333379764
 20
218.1566519237895
 10
204.226533337991
 20
216.5566519237891
 10
218.975336925505
 20
216.5566519237891
 97
        0
 92
        7
 72
     0
 73
     1
 93
        4
 10
222.6269368977373
 20
218.1566519237895
 10
218.975336925505
 20
218.1566519237895
 10
218.975336925505
 20
216.5566519237891
 10
222.6269368977373
 20
216.5566519237891
 97
        0
 92
        7
 72
     0
 73
     1
 93
        4
 10
226.2679391642887
 20
218.1566519237895
 10
222.6269368977373
 20
218.1566519237895
 10
222.6269368977373
 20
216.5566519237891
 10
226.2679391642887
 20
216.5566519237891
 97
        0
 92
        7
 72
     0
 73
     1
 93
        4
 10
241.0419296171167
 20
218.1566519237895
 10
226.2679391643033
 20
218.1566519237895
 10
226.2679391642887
 20
216.5566519237891
 10
241.0419296171167
 20
216.5566519237891
 97
        0
 92
        7
 72
     0
 73
     1
 93
        4
 10
243.030657256284
 20
218.1566519237895
 10
241.0419296171312
 20
218.1566519237895
 10
241.0419296171312
 20
216.5566519237891
 10
243.030657256284
 20
216.5566519237891
 97
        0
 92
        7
 72
     0
 73
     1
 93
        4
 10
245.0323265880579
 20
218.1566519237895
 10
243.0306572562986
 20
218.1566519237895
 10
243.0306572562986
 20
216.5566519237891
 10
245.0323265880288
 20
216.5566519237891
 97
        0
 92
        7
 72
     0
 73
     1
 93
        4
 10
248.0323265880288
 20
218.1566519237895
 10
245.0323265880434
 20
218.1566519237895
 10
245.0323265880579
 20
216.5566519237891
 10
248.0323265880579
 20
216.5566519237891
 97
        0
 75
     0
 76
     1
 52
0.0
 41
0.75
 77
     0
 78
     1
 53
45.0
 43
-69786.6942487635
 44
-644.1512703145162
 45
-1.683798022700465
 46
1.683798022700466
 79
     0
 47
0.0445768482254879
 98
       10
 10
199.8716440798307
 20
217.7990875699143
 10
200.9419481343066
 20
217.665348646231
 10
202.5028369051288
 20
217.665348646231
 10
206.5611018030613
 20
217.5316284771288
 10
220.9657539931213
 20
217.4870488359011
 10
224.3996939868666
 20
217.5762081183566
 10
228.6363811490883
 20
217.7545079286865
 10
241.7923452755931
 20
217.6207690050032
 10
243.8883860736678
 20
217.4870488359011
 10
245.5384477214248
 20
217.4870488359011
  0
LWPOLYLINE
  5
2C8
330
70
100
AcDbEntity
  8
shade 8
  6
DASHED
 48
0.25
100
AcDbPolyline
 90
        4
 70
     1
 43
0.0
 10
197.232326588055
 20
216.5566519237891
 10
248.0323265880579
 20
216.5566519237891
 10
248.0323265880433
 20
218.1566519237895
 10
197.232326588055
 20
218.1566519237895
  0
HATCH
  5
2C9
330
70
100
AcDbEntity
  8
shade 8
100
AcDbHatch
 10
0.0
 20
0.0
 30
0.0
210
0.0
220
0.0
230
1.0
  2
ANSI31
 70
     0
 71
     0
 91
       10
 92
        7
 72
     0
 73
     1
 93
        4
 10
200.2323265880404
 20
229.7566519237898
 10
197.232326588055
 20
229.7566519237898
 10
197.2323265880404
 20
228.1566519237895
 10
200.232326588055
 20
228.1566519237895
 97
        0
 92
        7
 72
     0
 73
     1
 93
        4
 10
202.2306652123079
 20
229.7566519237898
 10
200.232326588055
 20
229.7566519237898
 10
200.2323265880404
 20
228.1566519237895
 10
202.2306652123079
 20
228.1566519237895
 97
        0
 92
        7
 72
     0
 73
     1
 93
        4
 10
204.2265333379619
 20
229.7566519237898
 10
202.2306652123079
 20
229.7566519237898
 10
202.2306652123079
 20
228.1566519237895
 10
204.2265333379764
 20
228.1566519237895
 97
        0
 92
        7
 72
     0
 73
     1
 93
        4
 10
218.9753369254904
 20
229.7566519237898
 10
204.2265333379619
 20
229.7566519237898
 10
204.2265333379764
 20
228.1566519237895
 10
218.9753369254904
 20
228.1566519237895
 97
        0
 92
        7
 72
     0
 73
     1
 93
        4
 10
222.6269368977228
 20
229.7566519237898
 10
218.9753369254904
 20
229.7566519237898
 10
218.9753369254904
 20
228.1566519237895
 10
222.6269368977228
 20
228.1566519237895
 97
        0
 92
        7
 72
     0
 73
     1
 93
        4
 10
226.2679391642741
 20
229.7566519237898
 10
222.6269368977228
 20
229.7566519237898
 10
222.6269368977228
 20
228.1566519237895
 10
226.2679391642741
 20
228.1566519237895
 97
        0
 92
        7
 72
     0
 73
     1
 93
        4
 10
241.0419296171022
 20
229.7566519237898
 10
226.2679391642887
 20
229.7566519237898
 10
226.2679391642741
 20
228.1566519237895
 10
241.0419296171022
 20
228.1566519237895
 97
        0
 92
        7
 72
     0
 73
     1
 93
        4
 10
243.0306572562695
 20
229.7566519237898
 10
241.0419296171167
 20
229.7566519237898
 10
241.0419296171167
 20
228.1566519237895
 10
243.0306572562695
 20
228.1566519237895
 97
        0
 92
        7
 72
     0
 73
     1
 93
        4
 10
245.0323265880434
 20
229.7566519237898
 10
243.030657256284
 20
229.7566519237898
 10
243.030657256284
 20
228.1566519237895
 10
245.0323265880143
 20
228.1566519237895
 97
        0
 92
        7
 72
     0
 73
     1
 93
        4
 10
248.0323265880143
 20
229.7566519237898
 10
245.0323265880288
 20
229.7566519237898
 10
245.0323265880434
 20
228.1566519237895
 10
248.0323265880433
 20
228.1566519237895
 97
        0
 75
     0
 76
     1
 52
0.0
 41
0.75
 77
     0
 78
     1
 53
45.0
 43
-69786.69424876351
 44
-632.5512703145177
 45
-1.683798022700465
 46
1.683798022700466
 79
     0
 47
0.0445768482254879
 98
       10
 10
199.8716440798162
 20
229.3990875699128
 10
200.941948134292
 20
229.2653486462295
 10
202.5028369051142
 20
229.2653486462295
 10
206.5611018030468
 20
229.1316284771274
 10
220.9657539931068
 20
229.0870488358996
 10
224.3996939868521
 20
229.1762081183551
 10
228.6363811490737
 20
229.354507928685
 10
241.7923452755786
 20
229.2207690050018
 10
243.8883860736532
 20
229.0870488358996
 10
245.5384477214102
 20
229.0870488358996
  0
LWPOLYLINE
  5
2CA
330
70
100
AcDbEntity
  8
shade 8
  6
DASHED
 48
0.25
100
AcDbPolyline
 90
        4
 70
     1
 43
0.0
 10
195.7323265880404
 20
228.1566519237895
 10
246.5323265880434
 20
228.1566519237895
 10
246.5323265880288
 20
229.7566519237898
 10
195.7323265880404
 20
229.7566519237898
  0
LINE
  5
2CC
330
70
100
AcDbEntity
  8
fixing
100
AcDbLine
 10
105.7323265880404
 20
388.1566519237895
 30
0.0
 11
105.7323265880404
 21
338.1566519237895
 31
0.0
  0
LINE
  5
2CD
330
70
100
AcDbEntity
  8
fixing
100
AcDbLine
 10
105.7323265880404
 20
248.1566519237895
 30
0.0
 11
105.7323265880404
 21
198.1566519237894
 31
0.0
  0
HATCH
  5
2CE
330
70
100
AcDbEntity
  8
shade 8
100
AcDbHatch
 10
0.0
 20
0.0
 30
0.0
210
0.0
220
0.0
230
1.0
  2
SOLID
 70
     1
 71
     0
 91
        2
 92
        7
 72
     0
 73
     1
 93
        4
 10
195.7323265880404
 20
369.6563845291439
 10
197.2323265880404
 20
369.6563845291439
 10
197.2323265880404
 20
385.6563845291439
 10
195.7323265880404
 20
385.6563845291439
 97
        0
 92
        7
 72
     0
 73
     1
 93
        4
 10
197.2323265880404
 20
356.6563845291439
 10
195.7323265880404
 20
356.6563845291439
 10
195.7323265880404
 20
340.6563845291439
 10
197.2323265880404
 20
340.6563845291439
 97
        0
 75
     1
 76
     1
 47
0.1188044652130884
 98
        2
 10
196.4469057191745
 20
373.7540891621265
 10
196.8036182134674
 20
350.7060258350448
450
        0
451
        0
460
0.0
461
0.0
452
        0
462
1.0
453
        2
463
0.0
 63
     5
421
      255
463
1.0
 63
     2
421
 16776960
470
LINEAR
1001
GradientColor1ACI
1070
     5
1001
GradientColor2ACI
1070
     2
1001
ACAD
1010
0.0
1020
0.0
1030
0.0
  0
LINE
  5
2CF
330
70
100
AcDbEntity
  8
baseplate
370
    15
100
AcDbLine
 10
195.7323265880404
 20
340.6563845291439
 30
0.0
 11
195.7323265880404
 21
385.6563845291439
 31
0.0
  0
LINE
  5
2D0
330
70
100
AcDbEntity
  8
baseplate
370
    15
100
AcDbLine
 10
195.7323265880404
 20
385.6563845291439
 30
0.0
 11
197.2323265880404
 21
385.6563845291439
 31
0.0
  0
LINE
  5
2D1
330
70
100
AcDbEntity
  8
baseplate
370
    15
100
AcDbLine
 10
197.2323265880404
 20
385.6563845291439
 30
0.0
 11
197.2323265880404
 21
340.6563845291439
 31
0.0
  0
LINE
  5
2D2
330
70
100
AcDbEntity
  8
baseplate
370
    15
100
AcDbLine
 10
197.2323265880404
 20
340.6563845291439
 30
0.0
 11
195.7323265880404
 21
340.6563845291439
 31
0.0
  0
LINE
  5
2D3
330
70
100
AcDbEntity
  8
baseplate
370
    15
100
AcDbLine
 10
197.2323265880404
 20
356.6563845291439
 30
0.0
 11
195.7323265880404
 21
356.6563845291439
 31
0.0
  0
LINE
  5
2D4
330
70
100
AcDbEntity
  8
baseplate
370
    15
100
AcDbLine
 10
195.7323265880404
 20
369.6563845291439
 30
0.0
 11
197.2323265880404
 21
369.6563845291439
 31
0.0
  0
HATCH
  5
2D5
330
70
100
AcDbEntity
  8
shade 8
100
AcDbHatch
 10
0.0
 20
0.0
 30
0.0
210
0.0
220
0.0
230
1.0
  2
SOLID
 70
     1
 71
     0
 91
        2
 92
        7
 72
     0
 73
     1
 93
        4
 10
195.7323265880404
 20
229.6563845291457
 10
197.2323265880404
 20
229.6563845291457
 10
197.2323265880404
 20
245.6563845291457
 10
195.7323265880404
 20
245.6563845291457
 97
        0
 92
        7
 72
     0
 73
     1
 93
        4
 10
197.2323265880404
 20
216.6563845291457
 10
195.7323265880404
 20
216.6563845291457
 10
195.7323265880404
 20
200.6563845291457
 10
197.2323265880404
 20
200.6563845291457
 97
        0
 75
     1
 76
     1
 47
0.1188044652130884
 98
        2
 10
196.4469057191745
 20
233.7540891621284
 10
196.8036182134674
 20
210.7060258350466
450
        0
451
        0
460
0.0
461
0.0
452
        0
462
1.0
453
        2
463
0.0
 63
     5
421
      255
463
1.0
 63
     2
421
 16776960
470
LINEAR
1001
GradientColor1ACI
1070
     5
1001
GradientColor2ACI
1070
     2
1001
ACAD
1010
0.0
1020
0.0
1030
0.0
  0
LINE
  5
2D6
330
70
100
AcDbEntity
  8
baseplate
370
    15
100
AcDbLine
 10
195.7323265880404
 20
200.6563845291457
 30
0.0
 11
195.7323265880404
 21
245.6563845291457
 31
0.0
  0
LINE
  5
2D7
330
70
100
AcDbEntity
  8
baseplate
370
    15
100
AcDbLine
 10
195.7323265880404
 20
245.6563845291457
 30
0.0
 11
197.2323265880404
 21
245.6563845291457
 31
0.0
  0
LINE
  5
2D8
330
70
100
AcDbEntity
  8
baseplate
370
    15
100
AcDbLine
 10
197.2323265880404
 20
245.6563845291457
 30
0.0
 11
197.2323265880404
 21
200.6563845291457
 31
0.0
  0
LINE
  5
2D9
330
70
100
AcDbEntity
  8
baseplate
370
    15
100
AcDbLine
 10
197.2323265880404
 20
200.6563845291457
 30
0.0
 11
195.7323265880404
 21
200.6563845291457
 31
0.0
  0
LINE
  5
2DA
330
70
100
AcDbEntity
  8
baseplate
370
    15
100
AcDbLine
 10
197.2323265880404
 20
216.6563845291457
 30
0.0
 11
195.7323265880404
 21
216.6563845291457
 31
0.0
  0
LINE
  5
2DB
330
70
100
AcDbEntity
  8
baseplate
370
    15
100
AcDbLine
 10
195.7323265880404
 20
229.6563845291457
 30
0.0
 11
197.2323265880404
 21
229.6563845291457
 31
0.0
  0
LINE
  5
2DC
330
70
100
AcDbEntity
  8
decking
100
AcDbLine
 10
195.7323265880404
 20
406.1566519237894
 30
0.0
 11
195.7323265880404
 21
388.1566519237895
 31
0.0
  0
DIMENSION
  5
2DD
330
70
100
AcDbEntity
  8
dim
100
AcDbDimension
  2
*D7
 10
60.4426656557479
 20
363.1566519237896
 30
0.0
 11
60.44266565574798
 21
304.9977158033125
 31
0.0
 70
   160
  1
140mm min
 71
     5
 42
140.0
 73
     0
 74
     0
 75
     0
  3
Spectrum 2
100
AcDbAlignedDimension
 13
82.73232658804046
 23
223.1566519237895
 33
0.0
 14
82.73232658804046
 24
363.1566519237895
 34
0.0
 50
90.0
100
AcDbRotatedDimension
1001
ACAD
1000
DSTYLE
1002
{
1070
   340
1005
D5
1070
   140
1040
2.25
1070
    42
1040
2.0
1070
    40
1040
2.0
1002
}
  0
LEADER
  5
2DE
330
70
100
AcDbEntity
  8
dim
100
AcDbLeader
  3
Spectrum 2
 76
     2
 10
243.5323265880434
 20
467.9466898736463
 30
0.0
 10
281.2779513826681
 20
467.9466898736463
 30
0.0
211
1.0
221
-0.0000000000000002
231
0.0
213
-0.0000000000000031
223
-12.5
233
0.0
1001
ACAD
1000
DSTYLE
1002
{
1070
    41
1040
6.0
1070
    40
1040
1.0
1070
    50
1040
1.570796326794896
1070
    77
1070
     0
1002
}
  0
LEADER
  5
2DF
330
70
100
AcDbEntity
  8
dim
100
AcDbLeader
  3
Spectrum 2
 76
     2
 10
232.4522678434296
 20
230.3102863136774
 30
0.0
 10
232.4522678434296
 20
285.5847725725398
 30
0.0
211
0.0000000000000003
221
1.0
231
0.0
213
12.5
223
-0.0000000000000038
233
0.0
1001
ACAD
1000
DSTYLE
1002
{
1070
    41
1040
6.0
1070
    40
1040
1.0
1070
    50
1040
1.570796326794896
1070
    77
1070
     0
1002
}
  0
DIMENSION
  5
2E0
330
70
100
AcDbEntity
  8
dim
100
AcDbDimension
  2
*D8
 10
60.4426656557479
 20
363.1566519237896
 30
0.0
 11
60.44266565574798
 21
375.6567362382157
 31
0.0
 70
   160
  1
25 min
 71
     5
 42
25.00000000000006
 73
     0
 74
     0
 75
     0
  3
Spectrum 2
100
AcDbAlignedDimension
 13
69.91967548901448
 23
388.1566519237895
 33
0.0
 14
82.73232658804046
 24
363.1566519237895
 34
0.0
 50
270.0
100
AcDbRotatedDimension
1001
ACAD
1000
DSTYLE
1002
{
1070
   340
1005
D5
1070
   140
1040
2.25
1070
    42
1040
2.0
1070
    40
1040
2.0
1002
}
  0
DIMENSION
  5
2E1
330
70
100
AcDbEntity
  8
dim
100
AcDbDimension
  2
*D9
 10
195.7323265880404
 20
421.7896544343948
 30
0.0
 11
150.7323265880404
 21
421.7896544343948
 31
0.0
 70
   160
  1
90 min timber width
 71
     5
 42
90.0
 73
     0
 74
     0
 75
     0
  3
Spectrum 2
100
AcDbAlignedDimension
 13
105.7323265880404
 23
388.1566519237895
 33
0.0
 14
195.7323265880404
 24
406.1566519237894
 34
0.0
100
AcDbRotatedDimension
1001
ACAD
1000
DSTYLE
1002
{
1070
   340
1005
D5
1070
   140
1040
2.25
1070
    42
1040
2.0
1070
    40
1040
2.0
1002
}
  0
DIMENSION
  5
2E2
330
70
100
AcDbEntity
  8
dim
100
AcDbDimension
  2
*D10
 10
60.44266565574794
 20
198.1566519237895
 30
0.0
 11
60.44266565574798
 21
210.6567362382157
 31
0.0
 70
   160
  1
25 min
 71
     5
 42
25.0
 73
     0
 74
     0
 75
     0
  3
Spectrum 2
100
AcDbAlignedDimension
 13
69.91967548901448
 23
223.1566519237895
 33
0.0
 14
82.73232658804046
 24
198.1566519237894
 34
0.0
 50
270.0
100
AcDbRotatedDimension
1001
ACAD
1000
DSTYLE
1002
{
1070
   340
1005
D5
1070
   140
1040
2.25
1070
    42
1040
2.0
1070
    40
1040
2.0
1002
}
  0
DIMENSION
  5
2E3
102
{ACAD_XDICTIONARY
360
2E4
102
}
102
{ACAD_REACTORS
330
2E5
102
}
330
70
100
AcDbEntity
  8
dim
100
AcDbDimension
  2
*D11
 10
46.44266565574788
 20
388.1566519237897
 30
0.0
 11
46.44266565574798
 21
293.1566519238004
 31
0.0
 70
   160
  1
<> min section depth
 71
     5
 42
190.0000000000001
 73
     0
 74
     0
 75
     0
  3
Spectrum 2
100
AcDbAlignedDimension
 13
103.7323265880404
 23
198.1566519237894
 33
0.0
 14
69.91967548901448
 24
388.1566519237895
 34
0.0
 50
90.0
100
AcDbRotatedDimension
1001
ACAD
1000
DSTYLE
1002
{
1070
   340
1005
D5
1002
}
  0
LEADER
  5
2E6
330
70
100
AcDbEntity
  8
dim
100
AcDbLeader
  3
Spectrum 2
 76
     2
 10
224.7679391642887
 20
424.200780207484
 30
0.0
 10
281.2779513826681
 20
424.200780207484
 30
0.0
211
1.0
221
-0.0000000000000002
231
0.0
213
-0.0000000000000031
223
-12.5
233
0.0
1001
ACAD
1000
DSTYLE
1002
{
1070
    40
1040
1.0
1070
    41
1040
6.0
1070
    50
1040
1.570796326794896
1070
    77
1070
     0
1002
}
  0
LEADER
  5
2E7
330
70
100
AcDbEntity
  8
dim
100
AcDbLeader
  3
Spectrum 2
 76
     2
 10
150.7323265880404
 20
333.2443887570844
 30
0.0
 10
281.2779513826681
 20
333.2443887570844
 30
0.0
211
1.0
221
-0.0000000000000002
231
0.0
213
-0.0000000000000031
223
-12.5
233
0.0
1001
ACAD
1000
DSTYLE
1002
{
1070
    40
1040
1.0
1070
    41
1040
6.0
1070
    50
1040
1.570796326794896
1070
    77
1070
     0
1002
}
  0
LEADER
  5
2E8
330
70
100
AcDbEntity
  8
dim
100
AcDbLeader
  3
Spectrum 2
 76
     2
 10
197.2323265880404
 20
379.0108765882323
 30
0.0
 10
281.2779513826681
 20
379.0108765882323
 30
0.0
211
1.0
221
-0.0000000000000002
231
0.0
213
-0.0000000000000031
223
-12.5
233
0.0
1001
ACAD
1000
DSTYLE
1002
{
1070
    40
1040
1.0
1070
    41
1040
6.0
1070
    50
1040
1.570796326794896
1070
    77
1070
     0
1002
}
  0
MTEXT
  5
2E9
330
70
100
AcDbEntity
  8
dim
100
AcDbMText
 10
283.9775006624259
 20
467.8964666869797
 30
0.0
 40
4.5
 41
75.0
 46
0.0
 71
     4
 72
     5
  1
50.8 x 50.8 post
  7
Calibri
 73
     1
 44
0.9333333333333333
  0
MTEXT
  5
2EA
330
70
100
AcDbEntity
  8
dim
100
AcDbMText
 10
283.9043313433649
 20
286.078637215338
 30
0.0
 40
4.5
 41
93.73760037154807
 46
0.0
 71
     4
 72
     5
  1
Stainless fixings separated from  aluminium by plastic sleeve
  7
Calibri
 73
     1
 44
0.9333333333333333
  0
MTEXT
  5
2EB
330
70
100
AcDbEntity
  8
dim
370
     5
100
AcDbMText
 10
67.82348459470085
 20
375.6831127906735
 30
0.0
 40
4.5
 41
39.36593251144224
 46
0.0
 71
     5
 72
     5
  1
edge\Pdistance
  7
Calibri
 11
0.0000000000000001
 21
1.0
 31
0.0
 73
     1
 44
0.9333333333333333
  0
MTEXT
  5
2EC
330
70
100
AcDbEntity
  8
dim
100
AcDbMText
 10
200.0
 20
567.6080283128794
 30
0.0
 40
9.0
 41
399.9999999999989
 46
433.9900056883013
 71
     2
 72
     5
  1
{\fArial Narrow|b1|i0|c0|p34;\LCLEARSPAN\l or \LCLEARVIEW\l FACE FIXED TO TIMBER - BOLT THROUGH}
  7
Arial Narrow
 73
     1
 44
0.8333333333333335
1001
ACAD
1000
ACAD_MTEXT_DEFINED_HEIGHT_BEGIN
1070
    46
1040
433.9900056883013
1000
ACAD_MTEXT_DEFINED_HEIGHT_END
  0
MTEXT
  5
2ED
330
70
100
AcDbEntity
  8
dim
100
AcDbMText
 10
283.9043313433649
 20
236.6817080243691
 30
0.0
 40
4.5
 41
90.73735401047452
 46
0.0
 71
     4
 72
     5
  1
Fixing consists of (2x) 316 S/S M10 threaded rod/bolt, nut and washer with 50 x 50 x 3 washer to timber
  7
Calibri
 73
     1
 44
0.9333333333333333
  0
MTEXT
  5
2EE
330
70
100
AcDbEntity
  8
dim
370
     5
100
AcDbMText
 10
67.82348459470085
 20
210.6831127906735
 30
0.0
 40
4.5
 41
39.36593251144224
 46
0.0
 71
     5
 72
     5
  1
edge\Pdistance
  7
Calibri
 11
0.0000000000000001
 21
1.0
 31
0.0
 73
     1
 44
0.9333333333333333
  0
MTEXT
  5
2EF
330
70
100
AcDbEntity
  8
dim
100
AcDbMText
 10
283.9775006624259
 20
425.15489536124
 30
0.0
 40
4.5
 41
86.62404204197811
 46
0.0
 71
     4
 72
     5
  1
Internal spigot-Clearspan (or post packer-Clearview) @ fixing location
  7
Calibri
 73
     1
 44
0.9333333333333333
  0
MTEXT
  5
2F0
330
70
100
AcDbEntity
  8
dim
100
AcDbMText
 10
283.9775006624259
 20
332.4685109422607
 30
0.0
 40
4.5
 41
87.31219318795774
 46
0.0
 71
     4
 72
     5
  1
Framing timber structure and connections as per approved design by others
  7
Calibri
 73
     1
 44
0.9333333333333333
  0
MTEXT
  5
2F1
330
70
100
AcDbEntity
  8
dim
100
AcDbMText
 10
283.9775006624259
 20
379.2541222837753
 30
0.0
 40
4.5
 41
73.57939952713786
 46
0.0
 71
     4
 72
     5
  1
Rigid plastic separation washer where required
  7
Calibri
 73
     1
 44
0.9333333333333333
  0
LINE
  5
300
330
70
100
AcDbEntity
  8
title
100
AcDbLine
 10
121.846000000005
 20
31.6780000000017
 30
0.0
 11
121.846000000005
 21
24.36187306453758
 31
0.0
  0
ARC
  5
301
330
70
100
AcDbEntity
  8
title
100
AcDbCircle
 10
112.3420000000187
 20
30.88600000000042
 30
0.0
 40
1.583999999999994
100
AcDbArc
 50
0.0
 51
180.0
  0
LINE
  5
302
330
70
100
AcDbEntity
  8
title
100
AcDbLine
 10
108.3820000000269
 20
34.63812693546242
 30
0.0
 11
110.7580000000162
 21
34.84599999999955
 31
0.0
  0
LINE
  5
303
330
70
100
AcDbEntity
  8
title
100
AcDbLine
 10
110.7580000000162
 20
34.84599999999955
 30
0.0
 11
110.7580000000162
 21
33.77343503836346
 31
0.0
  0
ARC
  5
304
330
70
100
AcDbEntity
  8
title
100
AcDbCircle
 10
113.1340000000054
 20
31.6780000000017
 30
0.0
 40
3.167999999999932
100
AcDbArc
 50
28.95502437189877
 51
138.5903778907241
  0
ARC
  5
305
330
70
100
AcDbEntity
  8
title
100
AcDbCircle
 10
118.6779999999999
 20
31.6780000000017
 30
0.0
 40
3.168000000000042
100
AcDbArc
 50
0.0
 51
151.0449756281012
  0
ARC
  5
306
330
70
100
AcDbEntity
  8
title
100
AcDbCircle
 10
117.8860000000131
 20
30.88600000000042
 30
0.0
 40
1.583999999999994
100
AcDbArc
 50
0.0
 51
180.0
  0
HATCH
  5
307
330
70
100
AcDbEntity
  8
title
100
AcDbHatch
 10
0.0
 20
0.0
 30
0.0
210
0.0
220
0.0
230
1.0
  2
SOLID
 70
     1
 71
     0
 91
        2
 92
        7
 72
     1
 73
     1
 93
        8
 10
48.78399999999965
 20
34.84599999999955
 42
0.2416525696711335
 10
46.2100000000064
 20
33.52482105251147
 42
0.0
 10
46.2100000000064
 20
34.84599999999955
 42
0.0
 10
43.83400000001711
 20
34.63812693546242
 42
0.0
 10
43.83400000001711
 20
20.97612693546216
 42
0.0
 10
46.2100000000064
 20
21.18399999999929
 42
0.0
 10
46.2100000000064
 20
25.47517894748853
 42
0.2416525696711312
 10
48.78399999999965
 20
24.15400000000045
 42
1.0
 97
        0
 92
       20
 93
        1
 72
     3
 10
48.98200000000361
 20
29.50000000000182
 11
0.0
 21
3.168
 40
0.8432858722721601
 50
0.0
 51
360.0
 73
     1
 97
        0
 75
     0
 76
     1
 47
0.0533697688817678
 98
        2
 10
51.79775989484915
 20
32.74767840057211
 10
51.79775989484915
 20
32.74767840057211
450
        0
451
        0
460
0.0
461
0.0
452
        0
462
0.0
453
        0
470

1001
ACAD
1010
0.0
1020
0.0
1030
0.0
  0
HATCH
  5
308
330
70
100
AcDbEntity
  8
title
 62
     8
100
AcDbHatch
 10
0.0
 20
0.0
 30
0.0
210
0.0
220
0.0
230
1.0
  2
SOLID
 70
     1
 71
     0
 91
        1
 92
        7
 72
     1
 73
     1
 93
        8
 10
30.76600000001781
 20
32.86599999999999
 42
0.4142135623730951
 10
28.78600000000734
 20
34.84599999999955
 42
0.0
 10
22.05400000001828
 20
34.84599999999955
 42
0.4142135623730951
 10
20.0740000000078
 20
32.86599999999999
 42
0.0
 10
20.0740000000078
 20
26.13400000000002
 42
0.4142135623730974
 10
22.05400000001828
 20
24.15400000000045
 42
0.0
 10
28.78600000000734
 20
24.15400000000045
 42
0.4142135623730926
 10
30.76600000001781
 20
26.13400000000002
 42
0.0
 97
        0
 75
     0
 76
     1
 47
0.1082592480357776
 98
        1
 10
26.46459899171896
 20
28.91638806323863
450
        0
451
        0
460
0.0
461
0.0
452
        0
462
0.0
453
        0
470

1001
ACAD
1010
0.0
1020
0.0
1030
0.0
  0
HATCH
  5
309
330
70
100
AcDbEntity
  8
title
100
AcDbHatch
 10
0.0
 20
0.0
 30
0.0
210
0.0
220
0.0
230
1.0
  2
SOLID
 70
     1
 71
     0
 91
        1
 92
        7
 72
     1
 73
     1
 93
        2
 10
17.50000000001455
 20
24.15400000000045
 42
0.0
 10
17.50000000001455
 20
34.84599999999955
 42
1.0
 97
        0
 75
     0
 76
     1
 47
0.0533697688817678
 98
        1
 10
14.58491007513657
 20
30.95125203735552
450
        0
451
        0
460
0.0
461
0.0
452
        0
462
0.0
453
        0
470

1001
ACAD
1010
0.0
1020
0.0
1030
0.0
  0
HATCH
  5
30A
330
70
100
AcDbEntity
  8
title
100
AcDbHatch
 10
0.0
 20
0.0
 30
0.0
210
0.0
220
0.0
230
1.0
  2
SOLID
 70
     1
 71
     0
 91
        1
 92
        7
 72
     1
 73
     1
 93
       20
 10
38.62840371190396
 20
26.63843393964817
 42
-0.3012846663385126
 10
36.15939541660191
 20
26.7764142067881
 42
0.0
 10
35.14992521407839
 20
27.52973131314684
 42
0.0
 10
33.56338198813319
 20
26.19846347739986
 42
0.0
 10
34.49073105522257
 20
25.33614209012194
 42
0.4458507091054388
 10
41.03417541283124
 20
25.9247798277047
 42
0.3326569577304132
 10
41.03417541283124
 20
28.71922017229918
 42
0.1735965709070794
 10
38.55193656381743
 20
30.36239387457135
 42
0.0
 10
36.96384954494715
 20
30.75267264948525
 42
-0.0722414400542119
 10
36.36759628810978
 20
30.99443393964794
 42
-0.5734605933816534
 10
36.36759628810978
 20
32.36156606035184
 42
-0.301284666338504
 10
38.83660458344093
 20
32.2235857932119
 42
0.0
 10
39.84607478593535
 20
31.4702686868568
 42
0.0
 10
41.43261801190965
 20
32.80153652260378
 42
0.0
 10
40.50526894479117
 20
33.66385790987806
 42
0.4458507091054385
 10
33.96182458718249
 20
33.07522017229894
 42
0.3326569577304224
 10
33.96182458718249
 20
30.28077982770446
 42
0.1735965709070752
 10
36.44406343619631
 20
28.63760612543229
 42
0.0
 10
38.03215045509569
 20
28.24732735051839
 42
-0.0722414400542143
 10
38.62840371190396
 20
28.00556606035207
 42
-0.5734605933816371
 97
        0
 75
     0
 76
     1
 47
0.0533697688817678
 98
        1
 10
40.1687433997431
 20
27.35839931092596
450
        0
451
        0
460
0.0
461
0.0
452
        0
462
0.0
453
        0
470

1001
ACAD
1010
0.0
1020
0.0
1030
0.0
  0
HATCH
  5
30B
330
70
100
AcDbEntity
  8
title
100
AcDbHatch
 10
0.0
 20
0.0
 30
0.0
210
0.0
220
0.0
230
1.0
  2
SOLID
 70
     1
 71
     0
 91
        1
 92
        7
 72
     1
 73
     1
 93
        4
 10
77.26592913740024
 20
25.48863354306195
 42
0.0
 10
76.00343964919739
 20
27.29165538918278
 42
-2.463129903974627
 10
76.00343964919739
 20
31.70834461081722
 42
0.0
 10
77.26592913740024
 20
33.51136645694169
 42
2.213691826143602
 97
        0
 75
     0
 76
     1
 47
0.0407585876075802
 98
        1
 10
72.26106739130045
 20
24.93107292920285
450
        0
451
        0
460
0.0
461
0.0
452
        0
462
0.0
453
        0
470

1001
ACAD
1010
0.0
1020
0.0
1030
0.0
  0
HATCH
  5
30C
330
70
100
AcDbEntity
  8
title
100
AcDbHatch
 10
0.0
 20
0.0
 30
0.0
210
0.0
220
0.0
230
1.0
  2
SOLID
 70
     1
 71
     0
 91
        2
 92
        7
 72
     1
 73
     1
 93
        6
 10
66.48738223592227
 20
31.78432312983023
 42
1.817188575814173
 10
61.6540000000241
 20
24.15400000000045
 42
0.1736979194000531
 10
65.92840120497567
 20
25.68510408303882
 42
0.0
 10
64.96244437199493
 20
27.756605196284
 42
-0.2061487455951641
 10
61.6540000000241
 20
26.33200000000034
 42
-0.2063556810793467
 10
59.35074576425541
 20
27.32485772295149
 42
0.0
 97
        0
 92
       22
 72
     1
 73
     1
 93
        2
 10
58.50737238772854
 20
29.13263278640625
 42
-0.6328959439340069
 10
63.36357821930142
 20
32.16712697712683
 42
0.0
 97
        0
 75
     0
 76
     1
 47
0.0407585876075802
 98
        2
 10
60.23121407961298
 20
29.28898097343154
 10
60.23121407961298
 20
29.28898097343154
450
        0
451
        0
460
0.0
461
0.0
452
        0
462
0.0
453
        0
470

1001
ACAD
1010
0.0
1020
0.0
1030
0.0
  0
HATCH
  5
30D
330
70
100
AcDbEntity
  8
title
100
AcDbHatch
 10
0.0
 20
0.0
 30
0.0
210
0.0
220
0.0
230
1.0
  2
SOLID
 70
     1
 71
     0
 91
        1
 92
        7
 72
     1
 73
     1
 93
       16
 10
83.6320000000269
 20
32.27199999999903
 42
0.0
 10
85.81000000001223
 20
32.27199999999903
 42
0.0
 10
85.81000000001223
 20
34.44999999999891
 42
0.0
 10
83.6320000000269
 20
34.44999999999891
 42
0.0
 10
83.6320000000269
 20
37.22199999999975
 42
0.0
 10
81.05800000000455
 20
36.28514061699934
 42
0.0
 10
81.05800000000455
 20
34.44999999999891
 42
0.0
 10
79.85804016400653
 20
34.44999999999891
 42
0.0
 10
79.47400000000198
 20
32.27199999999903
 42
0.0
 10
81.05800000000455
 20
32.27199999999903
 42
0.0
 10
81.05800000000455
 20
27.32200000000194
 42
0.4142135623731022
 10
84.22600000000967
 20
24.15400000000045
 42
0.0
 10
85.82040665890962
 20
24.15400000000045
 42
0.0
 10
86.4040000000241
 20
26.33200000000034
 42
0.0
 10
85.21600000000034
 20
26.33200000000034
 42
-0.4142135623730937
 10
83.6320000000269
 20
27.91599999999926
 42
0.0
 97
        0
 75
     0
 76
     1
 47
0.0407585876075802
 98
        1
 10
82.83765024012245
 20
28.4012597568817
450
        0
451
        0
460
0.0
461
0.0
452
        0
462
0.0
453
        0
470

1001
ACAD
1010
0.0
1020
0.0
1030
0.0
  0
HATCH
  5
30E
330
70
100
AcDbEntity
  8
title
100
AcDbHatch
 10
0.0
 20
0.0
 30
0.0
210
0.0
220
0.0
230
1.0
  2
SOLID
 70
     1
 71
     0
 91
        1
 92
        7
 72
     1
 73
     1
 93
       15
 10
108.3820000000269
 20
24.15400000000045
 42
0.0
 10
110.7580000000162
 20
24.36187306453758
 42
0.0
 10
110.7580000000162
 20
30.88600000000042
 42
-1.0
 10
113.9260000000213
 20
30.88600000000042
 42
0.0
 10
113.9260000000213
 20
24.15400000000045
 42
0.0
 10
116.3020000000106
 20
24.36187306453758
 42
0.0
 10
116.3020000000106
 20
30.88600000000042
 42
-1.0
 10
119.4700000000157
 20
30.88600000000042
 42
0.0
 10
119.4700000000157
 20
24.15400000000045
 42
0.0
 10
121.846000000005
 20
24.36187306453758
 42
0.0
 10
121.846000000005
 20
31.6780000000017
 42
0.7745966692414762
 10
115.9060000000027
 20
33.21170140509821
 42
0.5185464877096924
 10
110.7580000000162
 20
33.77343503836346
 42
0.0
 10
110.7580000000162
 20
34.84599999999955
 42
0.0
 10
108.3820000000269
 20
34.63812693546242
 42
0.0
 97
        0
 75
     0
 76
     1
 47
0.0407585876075802
 98
        1
 10
109.4809501451527
 20
27.19072908702401
450
        0
451
        0
460
0.0
461
0.0
452
        0
462
0.0
453
        0
470

1001
ACAD
1010
0.0
1020
0.0
1030
0.0
  0
HATCH
  5
30F
330
70
100
AcDbEntity
  8
title
100
AcDbHatch
 10
0.0
 20
0.0
 30
0.0
210
0.0
220
0.0
230
1.0
  2
SOLID
 70
     1
 71
     0
 91
        1
 92
        7
 72
     1
 73
     1
 93
        8
 10
91.35400000000663
 20
33.26200000000063
 42
0.0
 10
91.35400000000663
 20
34.64799999999923
 42
0.0
 10
88.97800000001735
 20
34.4401269354621
 42
0.0
 10
88.97800000001735
 20
24.15400000000045
 42
0.0
 10
91.35400000000663
 20
24.36187306453758
 42
0.0
 10
91.35400000000663
 20
29.10400000000118
 42
-0.4091883002397951
 10
94.46755188899988
 20
32.27153206822004
 42
0.0
 10
94.91800000001967
 20
34.8261502509431
 42
0.2626681772803663
 97
        0
 75
     0
 76
     1
 47
0.0407585876075802
 98
        1
 10
89.05442035272427
 20
28.88547166063109
450
        0
451
        0
460
0.0
461
0.0
452
        0
462
0.0
453
        0
470

1001
ACAD
1010
0.0
1020
0.0
1030
0.0
  0
HATCH
  5
310
330
70
100
AcDbEntity
  8
title
100
AcDbHatch
 10
0.0
 20
0.0
 30
0.0
210
0.0
220
0.0
230
1.0
  2
SOLID
 70
     1
 71
     0
 91
        1
 92
        7
 72
     1
 73
     1
 93
       11
 10
96.7000000000262
 20
27.32200000000194
 42
0.4142135623730939
 10
99.86800000000222
 20
24.15400000000045
 42
0.1844830881382527
 10
103.0360000000073
 20
25.36406832364264
 42
0.0
 10
103.0360000000073
 20
24.15400000000045
 42
0.0
 10
105.4120000000257
 20
24.36187306453758
 42
0.0
 10
105.4120000000257
 20
34.84599999999955
 42
0.0
 10
103.0360000000073
 20
34.63812693546242
 42
0.0
 10
103.0360000000073
 20
28.3119999999999
 42
-1.0
 10
99.07600000001549
 20
28.3119999999999
 42
0.0
 10
99.07600000001549
 20
34.84599999999955
 42
0.0
 10
96.7000000000262
 20
34.63812693546242
 42
0.0
 97
        0
 75
     0
 76
     1
 47
0.0407585876075802
 98
        1
 10
97.45109683343617
 20
28.23985548546807
450
        0
451
        0
460
0.0
461
0.0
452
        0
462
0.0
453
        0
470

1001
ACAD
1010
0.0
1020
0.0
1030
0.0
  0
LWPOLYLINE
  5
311
330
70
100
AcDbEntity
  8
title
100
AcDbPolyline
 90
        8
 70
     1
 43
0.0
 10
48.78399999999965
 20
24.15400000000045
 42
-0.2416525696711377
 10
46.2100000000064
 20
25.47517894748853
 10
46.2100000000064
 20
21.18399999999929
 10
43.83400000001711
 20
20.97612693546216
 10
43.83400000001711
 20
34.63812693546242
 10
46.2100000000064
 20
34.84599999999955
 10
46.2100000000064
 20
33.52482105251147
 42
-0.2416525696711376
 10
48.78399999999965
 20
34.84599999999955
 42
-0.9999999999999998
  0
LWPOLYLINE
  5
312
330
70
100
AcDbEntity
  8
title
 62
     8
100
AcDbPolyline
 90
        8
 70
     1
 43
0.0
 10
28.78600000000734
 20
34.84599999999955
 42
-0.4142135623730951
 10
30.76600000001781
 20
32.86599999999999
 10
30.76600000001781
 20
26.13400000000002
 42
-0.4142135623730951
 10
28.78600000000734
 20
24.15400000000045
 10
22.05400000001828
 20
24.15400000000045
 42
-0.4142135623730951
 10
20.0740000000078
 20
26.13400000000002
 10
20.0740000000078
 20
32.86599999999999
 42
-0.4142135623730951
 10
22.05400000001828
 20
34.84599999999955
  0
LWPOLYLINE
  5
313
330
70
100
AcDbEntity
  8
title
100
AcDbPolyline
 90
        2
 70
     1
 43
0.0
 10
17.50000000001455
 20
34.84599999999955
 42
0.9999999999999998
 10
17.50000000001455
 20
24.15400000000045
  0
LWPOLYLINE
  5
314
330
70
100
AcDbEntity
  8
title
100
AcDbPolyline
 90
       20
 70
     1
 43
0.0
 10
41.03417541283124
 20
25.9247798277047
 42
0.3326569577304226
 10
41.03417541283124
 20
28.71922017229918
 42
0.1735965709070816
 10
38.55193656381743
 20
30.36239387457135
 10
36.96384954494715
 20
30.75267264948525
 42
-0.0722414400542184
 10
36.36759628810978
 20
30.99443393964794
 42
-0.5734605933816416
 10
36.36759628810978
 20
32.36156606035184
 42
-0.3012846663385096
 10
38.83660458344093
 20
32.2235857932119
 10
39.84607478593535
 20
31.4702686868568
 10
41.43261801190965
 20
32.80153652260378
 10
40.50526894479117
 20
33.66385790987806
 42
0.4458507091054321
 10
33.96182458718249
 20
33.07522017229894
 42
0.3326569577304224
 10
33.96182458718249
 20
30.28077982770446
 42
0.1735965709070817
 10
36.44406343619631
 20
28.63760612543229
 10
38.03215045509569
 20
28.24732735051839
 42
-0.0722414400542175
 10
38.62840371190396
 20
28.00556606035207
 42
-0.5734605933816429
 10
38.62840371190396
 20
26.63843393964817
 42
-0.3012846663385095
 10
36.15939541660191
 20
26.7764142067881
 10
35.14992521407839
 20
27.52973131314684
 10
33.56338198813319
 20
26.19846347739986
 10
34.49073105522257
 20
25.33614209012194
 42
0.4458507091054351
  0
LWPOLYLINE
  5
315
330
70
100
AcDbEntity
  8
title
100
AcDbPolyline
 90
        4
 70
     1
 43
0.0
 10
76.00343964919739
 20
31.70834461081722
 10
77.26592913740024
 20
33.51136645694169
 42
2.213691826143604
 10
77.26592913740024
 20
25.48863354306195
 10
76.00343964919739
 20
27.29165538918278
 42
-2.463129903974627
  0
LWPOLYLINE
  5
316
330
70
100
AcDbEntity
  8
title
100
AcDbPolyline
 90
        6
 70
     1
 43
0.0
 10
61.6540000000241
 20
26.33200000000034
 42
-0.2063556810793417
 10
59.35074576425541
 20
27.32485772295149
 10
66.48738223592227
 20
31.78432312983023
 42
1.817188575814202
 10
61.6540000000241
 20
24.15400000000045
 42
0.1736979194000479
 10
65.92840120497567
 20
25.68510408303882
 10
64.96244437199493
 20
27.756605196284
 42
-0.2061487455951671
  0
LWPOLYLINE
  5
317
330
70
100
AcDbEntity
  8
title
100
AcDbPolyline
 90
       16
 70
     1
 43
0.0
 10
83.6320000000269
 20
34.44999999999891
 10
83.6320000000269
 20
37.22199999999975
 10
81.05800000000455
 20
36.28514061699934
 10
81.05800000000455
 20
34.44999999999891
 10
79.85804016400653
 20
34.44999999999891
 10
79.47400000000198
 20
32.27199999999903
 10
81.05800000000455
 20
32.27199999999903
 10
81.05800000000455
 20
27.32200000000194
 42
0.4142135623730951
 10
84.22600000000967
 20
24.15400000000045
 10
85.82040665890962
 20
24.15400000000045
 10
86.4040000000241
 20
26.33200000000034
 10
85.21600000000034
 20
26.33200000000034
 42
-0.4142135623730951
 10
83.6320000000269
 20
27.91599999999926
 10
83.6320000000269
 20
32.27199999999903
 10
85.81000000001223
 20
32.27199999999903
 10
85.81000000001223
 20
34.44999999999891
  0
ELLIPSE
  5
318
330
70
100
AcDbEntity
  8
title
100
AcDbEllipse
 10
48.98200000000361
 20
29.50000000000182
 30
0.0
 11
0.0
 21
3.168
 31
0.0
210
0.0
220
0.0
230
1.0
 40
0.8432858722721602
 41
0.0
 42
6.283185307179586
  0
LWPOLYLINE
  5
319
330
70
100
AcDbEntity
  8
title
100
AcDbPolyline
 90
        2
 70
     1
 43
0.0
 10
58.50737238772854
 20
29.13263278640625
 10
63.36357821930142
 20
32.16712697712683
 42
0.632895943934007
  0
LWPOLYLINE
  5
31A
330
70
100
AcDbEntity
  8
title
100
AcDbPolyline
 90
        9
 70
     0
 43
0.0
 10
94.92150004634458
 20
34.84599999999955
 10
94.46755188899988
 20
32.27153206822004
 42
0.4091883002397918
 10
91.35400000000663
 20
29.10400000000118
 10
91.35400000000663
 20
24.36187306453758
 10
88.97800000001735
 20
24.15400000000045
 10
88.97800000001735
 20
34.4401269354621
 10
91.35400000000663
 20
34.64799999999923
 10
91.35400000000663
 20
33.26200000000063
 42
-0.262668177280371
 10
94.91800000001967
 20
34.8261502509431
  0
LWPOLYLINE
  5
31B
330
70
100
AcDbEntity
  8
title
100
AcDbPolyline
 90
       11
 70
     1
 43
0.0
 10
103.0360000000073
 20
28.3119999999999
 42
-0.9999999999999998
 10
99.07600000001549
 20
28.3119999999999
 10
99.07600000001549
 20
34.84599999999955
 10
96.7000000000262
 20
34.63812693546242
 10
96.7000000000262
 20
27.32200000000194
 42
0.4142135623730951
 10
99.86800000000222
 20
24.15400000000045
 42
0.184483088138253
 10
103.0360000000073
 20
25.36406832364264
 10
103.0360000000073
 20
24.15400000000045
 10
105.4120000000257
 20
24.36187306453758
 10
105.4120000000257
 20
34.84599999999955
 10
103.0360000000073
 20
34.63812693546242
  0
LINE
  5
31C
330
70
100
AcDbEntity
  8
title
100
AcDbLine
 10
116.3020000000106
 20
30.88600000000042
 30
0.0
 11
116.3020000000106
 21
24.36187306453758
 31
0.0
  0
LINE
  5
31D
330
70
100
AcDbEntity
  8
title
100
AcDbLine
 10
116.3020000000106
 20
24.36187306453758
 30
0.0
 11
113.9260000000213
 21
24.15400000000045
 31
0.0
  0
LINE
  5
31E
330
70
100
AcDbEntity
  8
title
100
AcDbLine
 10
113.9260000000213
 20
24.15400000000045
 30
0.0
 11
113.9260000000213
 21
30.88600000000042
 31
0.0
  0
LINE
  5
31F
330
70
100
AcDbEntity
  8
title
100
AcDbLine
 10
110.7580000000162
 20
30.88600000000042
 30
0.0
 11
110.7580000000162
 21
24.36187306453758
 31
0.0
  0
LINE
  5
320
330
70
100
AcDbEntity
  8
title
100
AcDbLine
 10
110.7580000000162
 20
24.36187306453758
 30
0.0
 11
108.3820000000269
 21
24.15400000000045
 31
0.0
  0
LINE
  5
321
330
70
100
AcDbEntity
  8
title
100
AcDbLine
 10
108.3820000000269
 20
24.15400000000045
 30
0.0
 11
108.3820000000269
 21
34.63812693546242
 31
0.0
  0
LINE
  5
322
330
70
100
AcDbEntity
  8
title
100
AcDbLine
 10
121.846000000005
 20
24.36187306453758
 30
0.0
 11
119.4700000000157
 21
24.15400000000045
 31
0.0
  0
LINE
  5
323
330
70
100
AcDbEntity
  8
title
100
AcDbLine
 10
119.4700000000157
 20
24.15400000000045
 30
0.0
 11
119.4700000000157
 21
30.88600000000042
 31
0.0
  0
MTEXT
  5
32C
330
70
100
AcDbEntity
  8
0
100
AcDbMText
 10
391.0
 20
34.49393306291313
 30
0.0
 40
10.0
 41
69.3415025044867
 46
0.0
 71
     6
 72
     5
  1
{\fArial|b0|i0|c0|p34;BL.3.1.2}
  7
Arial Narrow
 73
     1
 44
1.0
  0
MTEXT
  5
32D
102
{ACAD_XDICTIONARY
360
32E
102
}
330
70
100
AcDbEntity
  8
0
100
AcDbMText
 10
391.1160196939018
 20
19.89854106251005
 30
0.0
 40
4.0
 41
42.1548074414593
 46
11.36832070896309
 71
     6
 72
     5
  1
Rev:D 31.8.21
  7
Arial Narrow
 73
     1
 44
0.8333333333333335
1001
ACAD
1000
ACAD_MTEXT_DEFINED_HEIGHT_BEGIN
1070
    46
1040
35.50427969761552
1000
ACAD_MTEXT_DEFINED_HEIGHT_END
  0
LINE
  5
32F
330
70
100
AcDbEntity
  8
dim
370
    20
100
AcDbLine
 10
208.9999999999709
 20
88.40710731416317
 30
0.0
 11
208.9999999999855
 21
142.4071073141577
 31
0.0
  0
LINE
  5
330
330
70
100
AcDbEntity
  8
dim
370
    20
100
AcDbLine
 10
208.9999999999855
 20
144.407107314154
 30
0.0
 11
209.0
 21
156.4071073141559
 31
0.0
  0
LWPOLYLINE
  5
331
330
70
100
AcDbEntity
  8
dim
370
    20
100
AcDbPolyline
 90
        4
 70
     1
 43
0.0
 10
384.0
 20
174.4071073141468
 10
159.0000000000145
 20
174.4071073141559
 10
159.0
 20
144.4071073141595
 10
384.0
 20
144.4071073141504
  0
LINE
  5
332
330
70
100
AcDbEntity
  8
dim
370
    20
100
AcDbLine
 10
158.9999999999854
 20
142.4071073141595
 30
0.0
 11
158.9999999999854
 21
88.40710731416498
 31
0.0
  0
LINE
  5
333
330
70
100
AcDbEntity
  8
dim
370
    20
100
AcDbLine
 10
384.0
 20
124.4071073141504
 30
0.0
 11
158.9999999999854
 21
124.4071073141595
 31
0.0
  0
LINE
  5
334
330
70
100
AcDbEntity
  8
dim
370
    20
100
AcDbLine
 10
147.0
 20
124.4071073141595
 30
0.0
 11
96.0
 21
124.4071073141613
 31
0.0
  0
LINE
  5
335
330
70
100
AcDbEntity
  8
dim
370
    20
100
AcDbLine
 10
184.0
 20
156.4071073141577
 30
0.0
 11
183.9999999999854
 21
144.4071073141577
 31
0.0
  0
LINE
  5
336
330
70
100
AcDbEntity
  8
dim
370
    20
100
AcDbLine
 10
183.9999999999854
 20
142.4071073141577
 30
0.0
 11
183.9999999999854
 21
88.40710731416498
 31
0.0
  0
LINE
  5
337
330
70
100
AcDbEntity
  8
dim
370
    20
100
AcDbLine
 10
384.0
 20
156.4071073141486
 30
0.0
 11
159.0000000000145
 21
156.4071073141577
 31
0.0
  0
MTEXT
  5
338
330
70
100
AcDbEntity
  8
dim
370
    20
100
AcDbMText
 10
153.9999999999854
 20
115.4071073141631
 30
0.0
 40
4.0
 41
53.99999999999636
 46
9.999999999998653
 71
     5
 72
     5
  1
Maximum post ctrs
  7
Calibri
 11
0.0000000000000001
 21
1.0
 31
0.0
 73
     1
 44
1.0
1001
ACAD
1000
ACAD_MTEXT_DEFINED_HEIGHT_BEGIN
1070
    46
1040
15.00000000000001
1000
ACAD_MTEXT_DEFINED_HEIGHT_END
  0
MTEXT
  5
339
330
70
100
AcDbEntity
  8
dim
370
    20
100
AcDbMText
 10
196.5
 20
150.4071073141577
 30
0.0
 40
4.5
 41
25.0
 46
12.00000000000002
 71
     5
 72
     5
  1
1.00m
  7
Calibri
 73
     1
 44
1.0
1001
ACAD
1000
ACAD_MTEXT_DEFINED_HEIGHT_BEGIN
1070
    46
1040
10.00000000000001
1000
ACAD_MTEXT_DEFINED_HEIGHT_END
  0
MTEXT
  5
33A
330
70
100
AcDbEntity
  8
dim
370
    20
100
AcDbMText
 10
221.5
 20
150.4071073141577
 30
0.0
 40
4.5
 41
25.0
 46
11.9999999999999
 71
     5
 72
     5
  1
1.05m
  7
Calibri
 73
     1
 44
1.0
1001
ACAD
1000
ACAD_MTEXT_DEFINED_HEIGHT_BEGIN
1070
    46
1040
10.00000000000013
1000
ACAD_MTEXT_DEFINED_HEIGHT_END
  0
MTEXT
  5
33B
330
70
100
AcDbEntity
  8
dim
370
    20
100
AcDbMText
 10
246.5
 20
150.407107314154
 30
0.0
 40
4.5
 41
25.0
 46
12.00000000000184
 71
     5
 72
     5
  1
1.10m
  7
Calibri
 73
     1
 44
1.0
1001
ACAD
1000
ACAD_MTEXT_DEFINED_HEIGHT_BEGIN
1070
    46
1040
10.00000000000001
1000
ACAD_MTEXT_DEFINED_HEIGHT_END
  0
MTEXT
  5
33C
330
70
100
AcDbEntity
  8
dim
370
    20
100
AcDbMText
 10
196.4999999999854
 20
133.4071073141577
 30
0.0
 40
4.5
 41
24.9999999999709
 46
18.00000000000024
 71
     5
 72
     5
  1
1.40m
  7
Calibri
 73
     1
 44
1.0
1001
ACAD
1000
ACAD_MTEXT_DEFINED_HEIGHT_BEGIN
1070
    46
1040
10.00000000000001
1000
ACAD_MTEXT_DEFINED_HEIGHT_END
  0
MTEXT
  5
33D
330
70
100
AcDbEntity
  8
dim
370
    20
100
AcDbMText
 10
221.4999999999855
 20
133.4071073141541
 30
0.0
 40
4.5
 41
24.99999999998545
 46
17.9999999999966
 71
     5
 72
     5
  1
1.35m
  7
Calibri
 73
     1
 44
1.0
1001
ACAD
1000
ACAD_MTEXT_DEFINED_HEIGHT_BEGIN
1070
    46
1040
10.00000000000001
1000
ACAD_MTEXT_DEFINED_HEIGHT_END
  0
MTEXT
  5
33E
330
70
100
AcDbEntity
  8
dim
370
    20
100
AcDbMText
 10
246.5
 20
133.4071073141541
 30
0.0
 40
4.5
 41
25.00000000001455
 46
17.9999999999982
 71
     5
 72
     5
  1
1.30m
  7
Calibri
 73
     1
 44
1.0
1001
ACAD
1000
ACAD_MTEXT_DEFINED_HEIGHT_BEGIN
1070
    46
1040
10.00000000000001
1000
ACAD_MTEXT_DEFINED_HEIGHT_END
  0
MTEXT
  5
33F
330
70
100
AcDbEntity
  8
dim
370
    20
100
AcDbMText
 10
271.5
 20
150.407107314154
 30
0.0
 40
4.5
 41
25.0
 46
12.00000000000184
 71
     5
 72
     5
  1
1.15m
  7
Calibri
 73
     1
 44
1.0
1001
ACAD
1000
ACAD_MTEXT_DEFINED_HEIGHT_BEGIN
1070
    46
1040
10.00000000000001
1000
ACAD_MTEXT_DEFINED_HEIGHT_END
  0
MTEXT
  5
340
330
70
100
AcDbEntity
  8
dim
370
    20
100
AcDbMText
 10
271.5
 20
133.4071073141522
 30
0.0
 40
4.5
 41
25.0
 46
17.9999999999982
 71
     5
 72
     5
  1
1.20m
  7
Calibri
 73
     1
 44
1.0
1001
ACAD
1000
ACAD_MTEXT_DEFINED_HEIGHT_BEGIN
1070
    46
1040
10.00000000000001
1000
ACAD_MTEXT_DEFINED_HEIGHT_END
  0
MTEXT
  5
341
330
70
100
AcDbEntity
  8
dim
370
    20
100
AcDbMText
 10
296.5
 20
150.4071073141504
 30
0.0
 40
4.5
 41
25.0
 46
12.00000000000184
 71
     5
 72
     5
  1
1.20m
  7
Calibri
 73
     1
 44
1.0
1001
ACAD
1000
ACAD_MTEXT_DEFINED_HEIGHT_BEGIN
1070
    46
1040
10.00000000000001
1000
ACAD_MTEXT_DEFINED_HEIGHT_END
  0
MTEXT
  5
342
330
70
100
AcDbEntity
  8
dim
370
    20
100
AcDbMText
 10
296.5
 20
133.4071073141504
 30
0.0
 40
4.5
 41
25.0
 46
17.99999999999456
 71
     5
 72
     5
  1
1.15m
  7
Calibri
 73
     1
 44
1.0
1001
ACAD
1000
ACAD_MTEXT_DEFINED_HEIGHT_BEGIN
1070
    46
1040
10.00000000000001
1000
ACAD_MTEXT_DEFINED_HEIGHT_END
  0
MTEXT
  5
343
330
70
100
AcDbEntity
  8
dim
370
    20
100
AcDbMText
 10
171.5
 20
150.4071073141595
 30
0.0
 40
4.5
 41
25.0
 46
12.00000000000002
 71
     5
 72
     5
  1
0.95m
  7
Calibri
 73
     1
 44
1.0
1001
ACAD
1000
ACAD_MTEXT_DEFINED_HEIGHT_BEGIN
1070
    46
1040
10.00000000000001
1000
ACAD_MTEXT_DEFINED_HEIGHT_END
  0
MTEXT
  5
344
330
70
100
AcDbEntity
  8
dim
370
    20
100
AcDbMText
 10
171.4999999999854
 20
133.4071073141577
 30
0.0
 40
4.5
 41
24.99999999998545
 46
18.00000000000206
 71
     5
 72
     5
  1
1.40m
  7
Calibri
 73
     1
 44
1.0
1001
ACAD
1000
ACAD_MTEXT_DEFINED_HEIGHT_BEGIN
1070
    46
1040
10.00000000000001
1000
ACAD_MTEXT_DEFINED_HEIGHT_END
  0
MTEXT
  5
345
330
70
100
AcDbEntity
  8
dim
370
    20
100
AcDbMText
 10
321.5
 20
150.4071073141504
 30
0.0
 40
4.5
 41
25.00000000001455
 46
12.00000000000184
 71
     5
 72
     5
  1
1.25m
  7
Calibri
 73
     1
 44
1.0
1001
ACAD
1000
ACAD_MTEXT_DEFINED_HEIGHT_BEGIN
1070
    46
1040
10.00000000000001
1000
ACAD_MTEXT_DEFINED_HEIGHT_END
  0
MTEXT
  5
346
330
70
100
AcDbEntity
  8
dim
370
    20
100
AcDbMText
 10
321.5000000000145
 20
133.4071073141504
 30
0.0
 40
4.5
 41
25.00000000002911
 46
17.99999999999638
 71
     5
 72
     5
  1
1.05m
  7
Calibri
 73
     1
 44
1.0
1001
ACAD
1000
ACAD_MTEXT_DEFINED_HEIGHT_BEGIN
1070
    46
1040
10.00000000000001
1000
ACAD_MTEXT_DEFINED_HEIGHT_END
  0
MTEXT
  5
347
330
70
100
AcDbEntity
  8
dim
370
    20
100
AcDbMText
 10
346.5
 20
150.4071073141504
 30
0.0
 40
4.5
 41
25.0
 46
12.00000000000002
 71
     5
 72
     5
  1
1.30m
  7
Calibri
 73
     1
 44
1.0
1001
ACAD
1000
ACAD_MTEXT_DEFINED_HEIGHT_BEGIN
1070
    46
1040
10.00000000000001
1000
ACAD_MTEXT_DEFINED_HEIGHT_END
  0
MTEXT
  5
348
330
70
100
AcDbEntity
  8
dim
370
    20
100
AcDbMText
 10
346.5
 20
133.4071073141504
 30
0.0
 40
4.5
 41
24.9999999999709
 46
17.9999999999982
 71
     5
 72
     5
  1
0.95m
  7
Calibri
 73
     1
 44
1.0
1001
ACAD
1000
ACAD_MTEXT_DEFINED_HEIGHT_BEGIN
1070
    46
1040
10.00000000000001
1000
ACAD_MTEXT_DEFINED_HEIGHT_END
  0
MTEXT
  5
349
330
70
100
AcDbEntity
  8
dim
370
    20
100
AcDbMText
 10
371.5
 20
150.4071073141504
 30
0.0
 40
4.5
 41
25.0
 46
12.00000000000002
 71
     5
 72
     5
  1
1.35m
  7
Calibri
 73
     1
 44
1.0
1001
ACAD
1000
ACAD_MTEXT_DEFINED_HEIGHT_BEGIN
1070
    46
1040
10.00000000000001
1000
ACAD_MTEXT_DEFINED_HEIGHT_END
  0
MTEXT
  5
34A
330
70
100
AcDbEntity
  8
dim
370
    20
100
AcDbMText
 10
371.5
 20
133.4071073141504
 30
0.0
 40
4.5
 41
24.99999999998545
 46
18.00000000000002
 71
     5
 72
     5
  1
0.85m
  7
Calibri
 73
     1
 44
1.0
1001
ACAD
1000
ACAD_MTEXT_DEFINED_HEIGHT_BEGIN
1070
    46
1040
10.00000000000001
1000
ACAD_MTEXT_DEFINED_HEIGHT_END
  0
LINE
  5
34B
330
70
100
AcDbEntity
  8
dim
370
    20
100
AcDbLine
 10
96.0
 20
142.4071073141631
 30
0.0
 11
96.0
 21
88.40710731416681
 31
0.0
  0
LINE
  5
34C
330
70
100
AcDbEntity
  8
dim
370
    20
100
AcDbLine
 10
233.9999999999709
 20
88.40710731416317
 30
0.0
 11
233.9999999999855
 21
142.4071073141559
 31
0.0
  0
LINE
  5
34D
330
70
100
AcDbEntity
  8
dim
370
    20
100
AcDbLine
 10
233.9999999999855
 20
144.407107314154
 30
0.0
 11
234.0
 21
156.4071073141541
 31
0.0
  0
LINE
  5
34E
330
70
100
AcDbEntity
  8
dim
370
    20
100
AcDbLine
 10
259.0
 20
88.40710731415953
 30
0.0
 11
259.0
 21
142.407107314154
 31
0.0
  0
LINE
  5
34F
330
70
100
AcDbEntity
  8
dim
370
    20
100
AcDbLine
 10
259.0
 20
144.407107314154
 30
0.0
 11
259.0
 21
156.4071073141522
 31
0.0
  0
LINE
  5
350
330
70
100
AcDbEntity
  8
dim
370
    20
100
AcDbLine
 10
284.0000000000145
 20
88.40710731416136
 30
0.0
 11
284.0000000000145
 21
142.407107314154
 31
0.0
  0
LINE
  5
351
330
70
100
AcDbEntity
  8
dim
370
    20
100
AcDbLine
 10
284.0000000000145
 20
144.4071073141522
 30
0.0
 11
284.0
 21
156.4071073141522
 31
0.0
  0
LINE
  5
352
330
70
100
AcDbEntity
  8
dim
370
    20
100
AcDbLine
 10
309.0
 20
88.40710731415953
 30
0.0
 11
309.0
 21
142.407107314154
 31
0.0
  0
LINE
  5
353
330
70
100
AcDbEntity
  8
dim
370
    20
100
AcDbLine
 10
309.0
 20
144.4071073141522
 30
0.0
 11
309.0
 21
156.4071073141504
 31
0.0
  0
LINE
  5
354
330
70
100
AcDbEntity
  8
dim
370
    20
100
AcDbLine
 10
334.0000000000437
 20
88.40710731415772
 30
0.0
 11
334.0000000000145
 21
142.4071073141522
 31
0.0
  0
LINE
  5
355
330
70
100
AcDbEntity
  8
dim
370
    20
100
AcDbLine
 10
334.0000000000145
 20
144.4071073141522
 30
0.0
 11
334.0
 21
156.4071073141504
 31
0.0
  0
LINE
  5
356
330
70
100
AcDbEntity
  8
dim
370
    20
100
AcDbLine
 10
359.0000000000437
 20
88.40710731415772
 30
0.0
 11
359.0000000000145
 21
142.4071073141504
 31
0.0
  0
LINE
  5
357
330
70
100
AcDbEntity
  8
dim
370
    20
100
AcDbLine
 10
359.0
 20
144.4071073141504
 30
0.0
 11
359.0
 21
156.4071073141486
 31
0.0
  0
LWPOLYLINE
  5
358
330
70
100
AcDbEntity
  8
dim
370
    20
100
AcDbPolyline
 90
        4
 70
     1
 43
0.0
 10
148.9999999999854
 20
88.40710731416317
 10
383.9999999999855
 20
88.40710731415589
 10
384.0
 20
142.4071073141504
 10
148.9999999999854
 20
142.4071073141613
  0
LINE
  5
359
330
70
100
AcDbEntity
  8
dim
370
    20
100
AcDbLine
 10
384.0
 20
106.4071073141522
 30
0.0
 11
158.9999999999854
 21
106.4071073141613
 31
0.0
  0
LINE
  5
35A
330
70
100
AcDbEntity
  8
dim
370
    20
100
AcDbLine
 10
146.9999999999854
 20
106.4071073141613
 30
0.0
 11
16.00000000001455
 21
106.407107314165
 31
0.0
  0
MTEXT
  5
35B
330
70
100
AcDbEntity
  8
dim
370
    20
100
AcDbMText
 10
121.5
 20
133.4071073141595
 30
0.0
 40
4.0
 41
50.99999999999273
 46
18.00000000000183
 71
     5
 72
     5
  1
Up to very high wind zone (50m/s)
  7
Calibri
 73
     1
 44
1.0
1001
ACAD
1000
ACAD_MTEXT_DEFINED_HEIGHT_BEGIN
1070
    46
1040
10.00000000000001
1000
ACAD_MTEXT_DEFINED_HEIGHT_END
  0
MTEXT
  5
35C
330
70
100
AcDbEntity
  8
dim
370
    20
100
AcDbMText
 10
121.5
 20
115.4071073141613
 30
0.0
 40
4.0
 41
50.99999999999273
 46
17.9999999999982
 71
     5
 72
     5
  1
Extra high wind\Pzone (55m/s)
  7
Calibri
 73
     1
 44
1.0
1001
ACAD
1000
ACAD_MTEXT_DEFINED_HEIGHT_BEGIN
1070
    46
1040
10.00000000000001
1000
ACAD_MTEXT_DEFINED_HEIGHT_END
  0
MTEXT
  5
35D
330
70
100
AcDbEntity
  8
dim
370
    20
100
AcDbMText
 10
121.5
 20
97.40710731416317
 30
0.0
 40
4.0
 41
50.99999999999273
 46
17.9999999999982
 71
     5
 72
     5
  1
All wind zones\P(up to 55m/s)
  7
Calibri
 73
     1
 44
1.0
1001
ACAD
1000
ACAD_MTEXT_DEFINED_HEIGHT_BEGIN
1070
    46
1040
10.00000000000001
1000
ACAD_MTEXT_DEFINED_HEIGHT_END
  0
MTEXT
  5
35E
330
70
100
AcDbEntity
  8
dim
370
    20
100
AcDbMText
 10
53.5
 20
124.4071073141613
 30
0.0
 40
4.0
 41
75.0
 46
35.9999999999982
 71
     5
 72
     5
  1
Glass or Solid infill (Vista, Classic, Clearview)
  7
Calibri
 73
     1
 44
1.0
1001
ACAD
1000
ACAD_MTEXT_DEFINED_HEIGHT_BEGIN
1070
    46
1040
15.00000000000001
1000
ACAD_MTEXT_DEFINED_HEIGHT_END
  0
MTEXT
  5
35F
330
70
100
AcDbEntity
  8
dim
370
    20
100
AcDbMText
 10
56.0
 20
97.40710731416498
 30
0.0
 40
4.0
 41
79.99999999999272
 46
17.99999999999638
 71
     5
 72
     5
  1
35% max closed area (Settler, Heritage, Face hung fin)
  7
Calibri
 73
     1
 44
1.0
1001
ACAD
1000
ACAD_MTEXT_DEFINED_HEIGHT_BEGIN
1070
    46
1040
15.00000000000001
1000
ACAD_MTEXT_DEFINED_HEIGHT_END
  0
LWPOLYLINE
  5
360
330
70
100
AcDbEntity
  8
dim
370
    20
100
AcDbPolyline
 90
        4
 70
     1
 43
0.0
 10
146.9999999999854
 20
142.4071073141595
 10
16.0
 20
142.4071073141631
 10
16.0
 20
88.40710731416681
 10
146.9999999999854
 20
88.40710731416317
  0
MTEXT
  5
361
330
70
100
AcDbEntity
  8
dim
370
    20
100
AcDbMText
 10
196.4999999999854
 20
115.4071073141577
 30
0.0
 40
4.5
 41
24.9999999999709
 46
18.00000000000024
 71
     5
 72
     5
  1
1.40m
  7
Calibri
 73
     1
 44
1.0
1001
ACAD
1000
ACAD_MTEXT_DEFINED_HEIGHT_BEGIN
1070
    46
1040
10.00000000000001
1000
ACAD_MTEXT_DEFINED_HEIGHT_END
  0
MTEXT
  5
362
330
70
100
AcDbEntity
  8
dim
370
    20
100
AcDbMText
 10
221.4999999999855
 20
115.407107314154
 30
0.0
 40
4.5
 41
24.99999999998545
 46
17.9999999999966
 71
     5
 72
     5
  1
1.33m
  7
Calibri
 73
     1
 44
1.0
1001
ACAD
1000
ACAD_MTEXT_DEFINED_HEIGHT_BEGIN
1070
    46
1040
10.00000000000001
1000
ACAD_MTEXT_DEFINED_HEIGHT_END
  0
MTEXT
  5
363
330
70
100
AcDbEntity
  8
dim
370
    20
100
AcDbMText
 10
246.5
 20
115.407107314154
 30
0.0
 40
4.5
 41
25.00000000001455
 46
17.9999999999982
 71
     5
 72
     5
  1
1.21m
  7
Calibri
 73
     1
 44
1.0
1001
ACAD
1000
ACAD_MTEXT_DEFINED_HEIGHT_BEGIN
1070
    46
1040
10.00000000000001
1000
ACAD_MTEXT_DEFINED_HEIGHT_END
  0
MTEXT
  5
364
330
70
100
AcDbEntity
  8
dim
370
    20
100
AcDbMText
 10
271.5
 20
115.4071073141522
 30
0.0
 40
4.5
 41
25.0
 46
17.9999999999982
 71
     5
 72
     5
  1
1.11m
  7
Calibri
 73
     1
 44
1.0
1001
ACAD
1000
ACAD_MTEXT_DEFINED_HEIGHT_BEGIN
1070
    46
1040
10.00000000000001
1000
ACAD_MTEXT_DEFINED_HEIGHT_END
  0
MTEXT
  5
365
330
70
100
AcDbEntity
  8
dim
370
    20
100
AcDbMText
 10
296.5
 20
115.4071073141504
 30
0.0
 40
4.5
 41
25.36126936820802
 46
17.99999999999456
 71
     5
 72
     5
  1
1.02m
  7
Calibri
 73
     1
 44
1.0
1001
ACAD
1000
ACAD_MTEXT_DEFINED_HEIGHT_BEGIN
1070
    46
1040
10.00000000000001
1000
ACAD_MTEXT_DEFINED_HEIGHT_END
  0
MTEXT
  5
366
330
70
100
AcDbEntity
  8
dim
370
    20
100
AcDbMText
 10
171.4999999999854
 20
115.4071073141577
 30
0.0
 40
4.5
 41
24.99999999998545
 46
18.00000000000206
 71
     5
 72
     5
  1
1.40m
  7
Calibri
 73
     1
 44
1.0
1001
ACAD
1000
ACAD_MTEXT_DEFINED_HEIGHT_BEGIN
1070
    46
1040
10.00000000000001
1000
ACAD_MTEXT_DEFINED_HEIGHT_END
  0
MTEXT
  5
367
330
70
100
AcDbEntity
  8
dim
370
    20
100
AcDbMText
 10
321.5000000000145
 20
115.4071073141504
 30
0.0
 40
4.5
 41
25.00000000002911
 46
17.99999999999638
 71
     5
 72
     5
  1
0.90m
  7
Calibri
 73
     1
 44
1.0
1001
ACAD
1000
ACAD_MTEXT_DEFINED_HEIGHT_BEGIN
1070
    46
1040
10.00000000000001
1000
ACAD_MTEXT_DEFINED_HEIGHT_END
  0
MTEXT
  5
368
330
70
100
AcDbEntity
  8
dim
370
    20
100
AcDbMText
 10
346.5
 20
115.4071073141504
 30
0.0
 40
4.5
 41
24.9999999999709
 46
17.9999999999982
 71
     5
 72
     5
  1
0.78m
  7
Calibri
 73
     1
 44
1.0
1001
ACAD
1000
ACAD_MTEXT_DEFINED_HEIGHT_BEGIN
1070
    46
1040
10.00000000000001
1000
ACAD_MTEXT_DEFINED_HEIGHT_END
  0
MTEXT
  5
369
330
70
100
AcDbEntity
  8
dim
370
    20
100
AcDbMText
 10
371.5
 20
115.4071073141504
 30
0.0
 40
4.5
 41
24.99999999998545
 46
18.00000000000002
 71
     5
 72
     5
  1
0.68m
  7
Calibri
 73
     1
 44
1.0
1001
ACAD
1000
ACAD_MTEXT_DEFINED_HEIGHT_BEGIN
1070
    46
1040
10.00000000000001
1000
ACAD_MTEXT_DEFINED_HEIGHT_END
  0
MTEXT
  5
36A
330
70
100
AcDbEntity
  8
dim
370
    20
100
AcDbMText
 10
196.4999999999709
 20
97.40710731415953
 30
0.0
 40
4.5
 41
24.9999999999709
 46
18.00000000000024
 71
     5
 72
     5
  1
1.40m
  7
Calibri
 73
     1
 44
1.0
1001
ACAD
1000
ACAD_MTEXT_DEFINED_HEIGHT_BEGIN
1070
    46
1040
10.00000000000001
1000
ACAD_MTEXT_DEFINED_HEIGHT_END
  0
MTEXT
  5
36B
330
70
100
AcDbEntity
  8
dim
370
    20
100
AcDbMText
 10
221.4999999999709
 20
97.40710731415589
 30
0.0
 40
4.5
 41
24.99999999998545
 46
17.9999999999966
 71
     5
 72
     5
  1
1.35m
  7
Calibri
 73
     1
 44
1.0
1001
ACAD
1000
ACAD_MTEXT_DEFINED_HEIGHT_BEGIN
1070
    46
1040
10.00000000000001
1000
ACAD_MTEXT_DEFINED_HEIGHT_END
  0
MTEXT
  5
36C
330
70
100
AcDbEntity
  8
dim
370
    20
100
AcDbMText
 10
246.4999999999855
 20
97.40710731415589
 30
0.0
 40
4.5
 41
25.00000000001455
 46
17.9999999999982
 71
     5
 72
     5
  1
1.30m
  7
Calibri
 73
     1
 44
1.0
1001
ACAD
1000
ACAD_MTEXT_DEFINED_HEIGHT_BEGIN
1070
    46
1040
10.00000000000001
1000
ACAD_MTEXT_DEFINED_HEIGHT_END
  0
MTEXT
  5
36D
330
70
100
AcDbEntity
  8
dim
370
    20
100
AcDbMText
 10
271.4999999999855
 20
97.40710731415408
 30
0.0
 40
4.5
 41
25.0
 46
17.9999999999982
 71
     5
 72
     5
  1
1.20m
  7
Calibri
 73
     1
 44
1.0
1001
ACAD
1000
ACAD_MTEXT_DEFINED_HEIGHT_BEGIN
1070
    46
1040
10.00000000000001
1000
ACAD_MTEXT_DEFINED_HEIGHT_END
  0
MTEXT
  5
36E
330
70
100
AcDbEntity
  8
dim
370
    20
100
AcDbMText
 10
296.4999999999855
 20
97.40710731415227
 30
0.0
 40
4.5
 41
25.0
 46
17.99999999999456
 71
     5
 72
     5
  1
1.15m
  7
Calibri
 73
     1
 44
1.0
1001
ACAD
1000
ACAD_MTEXT_DEFINED_HEIGHT_BEGIN
1070
    46
1040
10.00000000000001
1000
ACAD_MTEXT_DEFINED_HEIGHT_END
  0
MTEXT
  5
36F
330
70
100
AcDbEntity
  8
dim
370
    20
100
AcDbMText
 10
171.4999999999709
 20
97.40710731415953
 30
0.0
 40
4.5
 41
24.99999999998545
 46
18.00000000000206
 71
     5
 72
     5
  1
1.40m
  7
Calibri
 73
     1
 44
1.0
1001
ACAD
1000
ACAD_MTEXT_DEFINED_HEIGHT_BEGIN
1070
    46
1040
10.00000000000001
1000
ACAD_MTEXT_DEFINED_HEIGHT_END
  0
MTEXT
  5
370
330
70
100
AcDbEntity
  8
dim
370
    20
100
AcDbMText
 10
321.5
 20
97.40710731415227
 30
0.0
 40
4.5
 41
25.00000000002911
 46
17.99999999999638
 71
     5
 72
     5
  1
1.05m
  7
Calibri
 73
     1
 44
1.0
1001
ACAD
1000
ACAD_MTEXT_DEFINED_HEIGHT_BEGIN
1070
    46
1040
10.00000000000001
1000
ACAD_MTEXT_DEFINED_HEIGHT_END
  0
MTEXT
  5
371
330
70
100
AcDbEntity
  8
dim
370
    20
100
AcDbMText
 10
346.4999999999855
 20
97.40710731415227
 30
0.0
 40
4.5
 41
24.9999999999709
 46
17.9999999999982
 71
     5
 72
     5
  1
0.95m
  7
Calibri
 73
     1
 44
1.0
1001
ACAD
1000
ACAD_MTEXT_DEFINED_HEIGHT_BEGIN
1070
    46
1040
10.00000000000001
1000
ACAD_MTEXT_DEFINED_HEIGHT_END
  0
MTEXT
  5
372
330
70
100
AcDbEntity
  8
dim
370
    20
100
AcDbMText
 10
371.4999999999855
 20
97.40710731415227
 30
0.0
 40
4.5
 41
24.99999999998545
 46
18.00000000000002
 71
     5
 72
     5
  1
0.85m
  7
Calibri
 73
     1
 44
1.0
1001
ACAD
1000
ACAD_MTEXT_DEFINED_HEIGHT_BEGIN
1070
    46
1040
10.00000000000001
1000
ACAD_MTEXT_DEFINED_HEIGHT_END
  0
MTEXT
  5
373
102
{ACAD_XDICTIONARY
360
374
102
}
330
70
100
AcDbEntity
  8
dim
100
AcDbMText
 10
4.417494721783441
 20
82.61743007319092
 30
0.0
 40
4.5
 41
403.3596694944862
 46
79.5676245593404
 71
     1
 72
     5
  3
\pi-13.5,l18,t18;-       Applicable to occupancy types A, B, C3 & E.\P-^IThis fixing detail PS1 should be used in conjunction with the appropriate system PS1.\P-^IThis is a balustrade connection detail. Deck design, construction and  water-proofing is 
  1
the responsibility of others. For all other applications or non-standard or site specific connections not covered under the standard detail manual please contact Spectrum.
  7
Calibri
 73
     1
 44
0.9333333333333333
1001
ACAD
1000
ACAD_MTEXT_DEFINED_HEIGHT_BEGIN
1070
    46
1040
75.2852101506287
1000
ACAD_MTEXT_DEFINED_HEIGHT_END
  0
MTEXT
  5
375
330
70
100
AcDbEntity
  8
0
100
AcDbMText
 10
8.290334991863346
 20
75.38153642329053
 30
0.0
 40
4.5
 41
329.6444955504266
 46
85.60397865527193
 71
     1
 72
     5
  1
{\fArial|b0|i0|c0|p34;■}
  7
Arial Narrow
 73
     1
 44
0.9333333333333333
1001
ACAD
1000
ACAD_MTEXT_DEFINED_HEIGHT_BEGIN
1070
    46
1040
85.60397865527193
1000
ACAD_MTEXT_DEFINED_HEIGHT_END
  0
MTEXT
  5
376
330
70
100
AcDbEntity
  8
0
100
AcDbMText
 10
200.0
 20
29.5
 30
0.0
 40
5.5
 41
126.0
 46
0.0
 71
     5
 72
     5
  1
0800 355 366\Pinfo@spectrum.co.nz\Pwww.spectrum.co.nz
  7
Calibri
 73
     1
 44
1.0
1001
ACAD
1000
ACAD_MTEXT_COLUMN_INFO_BEGIN
1070
    75
1070
     2
1070
    79
1070
     0
1070
    76
1070
     1
1070
    78
1070
     0
1070
    48
1040
126.0
1070
    49
1040
75.0
1070
    50
1070
     1
1040
35.00000000000146
1000
ACAD_MTEXT_COLUMN_INFO_END
  0
MTEXT
  5
377
330
70
100
AcDbEntity
  8
0
100
AcDbMText
 10
8.290334991863346
 20
68.026918904583
 30
0.0
 40
4.5
 41
329.6444955504266
 46
85.60397865527193
 71
     1
 72
     5
  1
{\fArial|b0|i0|c0|p34;■}
  7
Arial Narrow
 73
     1
 44
0.9333333333333333
1001
ACAD
1000
ACAD_MTEXT_DEFINED_HEIGHT_BEGIN
1070
    46
1040
85.60397865527193
1000
ACAD_MTEXT_DEFINED_HEIGHT_END
  0
MTEXT
  5
378
330
70
100
AcDbEntity
  8
0
100
AcDbMText
 10
8.290334991863346
 20
82.841239761623
 30
0.0
 40
4.5
 41
329.6444955504266
 46
85.60397865527193
 71
     1
 72
     5
  1
{\fArial|b0|i0|c0|p34;■}
  7
Arial Narrow
 73
     1
 44
0.9333333333333333
1001
ACAD
1000
ACAD_MTEXT_DEFINED_HEIGHT_BEGIN
1070
    46
1040
85.60397865527193
1000
ACAD_MTEXT_DEFINED_HEIGHT_END
  0
LINE
  5
379
330
70
100
AcDbEntity
  8
dim
100
AcDbLine
 10
282.7942844697764
 20
235.5017867328606
 30
0.0
 11
260.3168178806882
 21
235.5017867328606
 31
0.0
  0
SOLID
  5
37A
330
70
100
AcDbEntity
  8
dim
100
AcDbTrace
 10
261.3168178806882
 20
230.8889568115847
 30
0.0
 11
260.3168178806882
 21
224.8889568115846
 31
0.0
 12
259.3168178806882
 22
230.8889568115847
 32
0.0
 13
259.3168178806882
 23
230.8889568115847
 33
0.0
1001
ACAD
1000
DSTYLE
1002
{
1070
    41
1040
6.0
1070
    40
1040
1.0
1070
    50
1040
1.570796326794896
1070
    77
1070
     0
1002
}
  0
LWPOLYLINE
  5
37B
330
70
100
AcDbEntity
  8
dim
100
AcDbPolyline
 90
        2
 70
     0
 43
0.0
 10
260.3168178806882
 20
230.8889568115847
 10
260.3168178806882
 20
235.5017867328606
1001
ACAD
1000
DSTYLE
1002
{
1070
    41
1040
6.0
1070
    40
1040
1.0
1070
    50
1040
1.570796326794896
1070
    77
1070
     0
1002
}
  0
MTEXT
  5
37C
330
70
100
AcDbEntity
  8
dim
 62
     3
100
AcDbMText
 10
271.5
 20
165.4071073141504
 30
0.0
 40
4.0
 41
225.0
 46
17.9999999999891
 71
     5
 72
     5
  1
Leverage height {\Lmax} (distance from top of handrail to centreline of the upper fixing)
  7
Calibri
 73
     1
 44
1.0
1001
ACAD
1000
ACAD_MTEXT_DEFINED_HEIGHT_BEGIN
1070
    46
1040
15.00000000000001
1000
ACAD_MTEXT_DEFINED_HEIGHT_END
  0
MTEXT
  5
37D
102
{ACAD_XDICTIONARY
360
37E
102
}
330
70
100
AcDbEntity
  8
0
100
AcDbMText
 10
274.1927834194503
 20
29.5
 30
0.0
 40
3.25
 41
77.51234181714244
 46
0.0
 71
     4
 72
     5
  1
Balustrade.\Psubject to change\Pwithout notice.
  7
Calibri
 73
     1
 44
1.0
1001
ACAD
1000
ACAD_MTEXT_COLUMN_INFO_BEGIN
1070
    75
1070
     2
1070
    79
1070
     0
1070
    76
1070
     1
1070
    78
1070
     0
1070
    48
1040
77.51234181714244
1070
    49
1040
75.0
1070
    50
1070
     1
1040
0.0
1000
ACAD_MTEXT_COLUMN_INFO_END
  0
ENDSEC
  0
SECTION
  2
OBJECTS
  0
DICTIONARY
  5
C
330
0
100
AcDbDictionary
281
     1
  3
ACAD_CIP_PREVIOUS_PRODUCT_INFO
350
7E
  3
ACAD_COLOR
350
63
  3
ACAD_DETAILVIEWSTYLE
350
6A
  3
ACAD_GROUP
350
D
  3
ACAD_LAYOUT
350
62
  3
ACAD_MATERIAL
350
10
  3
ACAD_MLEADERSTYLE
350
66
  3
ACAD_MLINESTYLE
350
5F
  3
ACAD_PLOTSETTINGS
350
61
  3
ACAD_PLOTSTYLENAME
350
E
  3
ACAD_SCALELIST
350
42
  3
ACAD_SECTIONVIEWSTYLE
350
68
  3
ACAD_TABLESTYLE
350
64
  3
ACAD_VISUALSTYLE
350
29
  3
ACDB_RECOMPOSE_DATA
350
478
  3
AcDbVariableDictionary
350
78
  3
AcDsDecomposeData
350
47E
  0
DICTIONARY
  5
E4
330
2
100
AcDbDictionary
280
     1
281
     1
  3
ACAD_LAYERSTATES
360
E5
  0
DICTIONARY
  5
BE
330
BD
100
AcDbDictionary
280
     1
281
     1
  0
DICTIONARY
  5
C0
330
BF
100
AcDbDictionary
280
     1
281
     1
  0
DICTIONARY
  5
C2
330
C1
100
AcDbDictionary
280
     1
281
     1
  0
DICTIONARY
  5
C5
330
C4
100
AcDbDictionary
280
     1
281
     1
  0
DICTIONARY
  5
C7
330
C6
100
AcDbDictionary
280
     1
281
     1
  0
DICTIONARY
  5
C9
330
C8
100
AcDbDictionary
280
     1
281
     1
  0
DICTIONARY
  5
CB
330
CA
100
AcDbDictionary
280
     1
281
     1
  0
DICTIONARY
  5
CD
330
CC
100
AcDbDictionary
280
     1
281
     1
  0
DICTIONARY
  5
CF
330
CE
100
AcDbDictionary
280
     1
281
     1
  0
DICTIONARY
  5
D1
330
D0
100
AcDbDictionary
280
     1
281
     1
  0
DICTIONARY
  5
D3
330
D2
100
AcDbDictionary
280
     1
281
     1
  0
DICTIONARY
  5
2E4
330
2E3
100
AcDbDictionary
280
     1
281
     1
  3
ACAD_DIMASSOC
360
2E5
  0
DICTIONARY
  5
32E
330
32D
100
AcDbDictionary
280
     1
281
     1
  3
ACAD_MTEXT_2008_RT
360
475
  0
DICTIONARY
  5
374
330
373
100
AcDbDictionary
280
     1
281
     1
  3
ACAD_MTEXT_2008_RT
360
476
  0
DICTIONARY
  5
37E
330
37D
100
AcDbDictionary
280
     1
281
     1
  3
ACAD_MTEXT_2008_RT
360
477
  0
XRECORD
  5
7E
102
{ACAD_REACTORS
330
C
102
}
330
C
100
AcDbXrecord
280
     1
300
ACDLT
300
2022
300

  0
DICTIONARY
  5
63
102
{ACAD_REACTORS
330
C
102
}
330
C
100
AcDbDictionary
281
     1
  0
DICTIONARY
  5
6A
102
{ACAD_REACTORS
330
C
102
}
330
C
100
AcDbDictionary
281
     1
  3
Metric50
350
6B
  0
DICTIONARY
  5
D
102
{ACAD_REACTORS
330
C
102
}
330
C
100
AcDbDictionary
281
     1
  0
DICTIONARY
  5
62
102
{ACAD_REACTORS
330
C
102
}
330
C
100
AcDbDictionary
281
     1
  3
Layout1
350
6F
  3
Layout2
350
77
  3
Model
350
73
  0
DICTIONARY
  5
10
102
{ACAD_REACTORS
330
C
102
}
330
C
100
AcDbDictionary
281
     1
  3
ByBlock
350
19
  3
ByLayer
350
11
  3
Global
350
21
  0
DICTIONARY
  5
66
102
{ACAD_REACTORS
330
C
102
}
330
C
100
AcDbDictionary
281
     1
  3
Standard
350
67
  0
DICTIONARY
  5
5F
102
{ACAD_REACTORS
330
C
102
}
330
C
100
AcDbDictionary
281
     1
  3
Standard
350
60
  0
DICTIONARY
  5
61
102
{ACAD_REACTORS
330
C
102
}
330
C
100
AcDbDictionary
281
     1
  0
ACDBDICTIONARYWDFLT
  5
E
102
{ACAD_REACTORS
330
C
102
}
330
C
100
AcDbDictionary
281
     1
  3
Normal
350
F
100
AcDbDictionaryWithDefault
340
F
  0
DICTIONARY
  5
42
102
{ACAD_REACTORS
330
C
102
}
330
C
100
AcDbDictionary
281
     1
  3
A0
350
43
  3
A1
350
44
  3
A2
350
45
  3
A3
350
46
  3
A4
350
47
  3
A5
350
48
  3
A6
350
49
  3
A7
350
4A
  3
A8
350
4B
  3
A9
350
4C
  3
B0
350
4D
  3
B1
350
4E
  3
B2
350
4F
  3
B3
350
50
  3
B4
350
51
  3
B5
350
52
  3
B6
350
53
  0
DICTIONARY
  5
68
102
{ACAD_REACTORS
330
C
102
}
330
C
100
AcDbDictionary
281
     1
  3
Metric50
350
69
  0
DICTIONARY
  5
64
102
{ACAD_REACTORS
330
C
102
}
330
C
100
AcDbDictionary
281
     1
  3
Standard
350
65
  0
DICTIONARY
  5
29
102
{ACAD_REACTORS
330
C
102
}
330
C
100
AcDbDictionary
281
     1
  3
2dWireframe
350
2F
  3
Basic
350
2E
  3
Brighten
350
35
  3
ColorChange
350
39
  3
Conceptual
350
32
  3
Dim
350
34
  3
EdgeColorOff
350
41
  3
Facepattern
350
38
  3
Flat
350
2A
  3
FlatWithEdges
350
2B
  3
Gouraud
350
2C
  3
GouraudWithEdges
350
2D
  3
Hidden
350
31
  3
JitterOff
350
3F
  3
Linepattern
350
37
  3
OverhangOff
350
40
  3
Realistic
350
33
  3
Shaded
350
3E
  3
Shaded with edges
350
3D
  3
Shades of Gray
350
3A
  3
Sketchy
350
3B
  3
Thicken
350
36
  3
Wireframe
350
30
  3
X-Ray
350
3C
  0
XRECORD
  5
478
102
{ACAD_REACTORS
330
C
102
}
330
C
100
AcDbXrecord
280
     1
 90
        1
330
65
330
32D
330
373
330
376
330
37D
  0
DICTIONARY
  5
78
102
{ACAD_REACTORS
330
C
102
}
330
C
100
AcDbDictionary
281
     1
  3
CANNOSCALE
350
471
  3
CENTEREXE
350
79
  3
CENTERLTYPEFILE
350
7A
  3
CMLEADERSTYLE
350
46E
  3
CTABLESTYLE
350
46D
  3
CVIEWDETAILSTYLE
350
46F
  3
CVIEWSECTIONSTYLE
350
470
  3
XCLIPFRAME
350
472
  0
DICTIONARY
  5
47E
102
{ACAD_REACTORS
330
C
102
}
330
C
100
AcDbDictionary
281
     1
  3
AcDsRecords
350
480
  3
AcDsSchemas
350
47F
1001
ACAD
1070
     2
  0
DICTIONARY
  5
E5
102
{ACAD_REACTORS
330
E4
102
}
330
E4
100
AcDbDictionary
281
     1
  0
DIMASSOC
  5
2E5
102
{ACAD_REACTORS
330
2E4
102
}
330
2E4
100
AcDbDimAssoc
330
2E3
 90
        1
 70
     0
 71
     0
  1
AcDbOsnapPointRef
 72
     1
331
29D
 73
     2
 91
        0
 40
1.0
 10
0.0
 20
0.0
 30
2.000000000000000E+50
 75
     0
  0
XRECORD
  5
475
102
{ACAD_REACTORS
330
32E
102
}
330
32E
100
AcDbXrecord
280
     1
 40
4868.0
  1
\pxqr;Rev:D 31.8.21
  0
XRECORD
  5
476
102
{ACAD_REACTORS
330
374
102
}
330
374
100
AcDbXrecord
280
     1
 40
8360855.0
  1
\pxi-3,l4,ql,t4;-       Applicable to occupancy types A, B, C3 & E.\P-^IThis fixing detail PS1 should be used in conjunction with the appropriate system PS1.\P-^IThis is a balustrade connection detail. Deck design, construction and  water-proofing is t
  1
he responsibility of others. For all other applications or non-standard or site specific connections not covered under the standard detail manual please contact Spectrum.
  0
XRECORD
  5
477
102
{ACAD_REACTORS
330
37E
102
}
330
37E
100
AcDbXrecord
280
     1
 40
109764.0
  1
\pxql;Balustrade.\Psubject to change\Pwithout notice.
  0
ACDBDETAILVIEWSTYLE
  5
6B
102
{ACAD_XDICTIONARY
360
4B6
102
}
102
{ACAD_REACTORS
330
6A
102
}
330
6A
100
AcDbModelDocViewStyle
 70
     0
  3
Metric50
290
     0
100
AcDbDetailViewStyle
 70
     0
 71
     0
 90
        3
 71
     1
340
55
 62
   256
 40
5.0
340
0
 62
   256
 40
5.0
300

 40
0.36
280
     1
 71
     2
340
5D
 90
       25
 62
   256
 71
     3
340
55
 62
   256
 40
5.0
 90
        0
 40
15.0
 90
        1
300
%<\AcVar ViewDetailId>% (%<\AcVar ViewScale \f "%sn">%)
 71
     4
340
5D
 90
       25
 62
   256
340
5D
 90
       25
 62
   256
280
     0
  0
LAYOUT
  5
6F
102
{ACAD_REACTORS
330
62
102
}
330
62
100
AcDbPlotSettings
  1

  2
C:\Users\leeh\AppData\Roaming\Autodesk\AutoCAD LT 2022\R28\enu\plotters\AutoCAD PDF (General Documentation).pc3
  4

  6

 40
0.0
 41
0.0
 42
0.0
 43
0.0
 44
0.0
 45
0.0
 46
0.0
 47
0.0
 48
0.0
 49
0.0
140
0.0
141
0.0
142
1.0
143
1.0
 70
   688
 72
     0
 73
     0
 74
     5
  7

 75
    16
147
1.0
 76
     0
 77
     2
 78
   300
148
0.0
149
0.0
100
AcDbLayout
  1
Layout1
 70
     1
 71
     1
 10
0.0
 20
0.0
 11
420.0
 21
297.0
 12
0.0
 22
0.0
 32
0.0
 14
1.000000000000000E+20
 24
1.000000000000000E+20
 34
1.000000000000000E+20
 15
-1.000000000000000E+20
 25
-1.000000000000000E+20
 35
-1.000000000000000E+20
146
0.0
 13
0.0
 23
0.0
 33
0.0
 16
1.0
 26
0.0
 36
0.0
 17
0.0
 27
1.0
 37
0.0
 76
     0
330
6C
  0
LAYOUT
  5
77
102
{ACAD_REACTORS
330
62
102
}
330
62
100
AcDbPlotSettings
  1

  2
C:\Users\leeh\AppData\Roaming\Autodesk\AutoCAD LT 2022\R28\enu\plotters\AutoCAD PDF (General Documentation).pc3
  4

  6

 40
0.0
 41
0.0
 42
0.0
 43
0.0
 44
0.0
 45
0.0
 46
0.0
 47
0.0
 48
0.0
 49
0.0
140
0.0
141
0.0
142
1.0
143
1.0
 70
   688
 72
     0
 73
     0
 74
     5
  7

 75
    16
147
1.0
 76
     0
 77
     2
 78
   300
148
0.0
149
0.0
100
AcDbLayout
  1
Layout2
 70
     1
 71
     2
 10
0.0
 20
0.0
 11
12.0
 21
9.0
 12
0.0
 22
0.0
 32
0.0
 14
0.0
 24
0.0
 34
0.0
 15
0.0
 25
0.0
 35
0.0
146
0.0
 13
0.0
 23
0.0
 33
0.0
 16
1.0
 26
0.0
 36
0.0
 17
0.0
 27
1.0
 37
0.0
 76
     0
330
74
  0
LAYOUT
  5
73
102
{ACAD_REACTORS
330
62
102
}
330
62
100
AcDbPlotSettings
  1

  2
C:\Users\leeh\AppData\Roaming\Autodesk\AutoCAD LT 2022\R28\enu\plotters\AutoCAD PDF (General Documentation).pc3
  4

  6

 40
0.0
 41
0.0
 42
0.0
 43
0.0
 44
0.0
 45
0.0
 46
0.0
 47
0.0
 48
0.0
 49
0.0
140
0.0
141
0.0
142
1.0
143
1.0
 70
  1712
 72
     0
 73
     0
 74
     0
  7

 75
     0
147
1.0
 76
     0
 77
     2
 78
   300
148
0.0
149
0.0
100
AcDbLayout
  1
Model
 70
     1
 71
     0
 10
0.0
 20
0.0
 11
12.0
 21
9.0
 12
0.0
 22
0.0
 32
0.0
 14
0.0
 24
0.0
 34
0.0
 15
0.0
 25
0.0
 35
0.0
146
0.0
 13
0.0
 23
0.0
 33
0.0
 16
1.0
 26
0.0
 36
0.0
 17
0.0
 27
1.0
 37
0.0
 76
     0
330
70
331
57
  0
MATERIAL
  5
19
102
{ACAD_XDICTIONARY
360
1A
102
}
102
{ACAD_REACTORS
330
10
102
}
330
10
100
AcDbMaterial
  1
ByBlock
 72
     0
 43
0.0208333333333333
 43
0.0
 43
0.0
 43
0.0
 43
0.0
 43
0.0208333333333333
 43
0.0
 43
0.0
 43
0.0
 43
0.0
 43
1.0
 43
0.0
 43
0.0
 43
0.0
 43
0.0
 43
1.0
 77
     0
 47
0.0208333333333333
 47
0.0
 47
0.0
 47
0.0
 47
0.0
 47
0.0208333333333333
 47
0.0
 47
0.0
 47
0.0
 47
0.0
 47
1.0
 47
0.0
 47
0.0
 47
0.0
 47
0.0
 47
1.0
171
     0
 49
0.0208333333333333
 49
0.0
 49
0.0
 49
0.0
 49
0.0
 49
0.0208333333333333
 49
0.0
 49
0.0
 49
0.0
 49
0.0
 49
1.0
 49
0.0
 49
0.0
 49
0.0
 49
0.0
 49
1.0
175
     0
142
0.0208333333333333
142
0.0
142
0.0
142
0.0
142
0.0
142
0.0208333333333333
142
0.0
142
0.0
142
0.0
142
0.0
142
1.0
142
0.0
142
0.0
142
0.0
142
0.0
142
1.0
179
     0
144
0.0208333333333333
144
0.0
144
0.0
144
0.0
144
0.0
144
0.0208333333333333
144
0.0
144
0.0
144
0.0
144
0.0
144
1.0
144
0.0
144
0.0
144
0.0
144
0.0
144
1.0
147
0.0208333333333333
147
0.0
147
0.0
147
0.0
147
0.0
147
0.0208333333333333
147
0.0
147
0.0
147
0.0
147
0.0
147
1.0
147
0.0
147
0.0
147
0.0
147
0.0
147
1.0
  0
MATERIAL
  5
11
102
{ACAD_XDICTIONARY
360
12
102
}
102
{ACAD_REACTORS
330
10
102
}
330
10
100
AcDbMaterial
  1
ByLayer
 72
     0
 43
0.0208333333333333
 43
0.0
 43
0.0
 43
0.0
 43
0.0
 43
0.0208333333333333
 43
0.0
 43
0.0
 43
0.0
 43
0.0
 43
1.0
 43
0.0
 43
0.0
 43
0.0
 43
0.0
 43
1.0
 77
     0
 47
0.0208333333333333
 47
0.0
 47
0.0
 47
0.0
 47
0.0
 47
0.0208333333333333
 47
0.0
 47
0.0
 47
0.0
 47
0.0
 47
1.0
 47
0.0
 47
0.0
 47
0.0
 47
0.0
 47
1.0
171
     0
 49
0.0208333333333333
 49
0.0
 49
0.0
 49
0.0
 49
0.0
 49
0.0208333333333333
 49
0.0
 49
0.0
 49
0.0
 49
0.0
 49
1.0
 49
0.0
 49
0.0
 49
0.0
 49
0.0
 49
1.0
175
     0
142
0.0208333333333333
142
0.0
142
0.0
142
0.0
142
0.0
142
0.0208333333333333
142
0.0
142
0.0
142
0.0
142
0.0
142
1.0
142
0.0
142
0.0
142
0.0
142
0.0
142
1.0
179
     0
144
0.0208333333333333
144
0.0
144
0.0
144
0.0
144
0.0
144
0.0208333333333333
144
0.0
144
0.0
144
0.0
144
0.0
144
1.0
144
0.0
144
0.0
144
0.0
144
0.0
144
1.0
147
0.0208333333333333
147
0.0
147
0.0
147
0.0
147
0.0
147
0.0208333333333333
147
0.0
147
0.0
147
0.0
147
0.0
147
1.0
147
0.0
147
0.0
147
0.0
147
0.0
147
1.0
  0
MATERIAL
  5
21
102
{ACAD_XDICTIONARY
360
22
102
}
102
{ACAD_REACTORS
330
10
102
}
330
10
100
AcDbMaterial
  1
Global
 72
     0
 43
0.0208333333333333
 43
0.0
 43
0.0
 43
0.0
 43
0.0
 43
0.0208333333333333
 43
0.0
 43
0.0
 43
0.0
 43
0.0
 43
1.0
 43
0.0
 43
0.0
 43
0.0
 43
0.0
 43
1.0
 77
     0
 47
0.0208333333333333
 47
0.0
 47
0.0
 47
0.0
 47
0.0
 47
0.0208333333333333
 47
0.0
 47
0.0
 47
0.0
 47
0.0
 47
1.0
 47
0.0
 47
0.0
 47
0.0
 47
0.0
 47
1.0
171
     0
 49
0.0208333333333333
 49
0.0
 49
0.0
 49
0.0
 49
0.0
 49
0.0208333333333333
 49
0.0
 49
0.0
 49
0.0
 49
0.0
 49
1.0
 49
0.0
 49
0.0
 49
0.0
 49
0.0
 49
1.0
175
     0
142
0.0208333333333333
142
0.0
142
0.0
142
0.0
142
0.0
142
0.0208333333333333
142
0.0
142
0.0
142
0.0
142
0.0
142
1.0
142
0.0
142
0.0
142
0.0
142
0.0
142
1.0
179
     0
144
0.0208333333333333
144
0.0
144
0.0
144
0.0
144
0.0
144
0.0208333333333333
144
0.0
144
0.0
144
0.0
144
0.0
144
1.0
144
0.0
144
0.0
144
0.0
144
0.0
144
1.0
147
0.0208333333333333
147
0.0
147
0.0
147
0.0
147
0.0
147
0.0208333333333333
147
0.0
147
0.0
147
0.0
147
0.0
147
1.0
147
0.0
147
0.0
147
0.0
147
0.0
147
1.0
  0
MLEADERSTYLE
  5
67
102
{ACAD_XDICTIONARY
360
4B2
102
}
102
{ACAD_REACTORS
330
66
102
}
330
66
100
AcDbMLeaderStyle
170
     2
171
     1
172
     0
 90
        2
 40
0.0
 41
0.0
173
     1
 91
-1056964608
340
5B
 92
       -2
290
     1
 42
0.09
291
     1
 43
0.36
  3
Standard
 44
0.18
300

342
55
174
     1
178
     6
175
     1
176
     0
 93
-1056964608
 45
0.18
292
     0
297
     0
 46
0.18
 94
-1056964608
 47
1.0
 49
1.0
140
1.0
293
     1
141
0.0
294
     1
177
     0
142
1.0
295
     0
296
     0
143
0.125
1001
ACAD_MLEADERVER
1070
     2
  0
MLINESTYLE
  5
60
102
{ACAD_REACTORS
330
5F
102
}
330
5F
100
AcDbMlineStyle
  2
STANDARD
 70
     0
  3

 62
   256
 51
90.0
 52
90.0
 71
     2
 49
0.5
 62
   256
  6
BYLAYER
 49
-0.5
 62
   256
  6
BYLAYER
  0
ACDBPLACEHOLDER
  5
F
102
{ACAD_REACTORS
330
E
102
}
330
E
  0
SCALE
  5
43
102
{ACAD_REACTORS
330
42
102
}
330
42
100
AcDbScale
 70
     0
300
1:1
140
1.0
141
1.0
290
     1
  0
SCALE
  5
44
102
{ACAD_REACTORS
330
42
102
}
330
42
100
AcDbScale
 70
     0
300
1:2
140
1.0
141
2.0
290
     0
  0
SCALE
  5
45
102
{ACAD_REACTORS
330
42
102
}
330
42
100
AcDbScale
 70
     0
300
1:4
140
1.0
141
4.0
290
     0
  0
SCALE
  5
46
102
{ACAD_REACTORS
330
42
102
}
330
42
100
AcDbScale
 70
     0
300
1:5
140
1.0
141
5.0
290
     0
  0
SCALE
  5
47
102
{ACAD_REACTORS
330
42
102
}
330
42
100
AcDbScale
 70
     0
300
1:8
140
1.0
141
8.0
290
     0
  0
SCALE
  5
48
102
{ACAD_REACTORS
330
42
102
}
330
42
100
AcDbScale
 70
     0
300
1:10
140
1.0
141
10.0
290
     0
  0
SCALE
  5
49
102
{ACAD_REACTORS
330
42
102
}
330
42
100
AcDbScale
 70
     0
300
1:16
140
1.0
141
16.0
290
     0
  0
SCALE
  5
4A
102
{ACAD_REACTORS
330
42
102
}
330
42
100
AcDbScale
 70
     0
300
1:20
140
1.0
141
20.0
290
     0
  0
SCALE
  5
4B
102
{ACAD_REACTORS
330
42
102
}
330
42
100
AcDbScale
 70
     0
300
1:30
140
1.0
141
30.0
290
     0
  0
SCALE
  5
4C
102
{ACAD_REACTORS
330
42
102
}
330
42
100
AcDbScale
 70
     0
300
1:40
140
1.0
141
40.0
290
     0
  0
SCALE
  5
4D
102
{ACAD_REACTORS
330
42
102
}
330
42
100
AcDbScale
 70
     0
300
1:50
140
1.0
141
50.0
290
     0
  0
SCALE
  5
4E
102
{ACAD_REACTORS
330
42
102
}
330
42
100
AcDbScale
 70
     0
300
1:100
140
1.0
141
100.0
290
     0
  0
SCALE
  5
4F
102
{ACAD_REACTORS
330
42
102
}
330
42
100
AcDbScale
 70
     0
300
2:1
140
2.0
141
1.0
290
     0
  0
SCALE
  5
50
102
{ACAD_REACTORS
330
42
102
}
330
42
100
AcDbScale
 70
     0
300
4:1
140
4.0
141
1.0
290
     0
  0
SCALE
  5
51
102
{ACAD_REACTORS
330
42
102
}
330
42
100
AcDbScale
 70
     0
300
8:1
140
8.0
141
1.0
290
     0
  0
SCALE
  5
52
102
{ACAD_REACTORS
330
42
102
}
330
42
100
AcDbScale
 70
     0
300
10:1
140
10.0
141
1.0
290
     0
  0
SCALE
  5
53
102
{ACAD_REACTORS
330
42
102
}
330
42
100
AcDbScale
 70
     0
300
100:1
140
100.0
141
1.0
290
     0
  0
ACDBSECTIONVIEWSTYLE
  5
69
102
{ACAD_XDICTIONARY
360
4B4
102
}
102
{ACAD_REACTORS
330
68
102
}
330
68
100
AcDbModelDocViewStyle
 70
     0
  3
Metric50
290
     0
100
AcDbSectionViewStyle
 70
     0
 71
     0
 90
      102
 71
     1
340
55
 62
   256
 40
5.0
340
0
340
0
 62
   256
 40
5.0
300
I, O, Q, S, X, Z
 40
10.0
 90
        0
 40
2.5
 90
        0
 71
     2
340
5D
 90
       25
 62
   256
340
5D
 90
       50
 62
   256
 40
5.0
 40
2.5
 40
5.0
 71
     3
340
55
 62
   256
 40
5.0
 90
        0
 40
15.0
 90
        1
300
%<\AcVar ViewSectionStartId>%-%<\AcVar ViewSectionEndId>% (%<\AcVar ViewScale \f "%sn">%)
 71
     4
 62
   256
 62
   257
300
ANSI31
 40
1.0
 90
        0
290
     0
290
     0
 90
        6
 40
0.0
 40
1.570796326794896
 40
0.2617993877991494
 40
1.308996938995747
 40
-0.2617993877991494
 40
1.832595714594046
  0
TABLESTYLE
  5
65
102
{ACAD_XDICTIONARY
360
473
102
}
102
{ACAD_REACTORS
330
64
102
}
330
64
100
AcDbTableStyle
  3
Standard
 70
     0
 71
     0
 40
1.5
 41
1.5
280
     0
281
     0
  7
Standard
140
4.5
170
     2
 62
     0
 63
     7
283
     0
 90
      512
 91
        0
  1

274
    -2
284
     1
 64
     0
275
    -2
285
     1
 65
     0
276
    -2
286
     1
 66
     0
277
    -2
287
     1
 67
     0
278
    -2
288
     1
 68
     0
279
    -2
289
     1
 69
     0
  7
Standard
140
6.0
170
     5
 62
     0
 63
     7
283
     0
 90
      512
 91
        0
  1

274
    -2
284
     1
 64
     0
275
    -2
285
     1
 65
     0
276
    -2
286
     1
 66
     0
277
    -2
287
     1
 67
     0
278
    -2
288
     1
 68
     0
279
    -2
289
     1
 69
     0
  7
Standard
140
4.5
170
     5
 62
     0
 63
     7
283
     0
 90
      512
 91
        0
  1

274
    -2
284
     1
 64
     0
275
    -2
285
     1
 65
     0
276
    -2
286
     1
 66
     0
277
    -2
287
     1
 67
     0
278
    -2
288
     1
 68
     0
279
    -2
289
     1
 69
     0
  0
VISUALSTYLE
  5
2F
102
{ACAD_XDICTIONARY
360
48B
102
}
102
{ACAD_REACTORS
330
29
102
}
330
29
100
AcDbVisualStyle
  2
2dWireframe
 70
     4
 71
     0
 72
     2
 73
     0
 90
        0
 40
-0.6
 41
-30.0
 62
     5
 63
     7
421
 16777215
 74
     1
 91
        4
 64
     7
 65
   257
 75
     1
175
     1
 42
1.0
 92
        0
 66
   257
 43
1.0
 76
     1
 77
     6
 78
     2
 67
     7
 79
     5
170
     0
171
     0
290
     0
174
     0
 93
        1
 44
0.0
173
     0
291
     0
 45
0.0
1001
ACAD
1000
AcDbSavedByObjectVersion
1070
     0
  0
VISUALSTYLE
  5
2E
102
{ACAD_XDICTIONARY
360
489
102
}
102
{ACAD_REACTORS
330
29
102
}
330
29
100
AcDbVisualStyle
  2
Basic
 70
     7
 71
     1
 72
     0
 73
     1
 90
        0
 40
-0.6
 41
-30.0
 62
     5
 63
     7
421
 16777215
 74
     0
 91
        4
 64
     7
 65
   257
 75
     1
175
     1
 42
1.0
 92
        8
 66
     7
 43
1.0
 76
     1
 77
     6
 78
     2
 67
     7
 79
     5
170
     0
171
     0
290
     0
174
     0
 93
        1
 44
0.0
173
     0
291
     1
 45
0.0
1001
ACAD
1000
AcDbSavedByObjectVersion
1070
     0
  0
VISUALSTYLE
  5
35
102
{ACAD_XDICTIONARY
360
497
102
}
102
{ACAD_REACTORS
330
29
102
}
330
29
100
AcDbVisualStyle
  2
Brighten
 70
    12
 71
     2
 72
     2
 73
     0
 90
        0
 40
-0.6
 41
-30.0
 62
     5
 63
     7
421
 16777215
 74
     1
 91
        4
 64
     7
 65
   257
 75
     1
175
     1
 42
1.0
 92
        8
 66
     7
 43
1.0
 76
     1
 77
     6
 78
     2
 67
     7
 79
     5
170
     0
171
     0
290
     0
174
     0
 93
        1
 44
50.0
173
     0
291
     1
 45
0.0
1001
ACAD
1000
AcDbSavedByObjectVersion
1070
     0
  0
VISUALSTYLE
  5
39
102
{ACAD_XDICTIONARY
360
49F
102
}
102
{ACAD_REACTORS
330
29
102
}
330
29
100
AcDbVisualStyle
  2
ColorChange
 70
    16
 71
     2
 72
     2
 73
     3
 90
        0
 40
-0.6
 41
-30.0
 62
     5
 63
     8
421
  8421504
 74
     1
 91
        4
 64
     7
 65
   257
 75
     1
175
     1
 42
1.0
 92
        8
 66
     8
424
  8421504
 43
1.0
 76
     1
 77
     6
 78
     2
 67
     7
 79
     5
170
     0
171
     0
290
     0
174
     0
 93
        1
 44
0.0
173
     0
291
     1
 45
0.0
1001
ACAD
1000
AcDbSavedByObjectVersion
1070
     0
  0
VISUALSTYLE
  5
32
102
{ACAD_XDICTIONARY
360
491
102
}
102
{ACAD_REACTORS
330
29
102
}
330
29
100
AcDbVisualStyle
  2
Conceptual
 70
     9
 71
     3
 72
     2
 73
     0
 90
        0
 40
-0.6
 41
-30.0
 62
     5
 63
     7
421
 16777215
 74
     2
 91
        2
 64
     7
 65
   257
 75
     1
175
     1
 42
179.0
 92
        8
 66
     7
 43
1.0
 76
     1
 77
     6
 78
     2
 67
     7
 79
     3
170
     0
171
     0
290
     0
174
     0
 93
        1
 44
0.0
173
     0
291
     0
 45
0.0
1001
ACAD
1000
AcDbSavedByObjectVersion
1070
     0
  0
VISUALSTYLE
  5
34
102
{ACAD_XDICTIONARY
360
495
102
}
102
{ACAD_REACTORS
330
29
102
}
330
29
100
AcDbVisualStyle
  2
Dim
 70
    11
 71
     2
 72
     2
 73
     0
 90
        0
 40
-0.6
 41
-30.0
 62
     5
 63
     7
421
 16777215
 74
     1
 91
        4
 64
     7
 65
   257
 75
     1
175
     1
 42
1.0
 92
        8
 66
     7
 43
1.0
 76
     1
 77
     6
 78
     2
 67
     7
 79
     5
170
     0
171
     0
290
     0
174
     0
 93
        1
 44
-50.0
173
     0
291
     1
 45
0.0
1001
ACAD
1000
AcDbSavedByObjectVersion
1070
     0
  0
VISUALSTYLE
  5
41
102
{ACAD_XDICTIONARY
360
4AF
102
}
102
{ACAD_REACTORS
330
29
102
}
330
29
100
AcDbVisualStyle
  2
EdgeColorOff
 70
    22
 71
     2
 72
     2
 73
     0
 90
        0
 40
-0.6
 41
-30.0
 62
     5
 63
     7
421
 16777215
 74
     1
 91
        4
 64
     7
 65
   257
 75
     1
175
     1
 42
1.0
 92
        8
 66
     7
 43
1.0
 76
     1
 77
     6
 78
     2
 67
     7
 79
     5
170
     0
171
     0
290
     0
174
     0
 93
        1
 44
0.0
173
     0
291
     1
 45
0.0
1001
ACAD
1000
AcDbSavedByObjectVersion
1070
     0
  0
VISUALSTYLE
  5
38
102
{ACAD_XDICTIONARY
360
49D
102
}
102
{ACAD_REACTORS
330
29
102
}
330
29
100
AcDbVisualStyle
  2
Facepattern
 70
    15
 71
     2
 72
     2
 73
     0
 90
        0
 40
-0.6
 41
-30.0
 62
     5
 63
     7
421
 16777215
 74
     1
 91
        4
 64
     7
 65
   257
 75
     1
175
     1
 42
1.0
 92
        8
 66
     7
 43
1.0
 76
     1
 77
     6
 78
     2
 67
     7
 79
     5
170
     0
171
     0
290
     0
174
     0
 93
        1
 44
0.0
173
     0
291
     1
 45
0.0
1001
ACAD
1000
AcDbSavedByObjectVersion
1070
     0
  0
VISUALSTYLE
  5
2A
102
{ACAD_XDICTIONARY
360
481
102
}
102
{ACAD_REACTORS
330
29
102
}
330
29
100
AcDbVisualStyle
  2
Flat
 70
     0
 71
     2
 72
     1
 73
     1
 90
        2
 40
-0.6
 41
30.0
 62
     5
 63
     7
421
 16777215
 74
     0
 91
        0
 64
     7
 65
   257
 75
     1
175
     1
 42
1.0
 92
        8
 66
     7
 43
1.0
 76
     1
 77
     6
 78
     2
 67
     7
 79
     5
170
     0
171
     0
290
     0
174
     0
 93
       13
 44
0.0
173
     0
291
     1
 45
0.0
1001
ACAD
1000
AcDbSavedByObjectVersion
1070
     0
  0
VISUALSTYLE
  5
2B
102
{ACAD_XDICTIONARY
360
483
102
}
102
{ACAD_REACTORS
330
29
102
}
330
29
100
AcDbVisualStyle
  2
FlatWithEdges
 70
     1
 71
     2
 72
     1
 73
     1
 90
        2
 40
-0.6
 41
30.0
 62
     5
 63
     7
421
 16777215
 74
     1
 91
        0
 64
     7
 65
   257
 75
     1
175
     1
 42
1.0
 92
        0
 66
   257
 43
1.0
 76
     1
 77
     6
 78
     2
 67
     7
 79
     5
170
     0
171
     0
290
     0
174
     0
 93
       13
 44
0.0
173
     0
291
     1
 45
0.0
1001
ACAD
1000
AcDbSavedByObjectVersion
1070
     0
  0
VISUALSTYLE
  5
2C
102
{ACAD_XDICTIONARY
360
485
102
}
102
{ACAD_REACTORS
330
29
102
}
330
29
100
AcDbVisualStyle
  2
Gouraud
 70
     2
 71
     2
 72
     2
 73
     1
 90
        2
 40
-0.6
 41
30.0
 62
     5
 63
     7
421
 16777215
 74
     0
 91
        0
 64
     7
 65
   257
 75
     1
175
     1
 42
1.0
 92
        0
 66
     7
 43
1.0
 76
     1
 77
     6
 78
     2
 67
     7
 79
     5
170
     0
171
     0
290
     0
174
     0
 93
       13
 44
0.0
173
     0
291
     1
 45
0.0
1001
ACAD
1000
AcDbSavedByObjectVersion
1070
     0
  0
VISUALSTYLE
  5
2D
102
{ACAD_XDICTIONARY
360
487
102
}
102
{ACAD_REACTORS
330
29
102
}
330
29
100
AcDbVisualStyle
  2
GouraudWithEdges
 70
     3
 71
     2
 72
     2
 73
     1
 90
        2
 40
-0.6
 41
30.0
 62
     5
 63
     7
421
 16777215
 74
     1
 91
        0
 64
     7
 65
   257
 75
     1
175
     1
 42
1.0
 92
        0
 66
   257
 43
1.0
 76
     1
 77
     6
 78
     2
 67
     7
 79
     5
170
     0
171
     0
290
     0
174
     0
 93
       13
 44
0.0
173
     0
291
     1
 45
0.0
1001
ACAD
1000
AcDbSavedByObjectVersion
1070
     0
  0
VISUALSTYLE
  5
31
102
{ACAD_XDICTIONARY
360
48F
102
}
102
{ACAD_REACTORS
330
29
102
}
330
29
100
AcDbVisualStyle
  2
Hidden
 70
     6
 71
     1
 72
     2
 73
     2
 90
        0
 40
-0.6
 41
-30.0
 62
     5
 63
     7
421
 16777215
 74
     2
 91
        2
 64
     7
 65
   257
 75
     2
175
     1
 42
40.0
 92
        0
 66
   257
 43
1.0
 76
     1
 77
     6
 78
     2
 67
     7
 79
     3
170
     0
171
     0
290
     0
174
     0
 93
        1
 44
0.0
173
     0
291
     0
 45
0.0
1001
ACAD
1000
AcDbSavedByObjectVersion
1070
     0
  0
VISUALSTYLE
  5
3F
102
{ACAD_XDICTIONARY
360
4AB
102
}
102
{ACAD_REACTORS
330
29
102
}
330
29
100
AcDbVisualStyle
  2
JitterOff
 70
    20
 71
     2
 72
     2
 73
     0
 90
        0
 40
-0.6
 41
-30.0
 62
     5
 63
     7
421
 16777215
 74
     1
 91
        4
 64
     7
 65
   257
 75
     1
175
     1
 42
1.0
 92
       10
 66
     7
 43
1.0
 76
     1
 77
     6
 78
     2
 67
     7
 79
     5
170
     0
171
     0
290
     0
174
     0
 93
        1
 44
0.0
173
     0
291
     1
 45
0.0
1001
ACAD
1000
AcDbSavedByObjectVersion
1070
     0
  0
VISUALSTYLE
  5
37
102
{ACAD_XDICTIONARY
360
49B
102
}
102
{ACAD_REACTORS
330
29
102
}
330
29
100
AcDbVisualStyle
  2
Linepattern
 70
    14
 71
     2
 72
     2
 73
     0
 90
        0
 40
-0.6
 41
-30.0
 62
     5
 63
     7
421
 16777215
 74
     1
 91
        4
 64
     7
 65
   257
 75
     7
175
     7
 42
1.0
 92
        8
 66
     7
 43
1.0
 76
     1
 77
     6
 78
     2
 67
     7
 79
     5
170
     0
171
     0
290
     0
174
     0
 93
        1
 44
0.0
173
     0
291
     1
 45
0.0
1001
ACAD
1000
AcDbSavedByObjectVersion
1070
     0
  0
VISUALSTYLE
  5
40
102
{ACAD_XDICTIONARY
360
4AD
102
}
102
{ACAD_REACTORS
330
29
102
}
330
29
100
AcDbVisualStyle
  2
OverhangOff
 70
    21
 71
     2
 72
     2
 73
     0
 90
        0
 40
-0.6
 41
-30.0
 62
     5
 63
     7
421
 16777215
 74
     1
 91
        4
 64
     7
 65
   257
 75
     1
175
     1
 42
1.0
 92
        9
 66
     7
 43
1.0
 76
     1
 77
     6
 78
     2
 67
     7
 79
     5
170
     0
171
     0
290
     0
174
     0
 93
        1
 44
0.0
173
     0
291
     1
 45
0.0
1001
ACAD
1000
AcDbSavedByObjectVersion
1070
     0
  0
VISUALSTYLE
  5
33
102
{ACAD_XDICTIONARY
360
493
102
}
102
{ACAD_REACTORS
330
29
102
}
330
29
100
AcDbVisualStyle
  2
Realistic
 70
     8
 71
     2
 72
     3
 73
     0
 90
        2
 40
-0.6
 41
30.0
 62
     5
 63
     7
421
 16777215
 74
     0
 91
        0
 64
     7
 65
   257
 75
     1
175
     1
 42
1.0
 92
        8
 66
   257
 43
1.0
 76
     1
 77
     6
 78
     2
 67
     7
 79
     3
170
     0
171
     0
290
     0
174
     0
 93
       13
 44
0.0
173
     0
291
     0
 45
0.0
1001
ACAD
1000
AcDbSavedByObjectVersion
1070
     0
  0
VISUALSTYLE
  5
3E
102
{ACAD_XDICTIONARY
360
4A9
102
}
102
{ACAD_REACTORS
330
29
102
}
330
29
100
AcDbVisualStyle
  2
Shaded
 70
    27
 71
     2
 72
     2
 73
     1
 90
        2
 40
-0.6
 41
30.0
 62
     5
 63
     7
421
 16777215
 74
     0
 91
        4
 64
     7
 65
   257
 75
     1
175
     1
 42
1.0
 92
        8
 66
   257
 43
1.0
 76
     1
 77
     6
 78
     2
 67
     8
425
  7895160
 79
     3
170
     0
171
     0
290
     0
174
     0
 93
        5
 44
0.0
173
     0
291
     0
 45
0.0
1001
ACAD
1000
AcDbSavedByObjectVersion
1070
     0
  0
VISUALSTYLE
  5
3D
102
{ACAD_XDICTIONARY
360
4A7
102
}
102
{ACAD_REACTORS
330
29
102
}
330
29
100
AcDbVisualStyle
  2
Shaded with edges
 70
    26
 71
     2
 72
     2
 73
     1
 90
        2
 40
-0.6
 41
30.0
 62
     5
 63
     7
421
 16777215
 74
     1
 91
        2
 64
     7
 65
   257
 75
     2
175
     1
 42
1.0
 92
        8
 66
   257
 43
1.0
 76
     1
 77
     6
 78
     2
 67
     7
 79
     3
170
     0
171
     0
290
     0
174
     0
 93
        5
 44
0.0
173
     0
291
     0
 45
0.0
1001
ACAD
1000
AcDbSavedByObjectVersion
1070
     0
  0
VISUALSTYLE
  5
3A
102
{ACAD_XDICTIONARY
360
4A1
102
}
102
{ACAD_REACTORS
330
29
102
}
330
29
100
AcDbVisualStyle
  2
Shades of Gray
 70
    23
 71
     2
 72
     2
 73
     3
 90
        0
 40
-0.6
 41
-30.0
 62
     5
 63
     7
421
 16777215
 74
     2
 91
        2
 64
     7
 65
     7
 75
     1
175
     1
 42
40.0
 92
        8
 66
     7
 43
1.0
 76
     1
 77
     6
 78
     2
 67
     7
 79
     3
170
     0
171
     0
290
     0
174
     0
 93
        1
 44
0.0
173
     0
291
     0
 45
0.0
1001
ACAD
1000
AcDbSavedByObjectVersion
1070
     0
  0
VISUALSTYLE
  5
3B
102
{ACAD_XDICTIONARY
360
4A3
102
}
102
{ACAD_REACTORS
330
29
102
}
330
29
100
AcDbVisualStyle
  2
Sketchy
 70
    24
 71
     1
 72
     2
 73
     2
 90
        0
 40
-0.6
 41
-30.0
 62
     5
 63
     7
421
 16777215
 74
     2
 91
        2
 64
     7
 65
     7
 75
     1
175
     1
 42
40.0
 92
       11
 66
     7
 43
1.0
 76
     1
 77
     6
 78
     2
 67
     7
 79
     6
170
     0
171
     0
290
     0
174
     0
 93
        1
 44
0.0
173
     0
291
     0
 45
0.0
1001
ACAD
1000
AcDbSavedByObjectVersion
1070
     0
  0
VISUALSTYLE
  5
36
102
{ACAD_XDICTIONARY
360
499
102
}
102
{ACAD_REACTORS
330
29
102
}
330
29
100
AcDbVisualStyle
  2
Thicken
 70
    13
 71
     2
 72
     2
 73
     0
 90
        0
 40
-0.6
 41
-30.0
 62
     5
 63
     7
421
 16777215
 74
     1
 91
        4
 64
     7
 65
   257
 75
     1
175
     1
 42
1.0
 92
       12
 66
     7
 43
1.0
 76
     1
 77
     6
 78
     2
 67
     7
 79
     5
170
     0
171
     0
290
     0
174
     0
 93
        1
 44
0.0
173
     0
291
     1
 45
0.0
1001
ACAD
1000
AcDbSavedByObjectVersion
1070
     0
  0
VISUALSTYLE
  5
30
102
{ACAD_XDICTIONARY
360
48D
102
}
102
{ACAD_REACTORS
330
29
102
}
330
29
100
AcDbVisualStyle
  2
Wireframe
 70
     5
 71
     0
 72
     2
 73
     0
 90
        0
 40
-0.6
 41
-30.0
 62
     5
 63
     7
421
 16777215
 74
     1
 91
        4
 64
     7
 65
   257
 75
     1
175
     1
 42
1.0
 92
        0
 66
   257
 43
1.0
 76
     1
 77
     6
 78
     2
 67
     7
 79
     3
170
     0
171
     0
290
     0
174
     0
 93
        1
 44
0.0
173
     0
291
     0
 45
0.0
1001
ACAD
1000
AcDbSavedByObjectVersion
1070
     0
  0
VISUALSTYLE
  5
3C
102
{ACAD_XDICTIONARY
360
4A5
102
}
102
{ACAD_REACTORS
330
29
102
}
330
29
100
AcDbVisualStyle
  2
X-Ray
 70
    25
 71
     2
 72
     2
 73
     1
 90
        1
 40
0.5
 41
-30.0
 62
     5
 63
     7
421
 16777215
 74
     1
 91
        0
 64
     7
 65
   257
 75
     1
175
     1
 42
1.0
 92
        8
 66
     7
 43
1.0
 76
     1
 77
     6
 78
     2
 67
     7
 79
     3
170
     0
171
     0
290
     0
174
     0
 93
       13
 44
0.0
173
     0
291
     0
 45
0.0
1001
ACAD
1000
AcDbSavedByObjectVersion
1070
     0
  0
DICTIONARYVAR
  5
471
102
{ACAD_REACTORS
330
78
102
}
330
78
100
DictionaryVariables
280
     0
  1
1:1
  0
DICTIONARYVAR
  5
79
102
{ACAD_REACTORS
330
78
102
}
330
78
100
DictionaryVariables
280
     0
  1
3.500000
  0
DICTIONARYVAR
  5
7A
102
{ACAD_REACTORS
330
78
102
}
330
78
100
DictionaryVariables
280
     0
  1
acadiso.lin
  0
DICTIONARYVAR
  5
46E
102
{ACAD_REACTORS
330
78
102
}
330
78
100
DictionaryVariables
280
     0
  1
STANDARD
  0
DICTIONARYVAR
  5
46D
102
{ACAD_REACTORS
330
78
102
}
330
78
100
DictionaryVariables
280
     0
  1
STANDARD
  0
DICTIONARYVAR
  5
46F
102
{ACAD_REACTORS
330
78
102
}
330
78
100
DictionaryVariables
280
     0
  1
Metric50
  0
DICTIONARYVAR
  5
470
102
{ACAD_REACTORS
330
78
102
}
330
78
100
DictionaryVariables
280
     0
  1
Metric50
  0
DICTIONARYVAR
  5
472
102
{ACAD_REACTORS
330
78
102
}
330
78
100
DictionaryVariables
280
     0
  1
2
  0
DICTIONARY
  5
480
102
{ACAD_REACTORS
330
47E
102
}
330
47E
100
AcDbDictionary
281
     1
  0
DICTIONARY
  5
47F
102
{ACAD_REACTORS
330
47E
102
}
330
47E
100
AcDbDictionary
281
     1
  3
2224952880144
350
479
  3
2224952880160
350
47A
  3
2224952880176
350
47B
  3
2224952880192
350
47C
  3
2224952880208
350
47D
  0
DICTIONARY
  5
4B6
330
6B
100
AcDbDictionary
280
     1
281
     1
  3
ACAD_XREC_ROUNDTRIP
360
4B7
  0
DICTIONARY
  5
1A
330
19
100
AcDbDictionary
280
     1
281
     1
  3
BUMPTILE
360
1C
  3
DIFFUSETILE
360
1B
  3
OPACITYTILE
360
1F
  3
REFLECTIONTILE
360
1E
  3
REFRACTIONTILE
360
20
  3
SPECULARTILE
360
1D
  0
DICTIONARY
  5
12
330
11
100
AcDbDictionary
280
     1
281
     1
  3
BUMPTILE
360
14
  3
DIFFUSETILE
360
13
  3
OPACITYTILE
360
17
  3
REFLECTIONTILE
360
16
  3
REFRACTIONTILE
360
18
  3
SPECULARTILE
360
15
  0
DICTIONARY
  5
22
330
21
100
AcDbDictionary
280
     1
281
     1
  3
BUMPTILE
360
24
  3
DIFFUSETILE
360
23
  3
OPACITYTILE
360
27
  3
REFLECTIONTILE
360
26
  3
REFRACTIONTILE
360
28
  3
SPECULARTILE
360
25
  0
DICTIONARY
  5
4B2
330
67
100
AcDbDictionary
280
     1
281
     1
  3
ACAD_XREC_ROUNDTRIP
360
4B3
  0
DICTIONARY
  5
4B4
330
69
100
AcDbDictionary
280
     1
281
     1
  3
ACAD_XREC_ROUNDTRIP
360
4B5
  0
DICTIONARY
  5
473
330
65
100
AcDbDictionary
280
     1
281
     1
  3
ACAD_ROUNDTRIP_2008_TABLESTYLE_CELLSTYLEMAP
360
474
  0
DICTIONARY
  5
48B
330
2F
100
AcDbDictionary
280
     1
281
     1
  3
ACAD_XREC_ROUNDTRIP
360
48C
  0
DICTIONARY
  5
489
330
2E
100
AcDbDictionary
280
     1
281
     1
  3
ACAD_XREC_ROUNDTRIP
360
48A
  0
DICTIONARY
  5
497
330
35
100
AcDbDictionary
280
     1
281
     1
  3
ACAD_XREC_ROUNDTRIP
360
498
  0
DICTIONARY
  5
49F
330
39
100
AcDbDictionary
280
     1
281
     1
  3
ACAD_XREC_ROUNDTRIP
360
4A0
  0
DICTIONARY
  5
491
330
32
100
AcDbDictionary
280
     1
281
     1
  3
ACAD_XREC_ROUNDTRIP
360
492
  0
DICTIONARY
  5
495
330
34
100
AcDbDictionary
280
     1
281
     1
  3
ACAD_XREC_ROUNDTRIP
360
496
  0
DICTIONARY
  5
4AF
330
41
100
AcDbDictionary
280
     1
281
     1
  3
ACAD_XREC_ROUNDTRIP
360
4B0
  0
DICTIONARY
  5
49D
330
38
100
AcDbDictionary
280
     1
281
     1
  3
ACAD_XREC_ROUNDTRIP
360
49E
  0
DICTIONARY
  5
481
330
2A
100
AcDbDictionary
280
     1
281
     1
  3
ACAD_XREC_ROUNDTRIP
360
482
  0
DICTIONARY
  5
483
330
2B
100
AcDbDictionary
280
     1
281
     1
  3
ACAD_XREC_ROUNDTRIP
360
484
  0
DICTIONARY
  5
485
330
2C
100
AcDbDictionary
280
     1
281
     1
  3
ACAD_XREC_ROUNDTRIP
360
486
  0
DICTIONARY
  5
487
330
2D
100
AcDbDictionary
280
     1
281
     1
  3
ACAD_XREC_ROUNDTRIP
360
488
  0
DICTIONARY
  5
48F
330
31
100
AcDbDictionary
280
     1
281
     1
  3
ACAD_XREC_ROUNDTRIP
360
490
  0
DICTIONARY
  5
4AB
330
3F
100
AcDbDictionary
280
     1
281
     1
  3
ACAD_XREC_ROUNDTRIP
360
4AC
  0
DICTIONARY
  5
49B
330
37
100
AcDbDictionary
280
     1
281
     1
  3
ACAD_XREC_ROUNDTRIP
360
49C
  0
DICTIONARY
  5
4AD
330
40
100
AcDbDictionary
280
     1
281
     1
  3
ACAD_XREC_ROUNDTRIP
360
4AE
  0
DICTIONARY
  5
493
330
33
100
AcDbDictionary
280
     1
281
     1
  3
ACAD_XREC_ROUNDTRIP
360
494
  0
DICTIONARY
  5
4A9
330
3E
100
AcDbDictionary
280
     1
281
     1
  3
ACAD_XREC_ROUNDTRIP
360
4AA
  0
DICTIONARY
  5
4A7
330
3D
100
AcDbDictionary
280
     1
281
     1
  3
ACAD_XREC_ROUNDTRIP
360
4A8
  0
DICTIONARY
  5
4A1
330
3A
100
AcDbDictionary
280
     1
281
     1
  3
ACAD_XREC_ROUNDTRIP
360
4A2
  0
DICTIONARY
  5
4A3
330
3B
100
AcDbDictionary
280
     1
281
     1
  3
ACAD_XREC_ROUNDTRIP
360
4A4
  0
DICTIONARY
  5
499
330
36
100
AcDbDictionary
280
     1
281
     1
  3
ACAD_XREC_ROUNDTRIP
360
49A
  0
DICTIONARY
  5
48D
330
30
100
AcDbDictionary
280
     1
281
     1
  3
ACAD_XREC_ROUNDTRIP
360
48E
  0
DICTIONARY
  5
4A5
330
3C
100
AcDbDictionary
280
     1
281
     1
  3
ACAD_XREC_ROUNDTRIP
360
4A6
  0
XRECORD
  5
479
102
{ACAD_REACTORS
330
47F
102
}
330
47F
100
AcDbXrecord
280
     1
  1
AcDb_Thumbnail_Schema
102
{ATTRRECORD
341
47A
  2
AcDbDs::TreatedAsObjectData
280
     1
291
     1
102
ATTRRECORD}
102
{ATTRRECORD
341
47B
  2
AcDbDs::Legacy
280
     1
291
     1
102
ATTRRECORD}
  2
AcDbDs::ID
280
    10
 91
        8
102
{ATTRRECORD
341
47C
  2
AcDs:Indexable
280
     1
291
     1
102
ATTRRECORD}
102
{ATTRRECORD
341
47D
  2
AcDbDs::HandleAttribute
280
     7
282
     1
102
ATTRRECORD}
  2
Thumbnail_Data
280
    15
 91
        0
  0
XRECORD
  5
47A
102
{ACAD_REACTORS
330
47F
102
}
330
47F
100
AcDbXrecord
280
     1
  1
AcDbDs::TreatedAsObjectDataSchema
  2
AcDbDs::TreatedAsObjectData
280
     1
 91
        0
  0
XRECORD
  5
47B
102
{ACAD_REACTORS
330
47F
102
}
330
47F
100
AcDbXrecord
280
     1
  1
AcDbDs::LegacySchema
  2
AcDbDs::Legacy
280
     1
 91
        0
  0
XRECORD
  5
47C
102
{ACAD_REACTORS
330
47F
102
}
330
47F
100
AcDbXrecord
280
     1
  1
AcDbDs::IndexedPropertySchema
  2
AcDs:Indexable
280
     1
 91
        0
  0
XRECORD
  5
47D
102
{ACAD_REACTORS
330
47F
102
}
330
47F
100
AcDbXrecord
280
     1
  1
AcDbDs::HandleAttributeSchema
  2
AcDbDs::HandleAttribute
280
     7
 91
        1
284
     1
  0
XRECORD
  5
4B7
102
{ACAD_REACTORS
330
4B6
102
}
330
4B6
100
AcDbXrecord
280
     1
102
DISPLAYNAME
  1
Metric50
102
FLAGS
 90
        0
  0
XRECORD
  5
1C
102
{ACAD_REACTORS
330
1A
102
}
330
1A
100
AcDbXrecord
280
     1
270
     1
271
     1
  0
XRECORD
  5
1B
102
{ACAD_REACTORS
330
1A
102
}
330
1A
100
AcDbXrecord
280
     1
270
     1
271
     1
  0
XRECORD
  5
1F
102
{ACAD_REACTORS
330
1A
102
}
330
1A
100
AcDbXrecord
280
     1
270
     1
271
     1
  0
XRECORD
  5
1E
102
{ACAD_REACTORS
330
1A
102
}
330
1A
100
AcDbXrecord
280
     1
270
     1
271
     1
  0
XRECORD
  5
20
102
{ACAD_REACTORS
330
1A
102
}
330
1A
100
AcDbXrecord
280
     1
270
     1
271
     1
  0
XRECORD
  5
1D
102
{ACAD_REACTORS
330
1A
102
}
330
1A
100
AcDbXrecord
280
     1
270
     1
271
     1
  0
XRECORD
  5
14
102
{ACAD_REACTORS
330
12
102
}
330
12
100
AcDbXrecord
280
     1
270
     1
271
     1
  0
XRECORD
  5
13
102
{ACAD_REACTORS
330
12
102
}
330
12
100
AcDbXrecord
280
     1
270
     1
271
     1
  0
XRECORD
  5
17
102
{ACAD_REACTORS
330
12
102
}
330
12
100
AcDbXrecord
280
     1
270
     1
271
     1
  0
XRECORD
  5
16
102
{ACAD_REACTORS
330
12
102
}
330
12
100
AcDbXrecord
280
     1
270
     1
271
     1
  0
XRECORD
  5
18
102
{ACAD_REACTORS
330
12
102
}
330
12
100
AcDbXrecord
280
     1
270
     1
271
     1
  0
XRECORD
  5
15
102
{ACAD_REACTORS
330
12
102
}
330
12
100
AcDbXrecord
280
     1
270
     1
271
     1
  0
XRECORD
  5
24
102
{ACAD_REACTORS
330
22
102
}
330
22
100
AcDbXrecord
280
     1
270
     1
271
     1
  0
XRECORD
  5
23
102
{ACAD_REACTORS
330
22
102
}
330
22
100
AcDbXrecord
280
     1
270
     1
271
     1
  0
XRECORD
  5
27
102
{ACAD_REACTORS
330
22
102
}
330
22
100
AcDbXrecord
280
     1
270
     1
271
     1
  0
XRECORD
  5
26
102
{ACAD_REACTORS
330
22
102
}
330
22
100
AcDbXrecord
280
     1
270
     1
271
     1
  0
XRECORD
  5
28
102
{ACAD_REACTORS
330
22
102
}
330
22
100
AcDbXrecord
280
     1
270
     1
271
     1
  0
XRECORD
  5
25
102
{ACAD_REACTORS
330
22
102
}
330
22
100
AcDbXrecord
280
     1
270
     1
271
     1
  0
XRECORD
  5
4B3
102
{ACAD_REACTORS
330
4B2
102
}
330
4B2
100
AcDbXrecord
280
     1
102
ACAD_ROUNDTRIP_2012_MLEADER_STYLE
298
     1
  0
XRECORD
  5
4B5
102
{ACAD_REACTORS
330
4B4
102
}
330
4B4
100
AcDbXrecord
280
     1
102
DISPLAYNAME
  1
Metric50
102
FLAGS
 90
        0
  0
CELLSTYLEMAP
  5
474
102
{ACAD_REACTORS
330
473
102
}
330
473
100
AcDbCellStyleMap
 90
        3
300
CELLSTYLE
  1
TABLEFORMAT_BEGIN
 90
        5
170
     1
 91
        0
 92
    32768
 62
   257
 93
        1
300
CONTENTFORMAT
  1
CONTENTFORMAT_BEGIN
 90
        0
 91
        0
 92
      512
 93
        0
300

 40
0.0
140
1.0
 94
        5
 62
     0
340
55
144
6.0
309
CONTENTFORMAT_END
171
     1
301
MARGIN
  1
CELLMARGIN_BEGIN
 40
1.5
 40
1.5
 40
1.5
 40
1.5
 40
4.5
 40
4.5
309
CELLMARGIN_END
 94
        6
 95
        1
302
GRIDFORMAT
  1
GRIDFORMAT_BEGIN
 90
        0
 91
        1
 62
     0
 92
       -2
340
0
 93
        0
 40
1.125
309
GRIDFORMAT_END
 95
        2
302
GRIDFORMAT
  1
GRIDFORMAT_BEGIN
 90
        0
 91
        1
 62
     0
 92
       -2
340
0
 93
        0
 40
1.125
309
GRIDFORMAT_END
 95
        4
302
GRIDFORMAT
  1
GRIDFORMAT_BEGIN
 90
        0
 91
        1
 62
     0
 92
       -2
340
0
 93
        0
 40
1.125
309
GRIDFORMAT_END
 95
        8
302
GRIDFORMAT
  1
GRIDFORMAT_BEGIN
 90
        0
 91
        1
 62
     0
 92
       -2
340
0
 93
        0
 40
1.125
309
GRIDFORMAT_END
 95
       16
302
GRIDFORMAT
  1
GRIDFORMAT_BEGIN
 90
        0
 91
        1
 62
     0
 92
       -2
340
0
 93
        0
 40
1.125
309
GRIDFORMAT_END
 95
       32
302
GRIDFORMAT
  1
GRIDFORMAT_BEGIN
 90
        0
 91
        1
 62
     0
 92
       -2
340
0
 93
        0
 40
1.125
309
GRIDFORMAT_END
309
TABLEFORMAT_END
  1
CELLSTYLE_BEGIN
 90
        1
 91
        1
300
_TITLE
309
CELLSTYLE_END
300
CELLSTYLE
  1
TABLEFORMAT_BEGIN
 90
        5
170
     1
 91
        0
 92
        0
 62
   257
 93
        1
300
CONTENTFORMAT
  1
CONTENTFORMAT_BEGIN
 90
        0
 91
        0
 92
      512
 93
        0
300

 40
0.0
140
1.0
 94
        5
 62
     0
340
55
144
4.5
309
CONTENTFORMAT_END
171
     1
301
MARGIN
  1
CELLMARGIN_BEGIN
 40
1.5
 40
1.5
 40
1.5
 40
1.5
 40
4.5
 40
4.5
309
CELLMARGIN_END
 94
        6
 95
        1
302
GRIDFORMAT
  1
GRIDFORMAT_BEGIN
 90
        0
 91
        1
 62
     0
 92
       -2
340
0
 93
        0
 40
1.125
309
GRIDFORMAT_END
 95
        2
302
GRIDFORMAT
  1
GRIDFORMAT_BEGIN
 90
        0
 91
        1
 62
     0
 92
       -2
340
0
 93
        0
 40
1.125
309
GRIDFORMAT_END
 95
        4
302
GRIDFORMAT
  1
GRIDFORMAT_BEGIN
 90
        0
 91
        1
 62
     0
 92
       -2
340
0
 93
        0
 40
1.125
309
GRIDFORMAT_END
 95
        8
302
GRIDFORMAT
  1
GRIDFORMAT_BEGIN
 90
        0
 91
        1
 62
     0
 92
       -2
340
0
 93
        0
 40
1.125
309
GRIDFORMAT_END
 95
       16
302
GRIDFORMAT
  1
GRIDFORMAT_BEGIN
 90
        0
 91
        1
 62
     0
 92
       -2
340
0
 93
        0
 40
1.125
309
GRIDFORMAT_END
 95
       32
302
GRIDFORMAT
  1
GRIDFORMAT_BEGIN
 90
        0
 91
        1
 62
     0
 92
       -2
340
0
 93
        0
 40
1.125
309
GRIDFORMAT_END
309
TABLEFORMAT_END
  1
CELLSTYLE_BEGIN
 90
        2
 91
        1
300
_HEADER
309
CELLSTYLE_END
300
CELLSTYLE
  1
TABLEFORMAT_BEGIN
 90
        5
170
     1
 91
        0
 92
        0
 62
   257
 93
        1
300
CONTENTFORMAT
  1
CONTENTFORMAT_BEGIN
 90
        0
 91
        0
 92
      512
 93
        0
300

 40
0.0
140
1.0
 94
        2
 62
     0
340
55
144
4.5
309
CONTENTFORMAT_END
171
     1
301
MARGIN
  1
CELLMARGIN_BEGIN
 40
1.5
 40
1.5
 40
1.5
 40
1.5
 40
4.5
 40
4.5
309
CELLMARGIN_END
 94
        6
 95
        1
302
GRIDFORMAT
  1
GRIDFORMAT_BEGIN
 90
        0
 91
        1
 62
     0
 92
       -2
340
0
 93
        0
 40
1.125
309
GRIDFORMAT_END
 95
        2
302
GRIDFORMAT
  1
GRIDFORMAT_BEGIN
 90
        0
 91
        1
 62
     0
 92
       -2
340
0
 93
        0
 40
1.125
309
GRIDFORMAT_END
 95
        4
302
GRIDFORMAT
  1
GRIDFORMAT_BEGIN
 90
        0
 91
        1
 62
     0
 92
       -2
340
0
 93
        0
 40
1.125
309
GRIDFORMAT_END
 95
        8
302
GRIDFORMAT
  1
GRIDFORMAT_BEGIN
 90
        0
 91
        1
 62
     0
 92
       -2
340
0
 93
        0
 40
1.125
309
GRIDFORMAT_END
 95
       16
302
GRIDFORMAT
  1
GRIDFORMAT_BEGIN
 90
        0
 91
        1
 62
     0
 92
       -2
340
0
 93
        0
 40
1.125
309
GRIDFORMAT_END
 95
       32
302
GRIDFORMAT
  1
GRIDFORMAT_BEGIN
 90
        0
 91
        1
 62
     0
 92
       -2
340
0
 93
        0
 40
1.125
309
GRIDFORMAT_END
309
TABLEFORMAT_END
  1
CELLSTYLE_BEGIN
 90
        3
 91
        2
300
_DATA
309
CELLSTYLE_END
  0
XRECORD
  5
48C
102
{ACAD_REACTORS
330
48B
102
}
330
48B
100
AcDbXrecord
280
     1
102
RTVSPost2010Prop28
280
     1
102
RTVSPost2010PropOp28
 70
     1
102
RTVSPost2010Prop29
280
     1
102
RTVSPost2010PropOp29
 70
     1
102
RTVSPost2010Prop30
280
     0
102
RTVSPost2010PropOp30
 70
     1
102
RTVSPost2010Prop31
280
     0
102
RTVSPost2010PropOp31
 70
     1
102
RTVSPost2010Prop32
280
     0
102
RTVSPost2010PropOp32
 70
     1
102
RTVSPost2010Prop33
280
     0
102
RTVSPost2010PropOp33
 70
     1
102
RTVSPost2010Prop34
280
     0
102
RTVSPost2010PropOp34
 70
     1
102
RTVSPost2010Prop35
280
     0
102
RTVSPost2010PropOp35
 70
     1
102
RTVSPost2010Prop36
280
     0
102
RTVSPost2010PropOp36
 70
     1
102
RTVSPost2010Prop37
 90
       50
102
RTVSPost2010PropOp37
 70
     1
102
RTVSPost2010Prop38
140
0.0
102
RTVSPost2010PropOp38
 70
     1
102
RTVSPost2010Prop39
140
1.0
102
RTVSPost2010PropOp39
 70
     1
102
RTVSPost2010Prop40
 90
        0
102
RTVSPost2010PropOp40
 70
     1
102
RTVSPost2010Prop41ColorIndex
 90
       18
102
RTVSPost2010Prop41ColorRGB
 90
        0
102
RTVSPost2010PropOp41
 70
     1
102
RTVSPost2010Prop42
 90
       50
102
RTVSPost2010PropOp42
 70
     1
102
RTVSPost2010Prop43
 90
        3
102
RTVSPost2010PropOp43
 70
     1
102
RTVSPost2010Prop44ColorIndex
 90
        5
102
RTVSPost2010Prop44ColorRGB
 90
      255
102
RTVSPost2010PropOp44
 70
     1
102
RTVSPost2010Prop45
280
     0
102
RTVSPost2010PropOp45
 70
     1
102
RTVSPost2010Prop46
 90
       50
102
RTVSPost2010PropOp46
 70
     1
102
RTVSPost2010Prop47
 90
       50
102
RTVSPost2010PropOp47
 70
     1
102
RTVSPost2010Prop48
 90
       50
102
RTVSPost2010PropOp48
 70
     1
102
RTVSPost2010Prop49
280
     0
102
RTVSPost2010PropOp49
 70
     1
102
RTVSPost2010Prop50
 90
       50
102
RTVSPost2010PropOp50
 70
     1
102
RTVSPost2010Prop51ColorIndex
 90
      256
102
RTVSPost2010Prop51ColorRGB
 90
-16777216
102
RTVSPost2010PropOp51
 70
     0
102
RTVSPost2010Prop52
140
1.0
102
RTVSPost2010PropOp52
 70
     0
102
RTVSPost2010Prop53
 90
        2
102
RTVSPost2010PropOp53
 70
     1
102
RTVSPost2010Prop54
  1
strokes_ogs.tif
102
RTVSPost2010PropOp54
 70
     1
102
RTVSPost2010Prop55
280
     0
102
RTVSPost2010PropOp55
 70
     1
102
RTVSPost2010Prop56
140
1.0
102
RTVSPost2010PropOp56
 70
     1
102
RTVSPost2010Prop57
140
1.0
102
RTVSPost2010PropOp57
 70
     1
102
RTVSPropertyOp0
 70
     1
102
RTVSPropertyOp1
 70
     1
102
RTVSPropertyOp2
 70
     1
102
RTVSPropertyOp3
 70
     1
102
RTVSPropertyOp4
 70
     1
102
RTVSPropertyOp5
 70
     1
102
RTVSPropertyOp6
 70
     1
102
RTVSPropertyOp7
 70
     1
102
RTVSPropertyOp8
 70
     1
102
RTVSPropertyOp9
 70
     1
102
RTVSPropertyOp10
 70
     1
102
RTVSPropertyOp11
 70
     1
102
RTVSPropertyOp12
 70
     1
102
RTVSPropertyOp13
 70
     1
102
RTVSPropertyOp14
 70
     1
102
RTVSPropertyOp15
 70
     1
102
RTVSPropertyOp16
 70
     1
102
RTVSPropertyOp17
 70
     1
102
RTVSPropertyOp18
 70
     1
102
RTVSPropertyOp19
 70
     1
102
RTVSPropertyOp20
 70
     1
102
RTVSPropertyOp21
 70
     1
102
RTVSPropertyOp22
 70
     1
102
RTVSPropertyOp23
 70
     1
102
RTVSPropertyOp24
 70
     1
102
RTVSPropertyOp25
 70
     1
102
RTVSPropertyOp26
 70
     1
102
RTVSPropertyOp27
 70
     1
102
RTVSPropertyOp28
 70
     1
102
RTVSPropertyOp29
 70
     1
102
RTVSPropertyOp30
 70
     1
102
RTVSPropertyOp31
 70
     1
102
RTVSPropertyOp32
 70
     1
102
RTVSPropertyOp33
 70
     1
102
RTVSPropertyOp34
 70
     1
102
RTVSPropertyOp35
 70
     1
102
RTVSPropertyOp36
 70
     1
102
RTVSPropertyOp37
 70
     1
102
RTVSPropertyOp38
 70
     1
102
RTVSPropertyOp39
 70
     1
102
RTVSPropertyOp40
 70
     1
102
RTVSPropertyOp41
 70
     1
102
RTVSPropertyOp42
 70
     1
102
RTVSPropertyOp43
 70
     1
102
RTVSPropertyOp44
 70
     1
102
RTVSPropertyOp45
 70
     1
102
RTVSPropertyOp46
 70
     1
102
RTVSPropertyOp47
 70
     1
102
RTVSPropertyOp48
 70
     1
102
RTVSPropertyOp49
 70
     1
102
RTVSPropertyOp50
 70
     1
102
RTVSPropertyOp51
 70
     0
102
RTVSPropertyOp52
 70
     0
102
RTVSPropertyOp53
 70
     1
102
RTVSPropertyOp54
 70
     1
102
RTVSPropertyOp55
 70
     1
102
RTVSPropertyOp56
 70
     1
102
RTVSPropertyOp57
 70
     1
102
RTVSPropertyOp58
 70
     1
102
RTVSPropertyOp59
 70
     1
102
RTVSPropertyOp60
 70
     1
102
RTVSPropertyOp61
 70
     1
102
RTVSPropertyOp62
 70
     1
  0
XRECORD
  5
48A
102
{ACAD_REACTORS
330
489
102
}
330
489
100
AcDbXrecord
280
     1
102
RTVSPost2010Prop28
280
     0
102
RTVSPost2010PropOp28
 70
     1
102
RTVSPost2010Prop29
280
     1
102
RTVSPost2010PropOp29
 70
     1
102
RTVSPost2010Prop30
280
     1
102
RTVSPost2010PropOp30
 70
     1
102
RTVSPost2010Prop31
280
     0
102
RTVSPost2010PropOp31
 70
     1
102
RTVSPost2010Prop32
280
     0
102
RTVSPost2010PropOp32
 70
     1
102
RTVSPost2010Prop33
280
     0
102
RTVSPost2010PropOp33
 70
     1
102
RTVSPost2010Prop34
280
     0
102
RTVSPost2010PropOp34
 70
     1
102
RTVSPost2010Prop35
280
     0
102
RTVSPost2010PropOp35
 70
     1
102
RTVSPost2010Prop36
280
     0
102
RTVSPost2010PropOp36
 70
     1
102
RTVSPost2010Prop37
 90
       50
102
RTVSPost2010PropOp37
 70
     1
102
RTVSPost2010Prop38
140
0.0
102
RTVSPost2010PropOp38
 70
     1
102
RTVSPost2010Prop39
140
1.0
102
RTVSPost2010PropOp39
 70
     1
102
RTVSPost2010Prop40
 90
        0
102
RTVSPost2010PropOp40
 70
     1
102
RTVSPost2010Prop41ColorIndex
 90
       18
102
RTVSPost2010Prop41ColorRGB
 90
        0
102
RTVSPost2010PropOp41
 70
     1
102
RTVSPost2010Prop42
 90
       50
102
RTVSPost2010PropOp42
 70
     1
102
RTVSPost2010Prop43
 90
        3
102
RTVSPost2010PropOp43
 70
     1
102
RTVSPost2010Prop44ColorIndex
 90
        5
102
RTVSPost2010Prop44ColorRGB
 90
      255
102
RTVSPost2010PropOp44
 70
     1
102
RTVSPost2010Prop45
280
     0
102
RTVSPost2010PropOp45
 70
     1
102
RTVSPost2010Prop46
 90
       50
102
RTVSPost2010PropOp46
 70
     1
102
RTVSPost2010Prop47
 90
       50
102
RTVSPost2010PropOp47
 70
     1
102
RTVSPost2010Prop48
 90
       50
102
RTVSPost2010PropOp48
 70
     1
102
RTVSPost2010Prop49
280
     0
102
RTVSPost2010PropOp49
 70
     1
102
RTVSPost2010Prop50
 90
       50
102
RTVSPost2010PropOp50
 70
     1
102
RTVSPost2010Prop51ColorIndex
 90
      256
102
RTVSPost2010Prop51ColorRGB
 90
-16777216
102
RTVSPost2010PropOp51
 70
     0
102
RTVSPost2010Prop52
140
1.0
102
RTVSPost2010PropOp52
 70
     0
102
RTVSPost2010Prop53
 90
        2
102
RTVSPost2010PropOp53
 70
     1
102
RTVSPost2010Prop54
  1
strokes_ogs.tif
102
RTVSPost2010PropOp54
 70
     1
102
RTVSPost2010Prop55
280
     0
102
RTVSPost2010PropOp55
 70
     1
102
RTVSPost2010Prop56
140
1.0
102
RTVSPost2010PropOp56
 70
     1
102
RTVSPost2010Prop57
140
1.0
102
RTVSPost2010PropOp57
 70
     1
102
RTVSPropertyOp0
 70
     1
102
RTVSPropertyOp1
 70
     1
102
RTVSPropertyOp2
 70
     1
102
RTVSPropertyOp3
 70
     1
102
RTVSPropertyOp4
 70
     1
102
RTVSPropertyOp5
 70
     1
102
RTVSPropertyOp6
 70
     1
102
RTVSPropertyOp7
 70
     1
102
RTVSPropertyOp8
 70
     1
102
RTVSPropertyOp9
 70
     1
102
RTVSPropertyOp10
 70
     1
102
RTVSPropertyOp11
 70
     1
102
RTVSPropertyOp12
 70
     1
102
RTVSPropertyOp13
 70
     1
102
RTVSPropertyOp14
 70
     1
102
RTVSPropertyOp15
 70
     1
102
RTVSPropertyOp16
 70
     1
102
RTVSPropertyOp17
 70
     1
102
RTVSPropertyOp18
 70
     1
102
RTVSPropertyOp19
 70
     1
102
RTVSPropertyOp20
 70
     1
102
RTVSPropertyOp21
 70
     1
102
RTVSPropertyOp22
 70
     1
102
RTVSPropertyOp23
 70
     1
102
RTVSPropertyOp24
 70
     1
102
RTVSPropertyOp25
 70
     1
102
RTVSPropertyOp26
 70
     1
102
RTVSPropertyOp27
 70
     1
102
RTVSPropertyOp28
 70
     1
102
RTVSPropertyOp29
 70
     1
102
RTVSPropertyOp30
 70
     1
102
RTVSPropertyOp31
 70
     1
102
RTVSPropertyOp32
 70
     1
102
RTVSPropertyOp33
 70
     1
102
RTVSPropertyOp34
 70
     1
102
RTVSPropertyOp35
 70
     1
102
RTVSPropertyOp36
 70
     1
102
RTVSPropertyOp37
 70
     1
102
RTVSPropertyOp38
 70
     1
102
RTVSPropertyOp39
 70
     1
102
RTVSPropertyOp40
 70
     1
102
RTVSPropertyOp41
 70
     1
102
RTVSPropertyOp42
 70
     1
102
RTVSPropertyOp43
 70
     1
102
RTVSPropertyOp44
 70
     1
102
RTVSPropertyOp45
 70
     1
102
RTVSPropertyOp46
 70
     1
102
RTVSPropertyOp47
 70
     1
102
RTVSPropertyOp48
 70
     1
102
RTVSPropertyOp49
 70
     1
102
RTVSPropertyOp50
 70
     1
102
RTVSPropertyOp51
 70
     0
102
RTVSPropertyOp52
 70
     0
102
RTVSPropertyOp53
 70
     1
102
RTVSPropertyOp54
 70
     1
102
RTVSPropertyOp55
 70
     1
102
RTVSPropertyOp56
 70
     1
102
RTVSPropertyOp57
 70
     1
102
RTVSPropertyOp58
 70
     1
102
RTVSPropertyOp59
 70
     1
102
RTVSPropertyOp60
 70
     1
102
RTVSPropertyOp61
 70
     1
102
RTVSPropertyOp62
 70
     1
  0
XRECORD
  5
498
102
{ACAD_REACTORS
330
497
102
}
330
497
100
AcDbXrecord
280
     1
102
RTVSPost2010Prop28
280
     0
102
RTVSPost2010PropOp28
 70
     1
102
RTVSPost2010Prop29
280
     1
102
RTVSPost2010PropOp29
 70
     1
102
RTVSPost2010Prop30
280
     1
102
RTVSPost2010PropOp30
 70
     1
102
RTVSPost2010Prop31
280
     0
102
RTVSPost2010PropOp31
 70
     1
102
RTVSPost2010Prop32
280
     0
102
RTVSPost2010PropOp32
 70
     1
102
RTVSPost2010Prop33
280
     0
102
RTVSPost2010PropOp33
 70
     1
102
RTVSPost2010Prop34
280
     0
102
RTVSPost2010PropOp34
 70
     1
102
RTVSPost2010Prop35
280
     0
102
RTVSPost2010PropOp35
 70
     1
102
RTVSPost2010Prop36
280
     0
102
RTVSPost2010PropOp36
 70
     1
102
RTVSPost2010Prop37
 90
       50
102
RTVSPost2010PropOp37
 70
     1
102
RTVSPost2010Prop38
140
0.0
102
RTVSPost2010PropOp38
 70
     1
102
RTVSPost2010Prop39
140
1.0
102
RTVSPost2010PropOp39
 70
     1
102
RTVSPost2010Prop40
 90
        0
102
RTVSPost2010PropOp40
 70
     1
102
RTVSPost2010Prop41ColorIndex
 90
       18
102
RTVSPost2010Prop41ColorRGB
 90
        0
102
RTVSPost2010PropOp41
 70
     1
102
RTVSPost2010Prop42
 90
       50
102
RTVSPost2010PropOp42
 70
     1
102
RTVSPost2010Prop43
 90
        3
102
RTVSPost2010PropOp43
 70
     1
102
RTVSPost2010Prop44ColorIndex
 90
        5
102
RTVSPost2010Prop44ColorRGB
 90
      255
102
RTVSPost2010PropOp44
 70
     1
102
RTVSPost2010Prop45
280
     0
102
RTVSPost2010PropOp45
 70
     1
102
RTVSPost2010Prop46
 90
       50
102
RTVSPost2010PropOp46
 70
     1
102
RTVSPost2010Prop47
 90
       50
102
RTVSPost2010PropOp47
 70
     1
102
RTVSPost2010Prop48
 90
       50
102
RTVSPost2010PropOp48
 70
     1
102
RTVSPost2010Prop49
280
     0
102
RTVSPost2010PropOp49
 70
     1
102
RTVSPost2010Prop50
 90
       50
102
RTVSPost2010PropOp50
 70
     1
102
RTVSPost2010Prop51ColorIndex
 90
      256
102
RTVSPost2010Prop51ColorRGB
 90
-16777216
102
RTVSPost2010PropOp51
 70
     0
102
RTVSPost2010Prop52
140
1.0
102
RTVSPost2010PropOp52
 70
     0
102
RTVSPost2010Prop53
 90
        2
102
RTVSPost2010PropOp53
 70
     1
102
RTVSPost2010Prop54
  1
strokes_ogs.tif
102
RTVSPost2010PropOp54
 70
     1
102
RTVSPost2010Prop55
280
     0
102
RTVSPost2010PropOp55
 70
     1
102
RTVSPost2010Prop56
140
1.0
102
RTVSPost2010PropOp56
 70
     1
102
RTVSPost2010Prop57
140
1.0
102
RTVSPost2010PropOp57
 70
     1
102
RTVSPropertyOp0
 70
     1
102
RTVSPropertyOp1
 70
     1
102
RTVSPropertyOp2
 70
     1
102
RTVSPropertyOp3
 70
     1
102
RTVSPropertyOp4
 70
     1
102
RTVSPropertyOp5
 70
     1
102
RTVSPropertyOp6
 70
     1
102
RTVSPropertyOp7
 70
     1
102
RTVSPropertyOp8
 70
     1
102
RTVSPropertyOp9
 70
     1
102
RTVSPropertyOp10
 70
     1
102
RTVSPropertyOp11
 70
     1
102
RTVSPropertyOp12
 70
     1
102
RTVSPropertyOp13
 70
     1
102
RTVSPropertyOp14
 70
     1
102
RTVSPropertyOp15
 70
     1
102
RTVSPropertyOp16
 70
     1
102
RTVSPropertyOp17
 70
     1
102
RTVSPropertyOp18
 70
     1
102
RTVSPropertyOp19
 70
     1
102
RTVSPropertyOp20
 70
     1
102
RTVSPropertyOp21
 70
     1
102
RTVSPropertyOp22
 70
     1
102
RTVSPropertyOp23
 70
     1
102
RTVSPropertyOp24
 70
     1
102
RTVSPropertyOp25
 70
     1
102
RTVSPropertyOp26
 70
     1
102
RTVSPropertyOp27
 70
     1
102
RTVSPropertyOp28
 70
     1
102
RTVSPropertyOp29
 70
     1
102
RTVSPropertyOp30
 70
     1
102
RTVSPropertyOp31
 70
     1
102
RTVSPropertyOp32
 70
     1
102
RTVSPropertyOp33
 70
     1
102
RTVSPropertyOp34
 70
     1
102
RTVSPropertyOp35
 70
     1
102
RTVSPropertyOp36
 70
     1
102
RTVSPropertyOp37
 70
     1
102
RTVSPropertyOp38
 70
     1
102
RTVSPropertyOp39
 70
     1
102
RTVSPropertyOp40
 70
     1
102
RTVSPropertyOp41
 70
     1
102
RTVSPropertyOp42
 70
     1
102
RTVSPropertyOp43
 70
     1
102
RTVSPropertyOp44
 70
     1
102
RTVSPropertyOp45
 70
     1
102
RTVSPropertyOp46
 70
     1
102
RTVSPropertyOp47
 70
     1
102
RTVSPropertyOp48
 70
     1
102
RTVSPropertyOp49
 70
     1
102
RTVSPropertyOp50
 70
     1
102
RTVSPropertyOp51
 70
     0
102
RTVSPropertyOp52
 70
     0
102
RTVSPropertyOp53
 70
     1
102
RTVSPropertyOp54
 70
     1
102
RTVSPropertyOp55
 70
     1
102
RTVSPropertyOp56
 70
     1
102
RTVSPropertyOp57
 70
     1
102
RTVSPropertyOp58
 70
     1
102
RTVSPropertyOp59
 70
     1
102
RTVSPropertyOp60
 70
     1
102
RTVSPropertyOp61
 70
     1
102
RTVSPropertyOp62
 70
     1
  0
XRECORD
  5
4A0
102
{ACAD_REACTORS
330
49F
102
}
330
49F
100
AcDbXrecord
280
     1
102
RTVSPost2010Prop28
280
     0
102
RTVSPost2010PropOp28
 70
     1
102
RTVSPost2010Prop29
280
     1
102
RTVSPost2010PropOp29
 70
     1
102
RTVSPost2010Prop30
280
     1
102
RTVSPost2010PropOp30
 70
     1
102
RTVSPost2010Prop31
280
     0
102
RTVSPost2010PropOp31
 70
     1
102
RTVSPost2010Prop32
280
     0
102
RTVSPost2010PropOp32
 70
     1
102
RTVSPost2010Prop33
280
     0
102
RTVSPost2010PropOp33
 70
     1
102
RTVSPost2010Prop34
280
     0
102
RTVSPost2010PropOp34
 70
     1
102
RTVSPost2010Prop35
280
     0
102
RTVSPost2010PropOp35
 70
     1
102
RTVSPost2010Prop36
280
     0
102
RTVSPost2010PropOp36
 70
     1
102
RTVSPost2010Prop37
 90
       50
102
RTVSPost2010PropOp37
 70
     1
102
RTVSPost2010Prop38
140
0.0
102
RTVSPost2010PropOp38
 70
     1
102
RTVSPost2010Prop39
140
1.0
102
RTVSPost2010PropOp39
 70
     1
102
RTVSPost2010Prop40
 90
        0
102
RTVSPost2010PropOp40
 70
     1
102
RTVSPost2010Prop41ColorIndex
 90
       18
102
RTVSPost2010Prop41ColorRGB
 90
        0
102
RTVSPost2010PropOp41
 70
     1
102
RTVSPost2010Prop42
 90
       50
102
RTVSPost2010PropOp42
 70
     1
102
RTVSPost2010Prop43
 90
        3
102
RTVSPost2010PropOp43
 70
     1
102
RTVSPost2010Prop44ColorIndex
 90
        5
102
RTVSPost2010Prop44ColorRGB
 90
      255
102
RTVSPost2010PropOp44
 70
     1
102
RTVSPost2010Prop45
280
     0
102
RTVSPost2010PropOp45
 70
     1
102
RTVSPost2010Prop46
 90
       50
102
RTVSPost2010PropOp46
 70
     1
102
RTVSPost2010Prop47
 90
       50
102
RTVSPost2010PropOp47
 70
     1
102
RTVSPost2010Prop48
 90
       50
102
RTVSPost2010PropOp48
 70
     1
102
RTVSPost2010Prop49
280
     0
102
RTVSPost2010PropOp49
 70
     1
102
RTVSPost2010Prop50
 90
       50
102
RTVSPost2010PropOp50
 70
     1
102
RTVSPost2010Prop51ColorIndex
 90
      256
102
RTVSPost2010Prop51ColorRGB
 90
-16777216
102
RTVSPost2010PropOp51
 70
     0
102
RTVSPost2010Prop52
140
1.0
102
RTVSPost2010PropOp52
 70
     0
102
RTVSPost2010Prop53
 90
        2
102
RTVSPost2010PropOp53
 70
     1
102
RTVSPost2010Prop54
  1
strokes_ogs.tif
102
RTVSPost2010PropOp54
 70
     1
102
RTVSPost2010Prop55
280
     0
102
RTVSPost2010PropOp55
 70
     1
102
RTVSPost2010Prop56
140
1.0
102
RTVSPost2010PropOp56
 70
     1
102
RTVSPost2010Prop57
140
1.0
102
RTVSPost2010PropOp57
 70
     1
102
RTVSPropertyOp0
 70
     1
102
RTVSPropertyOp1
 70
     1
102
RTVSPropertyOp2
 70
     1
102
RTVSPropertyOp3
 70
     1
102
RTVSPropertyOp4
 70
     1
102
RTVSPropertyOp5
 70
     1
102
RTVSPropertyOp6
 70
     1
102
RTVSPropertyOp7
 70
     1
102
RTVSPropertyOp8
 70
     1
102
RTVSPropertyOp9
 70
     1
102
RTVSPropertyOp10
 70
     1
102
RTVSPropertyOp11
 70
     1
102
RTVSPropertyOp12
 70
     1
102
RTVSPropertyOp13
 70
     1
102
RTVSPropertyOp14
 70
     1
102
RTVSPropertyOp15
 70
     1
102
RTVSPropertyOp16
 70
     1
102
RTVSPropertyOp17
 70
     1
102
RTVSPropertyOp18
 70
     1
102
RTVSPropertyOp19
 70
     1
102
RTVSPropertyOp20
 70
     1
102
RTVSPropertyOp21
 70
     1
102
RTVSPropertyOp22
 70
     1
102
RTVSPropertyOp23
 70
     1
102
RTVSPropertyOp24
 70
     1
102
RTVSPropertyOp25
 70
     1
102
RTVSPropertyOp26
 70
     1
102
RTVSPropertyOp27
 70
     1
102
RTVSPropertyOp28
 70
     1
102
RTVSPropertyOp29
 70
     1
102
RTVSPropertyOp30
 70
     1
102
RTVSPropertyOp31
 70
     1
102
RTVSPropertyOp32
 70
     1
102
RTVSPropertyOp33
 70
     1
102
RTVSPropertyOp34
 70
     1
102
RTVSPropertyOp35
 70
     1
102
RTVSPropertyOp36
 70
     1
102
RTVSPropertyOp37
 70
     1
102
RTVSPropertyOp38
 70
     1
102
RTVSPropertyOp39
 70
     1
102
RTVSPropertyOp40
 70
     1
102
RTVSPropertyOp41
 70
     1
102
RTVSPropertyOp42
 70
     1
102
RTVSPropertyOp43
 70
     1
102
RTVSPropertyOp44
 70
     1
102
RTVSPropertyOp45
 70
     1
102
RTVSPropertyOp46
 70
     1
102
RTVSPropertyOp47
 70
     1
102
RTVSPropertyOp48
 70
     1
102
RTVSPropertyOp49
 70
     1
102
RTVSPropertyOp50
 70
     1
102
RTVSPropertyOp51
 70
     0
102
RTVSPropertyOp52
 70
     0
102
RTVSPropertyOp53
 70
     1
102
RTVSPropertyOp54
 70
     1
102
RTVSPropertyOp55
 70
     1
102
RTVSPropertyOp56
 70
     1
102
RTVSPropertyOp57
 70
     1
102
RTVSPropertyOp58
 70
     1
102
RTVSPropertyOp59
 70
     1
102
RTVSPropertyOp60
 70
     1
102
RTVSPropertyOp61
 70
     1
102
RTVSPropertyOp62
 70
     1
  0
XRECORD
  5
492
102
{ACAD_REACTORS
330
491
102
}
330
491
100
AcDbXrecord
280
     1
102
RTVSPost2010Prop28
280
     0
102
RTVSPost2010PropOp28
 70
     1
102
RTVSPost2010Prop29
280
     1
102
RTVSPost2010PropOp29
 70
     1
102
RTVSPost2010Prop30
280
     1
102
RTVSPost2010PropOp30
 70
     1
102
RTVSPost2010Prop31
280
     0
102
RTVSPost2010PropOp31
 70
     1
102
RTVSPost2010Prop32
280
     0
102
RTVSPost2010PropOp32
 70
     1
102
RTVSPost2010Prop33
280
     0
102
RTVSPost2010PropOp33
 70
     1
102
RTVSPost2010Prop34
280
     0
102
RTVSPost2010PropOp34
 70
     1
102
RTVSPost2010Prop35
280
     0
102
RTVSPost2010PropOp35
 70
     1
102
RTVSPost2010Prop36
280
     0
102
RTVSPost2010PropOp36
 70
     1
102
RTVSPost2010Prop37
 90
       50
102
RTVSPost2010PropOp37
 70
     1
102
RTVSPost2010Prop38
140
0.0
102
RTVSPost2010PropOp38
 70
     1
102
RTVSPost2010Prop39
140
1.0
102
RTVSPost2010PropOp39
 70
     1
102
RTVSPost2010Prop40
 90
        0
102
RTVSPost2010PropOp40
 70
     1
102
RTVSPost2010Prop41ColorIndex
 90
       18
102
RTVSPost2010Prop41ColorRGB
 90
        0
102
RTVSPost2010PropOp41
 70
     1
102
RTVSPost2010Prop42
 90
       50
102
RTVSPost2010PropOp42
 70
     1
102
RTVSPost2010Prop43
 90
        3
102
RTVSPost2010PropOp43
 70
     1
102
RTVSPost2010Prop44ColorIndex
 90
        5
102
RTVSPost2010Prop44ColorRGB
 90
      255
102
RTVSPost2010PropOp44
 70
     1
102
RTVSPost2010Prop45
280
     0
102
RTVSPost2010PropOp45
 70
     1
102
RTVSPost2010Prop46
 90
       50
102
RTVSPost2010PropOp46
 70
     1
102
RTVSPost2010Prop47
 90
       50
102
RTVSPost2010PropOp47
 70
     1
102
RTVSPost2010Prop48
 90
       50
102
RTVSPost2010PropOp48
 70
     1
102
RTVSPost2010Prop49
280
     0
102
RTVSPost2010PropOp49
 70
     1
102
RTVSPost2010Prop50
 90
       50
102
RTVSPost2010PropOp50
 70
     1
102
RTVSPost2010Prop51ColorIndex
 90
      256
102
RTVSPost2010Prop51ColorRGB
 90
-16777216
102
RTVSPost2010PropOp51
 70
     0
102
RTVSPost2010Prop52
140
1.0
102
RTVSPost2010PropOp52
 70
     0
102
RTVSPost2010Prop53
 90
        2
102
RTVSPost2010PropOp53
 70
     1
102
RTVSPost2010Prop54
  1
strokes_ogs.tif
102
RTVSPost2010PropOp54
 70
     1
102
RTVSPost2010Prop55
280
     0
102
RTVSPost2010PropOp55
 70
     1
102
RTVSPost2010Prop56
140
1.0
102
RTVSPost2010PropOp56
 70
     1
102
RTVSPost2010Prop57
140
1.0
102
RTVSPost2010PropOp57
 70
     1
102
RTVSPropertyOp0
 70
     1
102
RTVSPropertyOp1
 70
     1
102
RTVSPropertyOp2
 70
     1
102
RTVSPropertyOp3
 70
     1
102
RTVSPropertyOp4
 70
     1
102
RTVSPropertyOp5
 70
     1
102
RTVSPropertyOp6
 70
     1
102
RTVSPropertyOp7
 70
     1
102
RTVSPropertyOp8
 70
     1
102
RTVSPropertyOp9
 70
     1
102
RTVSPropertyOp10
 70
     1
102
RTVSPropertyOp11
 70
     1
102
RTVSPropertyOp12
 70
     1
102
RTVSPropertyOp13
 70
     1
102
RTVSPropertyOp14
 70
     1
102
RTVSPropertyOp15
 70
     1
102
RTVSPropertyOp16
 70
     1
102
RTVSPropertyOp17
 70
     1
102
RTVSPropertyOp18
 70
     1
102
RTVSPropertyOp19
 70
     1
102
RTVSPropertyOp20
 70
     1
102
RTVSPropertyOp21
 70
     1
102
RTVSPropertyOp22
 70
     1
102
RTVSPropertyOp23
 70
     1
102
RTVSPropertyOp24
 70
     1
102
RTVSPropertyOp25
 70
     1
102
RTVSPropertyOp26
 70
     1
102
RTVSPropertyOp27
 70
     1
102
RTVSPropertyOp28
 70
     1
102
RTVSPropertyOp29
 70
     1
102
RTVSPropertyOp30
 70
     1
102
RTVSPropertyOp31
 70
     1
102
RTVSPropertyOp32
 70
     1
102
RTVSPropertyOp33
 70
     1
102
RTVSPropertyOp34
 70
     1
102
RTVSPropertyOp35
 70
     1
102
RTVSPropertyOp36
 70
     1
102
RTVSPropertyOp37
 70
     1
102
RTVSPropertyOp38
 70
     1
102
RTVSPropertyOp39
 70
     1
102
RTVSPropertyOp40
 70
     1
102
RTVSPropertyOp41
 70
     1
102
RTVSPropertyOp42
 70
     1
102
RTVSPropertyOp43
 70
     1
102
RTVSPropertyOp44
 70
     1
102
RTVSPropertyOp45
 70
     1
102
RTVSPropertyOp46
 70
     1
102
RTVSPropertyOp47
 70
     1
102
RTVSPropertyOp48
 70
     1
102
RTVSPropertyOp49
 70
     1
102
RTVSPropertyOp50
 70
     1
102
RTVSPropertyOp51
 70
     0
102
RTVSPropertyOp52
 70
     0
102
RTVSPropertyOp53
 70
     1
102
RTVSPropertyOp54
 70
     1
102
RTVSPropertyOp55
 70
     1
102
RTVSPropertyOp56
 70
     1
102
RTVSPropertyOp57
 70
     1
102
RTVSPropertyOp58
 70
     1
102
RTVSPropertyOp59
 70
     1
102
RTVSPropertyOp60
 70
     1
102
RTVSPropertyOp61
 70
     1
102
RTVSPropertyOp62
 70
     1
  0
XRECORD
  5
496
102
{ACAD_REACTORS
330
495
102
}
330
495
100
AcDbXrecord
280
     1
102
RTVSPost2010Prop28
280
     0
102
RTVSPost2010PropOp28
 70
     1
102
RTVSPost2010Prop29
280
     1
102
RTVSPost2010PropOp29
 70
     1
102
RTVSPost2010Prop30
280
     1
102
RTVSPost2010PropOp30
 70
     1
102
RTVSPost2010Prop31
280
     0
102
RTVSPost2010PropOp31
 70
     1
102
RTVSPost2010Prop32
280
     0
102
RTVSPost2010PropOp32
 70
     1
102
RTVSPost2010Prop33
280
     0
102
RTVSPost2010PropOp33
 70
     1
102
RTVSPost2010Prop34
280
     0
102
RTVSPost2010PropOp34
 70
     1
102
RTVSPost2010Prop35
280
     0
102
RTVSPost2010PropOp35
 70
     1
102
RTVSPost2010Prop36
280
     0
102
RTVSPost2010PropOp36
 70
     1
102
RTVSPost2010Prop37
 90
       50
102
RTVSPost2010PropOp37
 70
     1
102
RTVSPost2010Prop38
140
0.0
102
RTVSPost2010PropOp38
 70
     1
102
RTVSPost2010Prop39
140
1.0
102
RTVSPost2010PropOp39
 70
     1
102
RTVSPost2010Prop40
 90
        0
102
RTVSPost2010PropOp40
 70
     1
102
RTVSPost2010Prop41ColorIndex
 90
       18
102
RTVSPost2010Prop41ColorRGB
 90
        0
102
RTVSPost2010PropOp41
 70
     1
102
RTVSPost2010Prop42
 90
       50
102
RTVSPost2010PropOp42
 70
     1
102
RTVSPost2010Prop43
 90
        3
102
RTVSPost2010PropOp43
 70
     1
102
RTVSPost2010Prop44ColorIndex
 90
        5
102
RTVSPost2010Prop44ColorRGB
 90
      255
102
RTVSPost2010PropOp44
 70
     1
102
RTVSPost2010Prop45
280
     0
102
RTVSPost2010PropOp45
 70
     1
102
RTVSPost2010Prop46
 90
       50
102
RTVSPost2010PropOp46
 70
     1
102
RTVSPost2010Prop47
 90
       50
102
RTVSPost2010PropOp47
 70
     1
102
RTVSPost2010Prop48
 90
       50
102
RTVSPost2010PropOp48
 70
     1
102
RTVSPost2010Prop49
280
     0
102
RTVSPost2010PropOp49
 70
     1
102
RTVSPost2010Prop50
 90
       50
102
RTVSPost2010PropOp50
 70
     1
102
RTVSPost2010Prop51ColorIndex
 90
      256
102
RTVSPost2010Prop51ColorRGB
 90
-16777216
102
RTVSPost2010PropOp51
 70
     0
102
RTVSPost2010Prop52
140
1.0
102
RTVSPost2010PropOp52
 70
     0
102
RTVSPost2010Prop53
 90
        2
102
RTVSPost2010PropOp53
 70
     1
102
RTVSPost2010Prop54
  1
strokes_ogs.tif
102
RTVSPost2010PropOp54
 70
     1
102
RTVSPost2010Prop55
280
     0
102
RTVSPost2010PropOp55
 70
     1
102
RTVSPost2010Prop56
140
1.0
102
RTVSPost2010PropOp56
 70
     1
102
RTVSPost2010Prop57
140
1.0
102
RTVSPost2010PropOp57
 70
     1
102
RTVSPropertyOp0
 70
     1
102
RTVSPropertyOp1
 70
     1
102
RTVSPropertyOp2
 70
     1
102
RTVSPropertyOp3
 70
     1
102
RTVSPropertyOp4
 70
     1
102
RTVSPropertyOp5
 70
     1
102
RTVSPropertyOp6
 70
     1
102
RTVSPropertyOp7
 70
     1
102
RTVSPropertyOp8
 70
     1
102
RTVSPropertyOp9
 70
     1
102
RTVSPropertyOp10
 70
     1
102
RTVSPropertyOp11
 70
     1
102
RTVSPropertyOp12
 70
     1
102
RTVSPropertyOp13
 70
     1
102
RTVSPropertyOp14
 70
     1
102
RTVSPropertyOp15
 70
     1
102
RTVSPropertyOp16
 70
     1
102
RTVSPropertyOp17
 70
     1
102
RTVSPropertyOp18
 70
     1
102
RTVSPropertyOp19
 70
     1
102
RTVSPropertyOp20
 70
     1
102
RTVSPropertyOp21
 70
     1
102
RTVSPropertyOp22
 70
     1
102
RTVSPropertyOp23
 70
     1
102
RTVSPropertyOp24
 70
     1
102
RTVSPropertyOp25
 70
     1
102
RTVSPropertyOp26
 70
     1
102
RTVSPropertyOp27
 70
     1
102
RTVSPropertyOp28
 70
     1
102
RTVSPropertyOp29
 70
     1
102
RTVSPropertyOp30
 70
     1
102
RTVSPropertyOp31
 70
     1
102
RTVSPropertyOp32
 70
     1
102
RTVSPropertyOp33
 70
     1
102
RTVSPropertyOp34
 70
     1
102
RTVSPropertyOp35
 70
     1
102
RTVSPropertyOp36
 70
     1
102
RTVSPropertyOp37
 70
     1
102
RTVSPropertyOp38
 70
     1
102
RTVSPropertyOp39
 70
     1
102
RTVSPropertyOp40
 70
     1
102
RTVSPropertyOp41
 70
     1
102
RTVSPropertyOp42
 70
     1
102
RTVSPropertyOp43
 70
     1
102
RTVSPropertyOp44
 70
     1
102
RTVSPropertyOp45
 70
     1
102
RTVSPropertyOp46
 70
     1
102
RTVSPropertyOp47
 70
     1
102
RTVSPropertyOp48
 70
     1
102
RTVSPropertyOp49
 70
     1
102
RTVSPropertyOp50
 70
     1
102
RTVSPropertyOp51
 70
     0
102
RTVSPropertyOp52
 70
     0
102
RTVSPropertyOp53
 70
     1
102
RTVSPropertyOp54
 70
     1
102
RTVSPropertyOp55
 70
     1
102
RTVSPropertyOp56
 70
     1
102
RTVSPropertyOp57
 70
     1
102
RTVSPropertyOp58
 70
     1
102
RTVSPropertyOp59
 70
     1
102
RTVSPropertyOp60
 70
     1
102
RTVSPropertyOp61
 70
     1
102
RTVSPropertyOp62
 70
     1
  0
XRECORD
  5
4B0
102
{ACAD_REACTORS
330
4AF
102
}
330
4AF
100
AcDbXrecord
280
     1
102
RTVSPost2010Prop28
280
     0
102
RTVSPost2010PropOp28
 70
     0
102
RTVSPost2010Prop29
280
     1
102
RTVSPost2010PropOp29
 70
     0
102
RTVSPost2010Prop30
280
     1
102
RTVSPost2010PropOp30
 70
     0
102
RTVSPost2010Prop31
280
     0
102
RTVSPost2010PropOp31
 70
     0
102
RTVSPost2010Prop32
280
     0
102
RTVSPost2010PropOp32
 70
     0
102
RTVSPost2010Prop33
280
     0
102
RTVSPost2010PropOp33
 70
     0
102
RTVSPost2010Prop34
280
     0
102
RTVSPost2010PropOp34
 70
     0
102
RTVSPost2010Prop35
280
     0
102
RTVSPost2010PropOp35
 70
     0
102
RTVSPost2010Prop36
280
     0
102
RTVSPost2010PropOp36
 70
     0
102
RTVSPost2010Prop37
 90
       50
102
RTVSPost2010PropOp37
 70
     0
102
RTVSPost2010Prop38
140
0.0
102
RTVSPost2010PropOp38
 70
     0
102
RTVSPost2010Prop39
140
1.0
102
RTVSPost2010PropOp39
 70
     0
102
RTVSPost2010Prop40
 90
        0
102
RTVSPost2010PropOp40
 70
     0
102
RTVSPost2010Prop41ColorIndex
 90
       18
102
RTVSPost2010Prop41ColorRGB
 90
        0
102
RTVSPost2010PropOp41
 70
     0
102
RTVSPost2010Prop42
 90
       50
102
RTVSPost2010PropOp42
 70
     0
102
RTVSPost2010Prop43
 90
        3
102
RTVSPost2010PropOp43
 70
     0
102
RTVSPost2010Prop44ColorIndex
 90
        5
102
RTVSPost2010Prop44ColorRGB
 90
      255
102
RTVSPost2010PropOp44
 70
     0
102
RTVSPost2010Prop45
280
     0
102
RTVSPost2010PropOp45
 70
     0
102
RTVSPost2010Prop46
 90
       50
102
RTVSPost2010PropOp46
 70
     0
102
RTVSPost2010Prop47
 90
       50
102
RTVSPost2010PropOp47
 70
     0
102
RTVSPost2010Prop48
 90
       50
102
RTVSPost2010PropOp48
 70
     0
102
RTVSPost2010Prop49
280
     0
102
RTVSPost2010PropOp49
 70
     0
102
RTVSPost2010Prop50
 90
       50
102
RTVSPost2010PropOp50
 70
     0
102
RTVSPost2010Prop51ColorIndex
 90
      256
102
RTVSPost2010Prop51ColorRGB
 90
-16777216
102
RTVSPost2010PropOp51
 70
     0
102
RTVSPost2010Prop52
140
1.0
102
RTVSPost2010PropOp52
 70
     0
102
RTVSPost2010Prop53
 90
        2
102
RTVSPost2010PropOp53
 70
     0
102
RTVSPost2010Prop54
  1
strokes_ogs.tif
102
RTVSPost2010PropOp54
 70
     0
102
RTVSPost2010Prop55
280
     0
102
RTVSPost2010PropOp55
 70
     0
102
RTVSPost2010Prop56
140
1.0
102
RTVSPost2010PropOp56
 70
     0
102
RTVSPost2010Prop57
140
1.0
102
RTVSPost2010PropOp57
 70
     0
102
RTVSPropertyOp0
 70
     0
102
RTVSPropertyOp1
 70
     0
102
RTVSPropertyOp2
 70
     0
102
RTVSPropertyOp3
 70
     0
102
RTVSPropertyOp4
 70
     0
102
RTVSPropertyOp5
 70
     0
102
RTVSPropertyOp6
 70
     0
102
RTVSPropertyOp7
 70
     0
102
RTVSPropertyOp8
 70
     0
102
RTVSPropertyOp9
 70
     0
102
RTVSPropertyOp10
 70
     0
102
RTVSPropertyOp11
 70
     0
102
RTVSPropertyOp12
 70
     0
102
RTVSPropertyOp13
 70
     0
102
RTVSPropertyOp14
 70
     2
102
RTVSPropertyOp15
 70
     0
102
RTVSPropertyOp16
 70
     0
102
RTVSPropertyOp17
 70
     0
102
RTVSPropertyOp18
 70
     0
102
RTVSPropertyOp19
 70
     0
102
RTVSPropertyOp20
 70
     0
102
RTVSPropertyOp21
 70
     0
102
RTVSPropertyOp22
 70
     0
102
RTVSPropertyOp23
 70
     0
102
RTVSPropertyOp24
 70
     0
102
RTVSPropertyOp25
 70
     0
102
RTVSPropertyOp26
 70
     0
102
RTVSPropertyOp27
 70
     0
102
RTVSPropertyOp28
 70
     0
102
RTVSPropertyOp29
 70
     0
102
RTVSPropertyOp30
 70
     0
102
RTVSPropertyOp31
 70
     0
102
RTVSPropertyOp32
 70
     0
102
RTVSPropertyOp33
 70
     0
102
RTVSPropertyOp34
 70
     0
102
RTVSPropertyOp35
 70
     0
102
RTVSPropertyOp36
 70
     0
102
RTVSPropertyOp37
 70
     0
102
RTVSPropertyOp38
 70
     0
102
RTVSPropertyOp39
 70
     0
102
RTVSPropertyOp40
 70
     0
102
RTVSPropertyOp41
 70
     0
102
RTVSPropertyOp42
 70
     0
102
RTVSPropertyOp43
 70
     0
102
RTVSPropertyOp44
 70
     0
102
RTVSPropertyOp45
 70
     0
102
RTVSPropertyOp46
 70
     0
102
RTVSPropertyOp47
 70
     0
102
RTVSPropertyOp48
 70
     0
102
RTVSPropertyOp49
 70
     0
102
RTVSPropertyOp50
 70
     0
102
RTVSPropertyOp51
 70
     0
102
RTVSPropertyOp52
 70
     0
102
RTVSPropertyOp53
 70
     0
102
RTVSPropertyOp54
 70
     0
102
RTVSPropertyOp55
 70
     0
102
RTVSPropertyOp56
 70
     0
102
RTVSPropertyOp57
 70
     0
102
RTVSPropertyOp58
 70
     0
102
RTVSPropertyOp59
 70
     0
102
RTVSPropertyOp60
 70
     0
102
RTVSPropertyOp61
 70
     0
102
RTVSPropertyOp62
 70
     0
  0
XRECORD
  5
49E
102
{ACAD_REACTORS
330
49D
102
}
330
49D
100
AcDbXrecord
280
     1
102
RTVSPost2010Prop28
280
     0
102
RTVSPost2010PropOp28
 70
     1
102
RTVSPost2010Prop29
280
     1
102
RTVSPost2010PropOp29
 70
     1
102
RTVSPost2010Prop30
280
     1
102
RTVSPost2010PropOp30
 70
     1
102
RTVSPost2010Prop31
280
     0
102
RTVSPost2010PropOp31
 70
     1
102
RTVSPost2010Prop32
280
     0
102
RTVSPost2010PropOp32
 70
     1
102
RTVSPost2010Prop33
280
     0
102
RTVSPost2010PropOp33
 70
     1
102
RTVSPost2010Prop34
280
     0
102
RTVSPost2010PropOp34
 70
     1
102
RTVSPost2010Prop35
280
     0
102
RTVSPost2010PropOp35
 70
     1
102
RTVSPost2010Prop36
280
     0
102
RTVSPost2010PropOp36
 70
     1
102
RTVSPost2010Prop37
 90
       50
102
RTVSPost2010PropOp37
 70
     1
102
RTVSPost2010Prop38
140
0.0
102
RTVSPost2010PropOp38
 70
     1
102
RTVSPost2010Prop39
140
1.0
102
RTVSPost2010PropOp39
 70
     1
102
RTVSPost2010Prop40
 90
        0
102
RTVSPost2010PropOp40
 70
     1
102
RTVSPost2010Prop41ColorIndex
 90
       18
102
RTVSPost2010Prop41ColorRGB
 90
        0
102
RTVSPost2010PropOp41
 70
     1
102
RTVSPost2010Prop42
 90
       50
102
RTVSPost2010PropOp42
 70
     1
102
RTVSPost2010Prop43
 90
        3
102
RTVSPost2010PropOp43
 70
     1
102
RTVSPost2010Prop44ColorIndex
 90
        5
102
RTVSPost2010Prop44ColorRGB
 90
      255
102
RTVSPost2010PropOp44
 70
     1
102
RTVSPost2010Prop45
280
     0
102
RTVSPost2010PropOp45
 70
     1
102
RTVSPost2010Prop46
 90
       50
102
RTVSPost2010PropOp46
 70
     1
102
RTVSPost2010Prop47
 90
       50
102
RTVSPost2010PropOp47
 70
     1
102
RTVSPost2010Prop48
 90
       50
102
RTVSPost2010PropOp48
 70
     1
102
RTVSPost2010Prop49
280
     0
102
RTVSPost2010PropOp49
 70
     1
102
RTVSPost2010Prop50
 90
       50
102
RTVSPost2010PropOp50
 70
     1
102
RTVSPost2010Prop51ColorIndex
 90
      256
102
RTVSPost2010Prop51ColorRGB
 90
-16777216
102
RTVSPost2010PropOp51
 70
     0
102
RTVSPost2010Prop52
140
1.0
102
RTVSPost2010PropOp52
 70
     0
102
RTVSPost2010Prop53
 90
        2
102
RTVSPost2010PropOp53
 70
     1
102
RTVSPost2010Prop54
  1
strokes_ogs.tif
102
RTVSPost2010PropOp54
 70
     1
102
RTVSPost2010Prop55
280
     0
102
RTVSPost2010PropOp55
 70
     1
102
RTVSPost2010Prop56
140
1.0
102
RTVSPost2010PropOp56
 70
     1
102
RTVSPost2010Prop57
140
1.0
102
RTVSPost2010PropOp57
 70
     1
102
RTVSPropertyOp0
 70
     1
102
RTVSPropertyOp1
 70
     1
102
RTVSPropertyOp2
 70
     1
102
RTVSPropertyOp3
 70
     1
102
RTVSPropertyOp4
 70
     1
102
RTVSPropertyOp5
 70
     1
102
RTVSPropertyOp6
 70
     1
102
RTVSPropertyOp7
 70
     1
102
RTVSPropertyOp8
 70
     1
102
RTVSPropertyOp9
 70
     1
102
RTVSPropertyOp10
 70
     1
102
RTVSPropertyOp11
 70
     1
102
RTVSPropertyOp12
 70
     1
102
RTVSPropertyOp13
 70
     1
102
RTVSPropertyOp14
 70
     1
102
RTVSPropertyOp15
 70
     1
102
RTVSPropertyOp16
 70
     1
102
RTVSPropertyOp17
 70
     1
102
RTVSPropertyOp18
 70
     1
102
RTVSPropertyOp19
 70
     1
102
RTVSPropertyOp20
 70
     1
102
RTVSPropertyOp21
 70
     1
102
RTVSPropertyOp22
 70
     1
102
RTVSPropertyOp23
 70
     1
102
RTVSPropertyOp24
 70
     1
102
RTVSPropertyOp25
 70
     1
102
RTVSPropertyOp26
 70
     1
102
RTVSPropertyOp27
 70
     1
102
RTVSPropertyOp28
 70
     1
102
RTVSPropertyOp29
 70
     1
102
RTVSPropertyOp30
 70
     1
102
RTVSPropertyOp31
 70
     1
102
RTVSPropertyOp32
 70
     1
102
RTVSPropertyOp33
 70
     1
102
RTVSPropertyOp34
 70
     1
102
RTVSPropertyOp35
 70
     1
102
RTVSPropertyOp36
 70
     1
102
RTVSPropertyOp37
 70
     1
102
RTVSPropertyOp38
 70
     1
102
RTVSPropertyOp39
 70
     1
102
RTVSPropertyOp40
 70
     1
102
RTVSPropertyOp41
 70
     1
102
RTVSPropertyOp42
 70
     1
102
RTVSPropertyOp43
 70
     1
102
RTVSPropertyOp44
 70
     1
102
RTVSPropertyOp45
 70
     1
102
RTVSPropertyOp46
 70
     1
102
RTVSPropertyOp47
 70
     1
102
RTVSPropertyOp48
 70
     1
102
RTVSPropertyOp49
 70
     1
102
RTVSPropertyOp50
 70
     1
102
RTVSPropertyOp51
 70
     0
102
RTVSPropertyOp52
 70
     0
102
RTVSPropertyOp53
 70
     1
102
RTVSPropertyOp54
 70
     1
102
RTVSPropertyOp55
 70
     1
102
RTVSPropertyOp56
 70
     1
102
RTVSPropertyOp57
 70
     1
102
RTVSPropertyOp58
 70
     1
102
RTVSPropertyOp59
 70
     1
102
RTVSPropertyOp60
 70
     1
102
RTVSPropertyOp61
 70
     1
102
RTVSPropertyOp62
 70
     1
  0
XRECORD
  5
482
102
{ACAD_REACTORS
330
481
102
}
330
481
100
AcDbXrecord
280
     1
102
RTVSPost2010Prop28
280
     0
102
RTVSPost2010PropOp28
 70
     1
102
RTVSPost2010Prop29
280
     1
102
RTVSPost2010PropOp29
 70
     1
102
RTVSPost2010Prop30
280
     1
102
RTVSPost2010PropOp30
 70
     1
102
RTVSPost2010Prop31
280
     0
102
RTVSPost2010PropOp31
 70
     1
102
RTVSPost2010Prop32
280
     0
102
RTVSPost2010PropOp32
 70
     1
102
RTVSPost2010Prop33
280
     0
102
RTVSPost2010PropOp33
 70
     1
102
RTVSPost2010Prop34
280
     0
102
RTVSPost2010PropOp34
 70
     1
102
RTVSPost2010Prop35
280
     0
102
RTVSPost2010PropOp35
 70
     1
102
RTVSPost2010Prop36
280
     0
102
RTVSPost2010PropOp36
 70
     1
102
RTVSPost2010Prop37
 90
       50
102
RTVSPost2010PropOp37
 70
     1
102
RTVSPost2010Prop38
140
0.0
102
RTVSPost2010PropOp38
 70
     1
102
RTVSPost2010Prop39
140
1.0
102
RTVSPost2010PropOp39
 70
     1
102
RTVSPost2010Prop40
 90
        0
102
RTVSPost2010PropOp40
 70
     1
102
RTVSPost2010Prop41ColorIndex
 90
       18
102
RTVSPost2010Prop41ColorRGB
 90
        0
102
RTVSPost2010PropOp41
 70
     1
102
RTVSPost2010Prop42
 90
       50
102
RTVSPost2010PropOp42
 70
     1
102
RTVSPost2010Prop43
 90
        3
102
RTVSPost2010PropOp43
 70
     1
102
RTVSPost2010Prop44ColorIndex
 90
        5
102
RTVSPost2010Prop44ColorRGB
 90
      255
102
RTVSPost2010PropOp44
 70
     1
102
RTVSPost2010Prop45
280
     0
102
RTVSPost2010PropOp45
 70
     1
102
RTVSPost2010Prop46
 90
       50
102
RTVSPost2010PropOp46
 70
     1
102
RTVSPost2010Prop47
 90
       50
102
RTVSPost2010PropOp47
 70
     1
102
RTVSPost2010Prop48
 90
       50
102
RTVSPost2010PropOp48
 70
     1
102
RTVSPost2010Prop49
280
     0
102
RTVSPost2010PropOp49
 70
     1
102
RTVSPost2010Prop50
 90
       50
102
RTVSPost2010PropOp50
 70
     1
102
RTVSPost2010Prop51ColorIndex
 90
      256
102
RTVSPost2010Prop51ColorRGB
 90
-16777216
102
RTVSPost2010PropOp51
 70
     0
102
RTVSPost2010Prop52
140
1.0
102
RTVSPost2010PropOp52
 70
     0
102
RTVSPost2010Prop53
 90
        2
102
RTVSPost2010PropOp53
 70
     1
102
RTVSPost2010Prop54
  1
strokes_ogs.tif
102
RTVSPost2010PropOp54
 70
     1
102
RTVSPost2010Prop55
280
     0
102
RTVSPost2010PropOp55
 70
     1
102
RTVSPost2010Prop56
140
1.0
102
RTVSPost2010PropOp56
 70
     1
102
RTVSPost2010Prop57
140
1.0
102
RTVSPost2010PropOp57
 70
     1
102
RTVSPropertyOp0
 70
     1
102
RTVSPropertyOp1
 70
     1
102
RTVSPropertyOp2
 70
     1
102
RTVSPropertyOp3
 70
     1
102
RTVSPropertyOp4
 70
     1
102
RTVSPropertyOp5
 70
     1
102
RTVSPropertyOp6
 70
     1
102
RTVSPropertyOp7
 70
     1
102
RTVSPropertyOp8
 70
     1
102
RTVSPropertyOp9
 70
     1
102
RTVSPropertyOp10
 70
     1
102
RTVSPropertyOp11
 70
     1
102
RTVSPropertyOp12
 70
     1
102
RTVSPropertyOp13
 70
     1
102
RTVSPropertyOp14
 70
     1
102
RTVSPropertyOp15
 70
     1
102
RTVSPropertyOp16
 70
     1
102
RTVSPropertyOp17
 70
     1
102
RTVSPropertyOp18
 70
     1
102
RTVSPropertyOp19
 70
     1
102
RTVSPropertyOp20
 70
     1
102
RTVSPropertyOp21
 70
     1
102
RTVSPropertyOp22
 70
     1
102
RTVSPropertyOp23
 70
     1
102
RTVSPropertyOp24
 70
     1
102
RTVSPropertyOp25
 70
     1
102
RTVSPropertyOp26
 70
     1
102
RTVSPropertyOp27
 70
     1
102
RTVSPropertyOp28
 70
     1
102
RTVSPropertyOp29
 70
     1
102
RTVSPropertyOp30
 70
     1
102
RTVSPropertyOp31
 70
     1
102
RTVSPropertyOp32
 70
     1
102
RTVSPropertyOp33
 70
     1
102
RTVSPropertyOp34
 70
     1
102
RTVSPropertyOp35
 70
     1
102
RTVSPropertyOp36
 70
     1
102
RTVSPropertyOp37
 70
     1
102
RTVSPropertyOp38
 70
     1
102
RTVSPropertyOp39
 70
     1
102
RTVSPropertyOp40
 70
     1
102
RTVSPropertyOp41
 70
     1
102
RTVSPropertyOp42
 70
     1
102
RTVSPropertyOp43
 70
     1
102
RTVSPropertyOp44
 70
     1
102
RTVSPropertyOp45
 70
     1
102
RTVSPropertyOp46
 70
     1
102
RTVSPropertyOp47
 70
     1
102
RTVSPropertyOp48
 70
     1
102
RTVSPropertyOp49
 70
     1
102
RTVSPropertyOp50
 70
     1
102
RTVSPropertyOp51
 70
     0
102
RTVSPropertyOp52
 70
     0
102
RTVSPropertyOp53
 70
     1
102
RTVSPropertyOp54
 70
     1
102
RTVSPropertyOp55
 70
     1
102
RTVSPropertyOp56
 70
     1
102
RTVSPropertyOp57
 70
     1
102
RTVSPropertyOp58
 70
     1
102
RTVSPropertyOp59
 70
     1
102
RTVSPropertyOp60
 70
     1
102
RTVSPropertyOp61
 70
     1
102
RTVSPropertyOp62
 70
     1
  0
XRECORD
  5
484
102
{ACAD_REACTORS
330
483
102
}
330
483
100
AcDbXrecord
280
     1
102
RTVSPost2010Prop28
280
     0
102
RTVSPost2010PropOp28
 70
     1
102
RTVSPost2010Prop29
280
     1
102
RTVSPost2010PropOp29
 70
     1
102
RTVSPost2010Prop30
280
     1
102
RTVSPost2010PropOp30
 70
     1
102
RTVSPost2010Prop31
280
     0
102
RTVSPost2010PropOp31
 70
     1
102
RTVSPost2010Prop32
280
     0
102
RTVSPost2010PropOp32
 70
     1
102
RTVSPost2010Prop33
280
     0
102
RTVSPost2010PropOp33
 70
     1
102
RTVSPost2010Prop34
280
     0
102
RTVSPost2010PropOp34
 70
     1
102
RTVSPost2010Prop35
280
     0
102
RTVSPost2010PropOp35
 70
     1
102
RTVSPost2010Prop36
280
     0
102
RTVSPost2010PropOp36
 70
     1
102
RTVSPost2010Prop37
 90
       50
102
RTVSPost2010PropOp37
 70
     1
102
RTVSPost2010Prop38
140
0.0
102
RTVSPost2010PropOp38
 70
     1
102
RTVSPost2010Prop39
140
1.0
102
RTVSPost2010PropOp39
 70
     1
102
RTVSPost2010Prop40
 90
        0
102
RTVSPost2010PropOp40
 70
     1
102
RTVSPost2010Prop41ColorIndex
 90
       18
102
RTVSPost2010Prop41ColorRGB
 90
        0
102
RTVSPost2010PropOp41
 70
     1
102
RTVSPost2010Prop42
 90
       50
102
RTVSPost2010PropOp42
 70
     1
102
RTVSPost2010Prop43
 90
        3
102
RTVSPost2010PropOp43
 70
     1
102
RTVSPost2010Prop44ColorIndex
 90
        5
102
RTVSPost2010Prop44ColorRGB
 90
      255
102
RTVSPost2010PropOp44
 70
     1
102
RTVSPost2010Prop45
280
     0
102
RTVSPost2010PropOp45
 70
     1
102
RTVSPost2010Prop46
 90
       50
102
RTVSPost2010PropOp46
 70
     1
102
RTVSPost2010Prop47
 90
       50
102
RTVSPost2010PropOp47
 70
     1
102
RTVSPost2010Prop48
 90
       50
102
RTVSPost2010PropOp48
 70
     1
102
RTVSPost2010Prop49
280
     0
102
RTVSPost2010PropOp49
 70
     1
102
RTVSPost2010Prop50
 90
       50
102
RTVSPost2010PropOp50
 70
     1
102
RTVSPost2010Prop51ColorIndex
 90
      256
102
RTVSPost2010Prop51ColorRGB
 90
-16777216
102
RTVSPost2010PropOp51
 70
     0
102
RTVSPost2010Prop52
140
1.0
102
RTVSPost2010PropOp52
 70
     0
102
RTVSPost2010Prop53
 90
        2
102
RTVSPost2010PropOp53
 70
     1
102
RTVSPost2010Prop54
  1
strokes_ogs.tif
102
RTVSPost2010PropOp54
 70
     1
102
RTVSPost2010Prop55
280
     0
102
RTVSPost2010PropOp55
 70
     1
102
RTVSPost2010Prop56
140
1.0
102
RTVSPost2010PropOp56
 70
     1
102
RTVSPost2010Prop57
140
1.0
102
RTVSPost2010PropOp57
 70
     1
102
RTVSPropertyOp0
 70
     1
102
RTVSPropertyOp1
 70
     1
102
RTVSPropertyOp2
 70
     1
102
RTVSPropertyOp3
 70
     1
102
RTVSPropertyOp4
 70
     1
102
RTVSPropertyOp5
 70
     1
102
RTVSPropertyOp6
 70
     1
102
RTVSPropertyOp7
 70
     1
102
RTVSPropertyOp8
 70
     1
102
RTVSPropertyOp9
 70
     1
102
RTVSPropertyOp10
 70
     1
102
RTVSPropertyOp11
 70
     1
102
RTVSPropertyOp12
 70
     1
102
RTVSPropertyOp13
 70
     1
102
RTVSPropertyOp14
 70
     1
102
RTVSPropertyOp15
 70
     1
102
RTVSPropertyOp16
 70
     1
102
RTVSPropertyOp17
 70
     1
102
RTVSPropertyOp18
 70
     1
102
RTVSPropertyOp19
 70
     1
102
RTVSPropertyOp20
 70
     1
102
RTVSPropertyOp21
 70
     1
102
RTVSPropertyOp22
 70
     1
102
RTVSPropertyOp23
 70
     1
102
RTVSPropertyOp24
 70
     1
102
RTVSPropertyOp25
 70
     1
102
RTVSPropertyOp26
 70
     1
102
RTVSPropertyOp27
 70
     1
102
RTVSPropertyOp28
 70
     1
102
RTVSPropertyOp29
 70
     1
102
RTVSPropertyOp30
 70
     1
102
RTVSPropertyOp31
 70
     1
102
RTVSPropertyOp32
 70
     1
102
RTVSPropertyOp33
 70
     1
102
RTVSPropertyOp34
 70
     1
102
RTVSPropertyOp35
 70
     1
102
RTVSPropertyOp36
 70
     1
102
RTVSPropertyOp37
 70
     1
102
RTVSPropertyOp38
 70
     1
102
RTVSPropertyOp39
 70
     1
102
RTVSPropertyOp40
 70
     1
102
RTVSPropertyOp41
 70
     1
102
RTVSPropertyOp42
 70
     1
102
RTVSPropertyOp43
 70
     1
102
RTVSPropertyOp44
 70
     1
102
RTVSPropertyOp45
 70
     1
102
RTVSPropertyOp46
 70
     1
102
RTVSPropertyOp47
 70
     1
102
RTVSPropertyOp48
 70
     1
102
RTVSPropertyOp49
 70
     1
102
RTVSPropertyOp50
 70
     1
102
RTVSPropertyOp51
 70
     0
102
RTVSPropertyOp52
 70
     0
102
RTVSPropertyOp53
 70
     1
102
RTVSPropertyOp54
 70
     1
102
RTVSPropertyOp55
 70
     1
102
RTVSPropertyOp56
 70
     1
102
RTVSPropertyOp57
 70
     1
102
RTVSPropertyOp58
 70
     1
102
RTVSPropertyOp59
 70
     1
102
RTVSPropertyOp60
 70
     1
102
RTVSPropertyOp61
 70
     1
102
RTVSPropertyOp62
 70
     1
  0
XRECORD
  5
486
102
{ACAD_REACTORS
330
485
102
}
330
485
100
AcDbXrecord
280
     1
102
RTVSPost2010Prop28
280
     0
102
RTVSPost2010PropOp28
 70
     1
102
RTVSPost2010Prop29
280
     1
102
RTVSPost2010PropOp29
 70
     1
102
RTVSPost2010Prop30
280
     1
102
RTVSPost2010PropOp30
 70
     1
102
RTVSPost2010Prop31
280
     0
102
RTVSPost2010PropOp31
 70
     1
102
RTVSPost2010Prop32
280
     0
102
RTVSPost2010PropOp32
 70
     1
102
RTVSPost2010Prop33
280
     0
102
RTVSPost2010PropOp33
 70
     1
102
RTVSPost2010Prop34
280
     0
102
RTVSPost2010PropOp34
 70
     1
102
RTVSPost2010Prop35
280
     0
102
RTVSPost2010PropOp35
 70
     1
102
RTVSPost2010Prop36
280
     0
102
RTVSPost2010PropOp36
 70
     1
102
RTVSPost2010Prop37
 90
       50
102
RTVSPost2010PropOp37
 70
     1
102
RTVSPost2010Prop38
140
0.0
102
RTVSPost2010PropOp38
 70
     1
102
RTVSPost2010Prop39
140
1.0
102
RTVSPost2010PropOp39
 70
     1
102
RTVSPost2010Prop40
 90
        0
102
RTVSPost2010PropOp40
 70
     1
102
RTVSPost2010Prop41ColorIndex
 90
       18
102
RTVSPost2010Prop41ColorRGB
 90
        0
102
RTVSPost2010PropOp41
 70
     1
102
RTVSPost2010Prop42
 90
       50
102
RTVSPost2010PropOp42
 70
     1
102
RTVSPost2010Prop43
 90
        3
102
RTVSPost2010PropOp43
 70
     1
102
RTVSPost2010Prop44ColorIndex
 90
        5
102
RTVSPost2010Prop44ColorRGB
 90
      255
102
RTVSPost2010PropOp44
 70
     1
102
RTVSPost2010Prop45
280
     0
102
RTVSPost2010PropOp45
 70
     1
102
RTVSPost2010Prop46
 90
       50
102
RTVSPost2010PropOp46
 70
     1
102
RTVSPost2010Prop47
 90
       50
102
RTVSPost2010PropOp47
 70
     1
102
RTVSPost2010Prop48
 90
       50
102
RTVSPost2010PropOp48
 70
     1
102
RTVSPost2010Prop49
280
     0
102
RTVSPost2010PropOp49
 70
     1
102
RTVSPost2010Prop50
 90
       50
102
RTVSPost2010PropOp50
 70
     1
102
RTVSPost2010Prop51ColorIndex
 90
      256
102
RTVSPost2010Prop51ColorRGB
 90
-16777216
102
RTVSPost2010PropOp51
 70
     0
102
RTVSPost2010Prop52
140
1.0
102
RTVSPost2010PropOp52
 70
     0
102
RTVSPost2010Prop53
 90
        2
102
RTVSPost2010PropOp53
 70
     1
102
RTVSPost2010Prop54
  1
strokes_ogs.tif
102
RTVSPost2010PropOp54
 70
     1
102
RTVSPost2010Prop55
280
     0
102
RTVSPost2010PropOp55
 70
     1
102
RTVSPost2010Prop56
140
1.0
102
RTVSPost2010PropOp56
 70
     1
102
RTVSPost2010Prop57
140
1.0
102
RTVSPost2010PropOp57
 70
     1
102
RTVSPropertyOp0
 70
     1
102
RTVSPropertyOp1
 70
     1
102
RTVSPropertyOp2
 70
     1
102
RTVSPropertyOp3
 70
     1
102
RTVSPropertyOp4
 70
     1
102
RTVSPropertyOp5
 70
     1
102
RTVSPropertyOp6
 70
     1
102
RTVSPropertyOp7
 70
     1
102
RTVSPropertyOp8
 70
     1
102
RTVSPropertyOp9
 70
     1
102
RTVSPropertyOp10
 70
     1
102
RTVSPropertyOp11
 70
     1
102
RTVSPropertyOp12
 70
     1
102
RTVSPropertyOp13
 70
     1
102
RTVSPropertyOp14
 70
     1
102
RTVSPropertyOp15
 70
     1
102
RTVSPropertyOp16
 70
     1
102
RTVSPropertyOp17
 70
     1
102
RTVSPropertyOp18
 70
     1
102
RTVSPropertyOp19
 70
     1
102
RTVSPropertyOp20
 70
     1
102
RTVSPropertyOp21
 70
     1
102
RTVSPropertyOp22
 70
     1
102
RTVSPropertyOp23
 70
     1
102
RTVSPropertyOp24
 70
     1
102
RTVSPropertyOp25
 70
     1
102
RTVSPropertyOp26
 70
     1
102
RTVSPropertyOp27
 70
     1
102
RTVSPropertyOp28
 70
     1
102
RTVSPropertyOp29
 70
     1
102
RTVSPropertyOp30
 70
     1
102
RTVSPropertyOp31
 70
     1
102
RTVSPropertyOp32
 70
     1
102
RTVSPropertyOp33
 70
     1
102
RTVSPropertyOp34
 70
     1
102
RTVSPropertyOp35
 70
     1
102
RTVSPropertyOp36
 70
     1
102
RTVSPropertyOp37
 70
     1
102
RTVSPropertyOp38
 70
     1
102
RTVSPropertyOp39
 70
     1
102
RTVSPropertyOp40
 70
     1
102
RTVSPropertyOp41
 70
     1
102
RTVSPropertyOp42
 70
     1
102
RTVSPropertyOp43
 70
     1
102
RTVSPropertyOp44
 70
     1
102
RTVSPropertyOp45
 70
     1
102
RTVSPropertyOp46
 70
     1
102
RTVSPropertyOp47
 70
     1
102
RTVSPropertyOp48
 70
     1
102
RTVSPropertyOp49
 70
     1
102
RTVSPropertyOp50
 70
     1
102
RTVSPropertyOp51
 70
     0
102
RTVSPropertyOp52
 70
     0
102
RTVSPropertyOp53
 70
     1
102
RTVSPropertyOp54
 70
     1
102
RTVSPropertyOp55
 70
     1
102
RTVSPropertyOp56
 70
     1
102
RTVSPropertyOp57
 70
     1
102
RTVSPropertyOp58
 70
     1
102
RTVSPropertyOp59
 70
     1
102
RTVSPropertyOp60
 70
     1
102
RTVSPropertyOp61
 70
     1
102
RTVSPropertyOp62
 70
     1
  0
XRECORD
  5
488
102
{ACAD_REACTORS
330
487
102
}
330
487
100
AcDbXrecord
280
     1
102
RTVSPost2010Prop28
280
     0
102
RTVSPost2010PropOp28
 70
     1
102
RTVSPost2010Prop29
280
     1
102
RTVSPost2010PropOp29
 70
     1
102
RTVSPost2010Prop30
280
     1
102
RTVSPost2010PropOp30
 70
     1
102
RTVSPost2010Prop31
280
     0
102
RTVSPost2010PropOp31
 70
     1
102
RTVSPost2010Prop32
280
     0
102
RTVSPost2010PropOp32
 70
     1
102
RTVSPost2010Prop33
280
     0
102
RTVSPost2010PropOp33
 70
     1
102
RTVSPost2010Prop34
280
     0
102
RTVSPost2010PropOp34
 70
     1
102
RTVSPost2010Prop35
280
     0
102
RTVSPost2010PropOp35
 70
     1
102
RTVSPost2010Prop36
280
     0
102
RTVSPost2010PropOp36
 70
     1
102
RTVSPost2010Prop37
 90
       50
102
RTVSPost2010PropOp37
 70
     1
102
RTVSPost2010Prop38
140
0.0
102
RTVSPost2010PropOp38
 70
     1
102
RTVSPost2010Prop39
140
1.0
102
RTVSPost2010PropOp39
 70
     1
102
RTVSPost2010Prop40
 90
        0
102
RTVSPost2010PropOp40
 70
     1
102
RTVSPost2010Prop41ColorIndex
 90
       18
102
RTVSPost2010Prop41ColorRGB
 90
        0
102
RTVSPost2010PropOp41
 70
     1
102
RTVSPost2010Prop42
 90
       50
102
RTVSPost2010PropOp42
 70
     1
102
RTVSPost2010Prop43
 90
        3
102
RTVSPost2010PropOp43
 70
     1
102
RTVSPost2010Prop44ColorIndex
 90
        5
102
RTVSPost2010Prop44ColorRGB
 90
      255
102
RTVSPost2010PropOp44
 70
     1
102
RTVSPost2010Prop45
280
     0
102
RTVSPost2010PropOp45
 70
     1
102
RTVSPost2010Prop46
 90
       50
102
RTVSPost2010PropOp46
 70
     1
102
RTVSPost2010Prop47
 90
       50
102
RTVSPost2010PropOp47
 70
     1
102
RTVSPost2010Prop48
 90
       50
102
RTVSPost2010PropOp48
 70
     1
102
RTVSPost2010Prop49
280
     0
102
RTVSPost2010PropOp49
 70
     1
102
RTVSPost2010Prop50
 90
       50
102
RTVSPost2010PropOp50
 70
     1
102
RTVSPost2010Prop51ColorIndex
 90
      256
102
RTVSPost2010Prop51ColorRGB
 90
-16777216
102
RTVSPost2010PropOp51
 70
     0
102
RTVSPost2010Prop52
140
1.0
102
RTVSPost2010PropOp52
 70
     0
102
RTVSPost2010Prop53
 90
        2
102
RTVSPost2010PropOp53
 70
     1
102
RTVSPost2010Prop54
  1
strokes_ogs.tif
102
RTVSPost2010PropOp54
 70
     1
102
RTVSPost2010Prop55
280
     0
102
RTVSPost2010PropOp55
 70
     1
102
RTVSPost2010Prop56
140
1.0
102
RTVSPost2010PropOp56
 70
     1
102
RTVSPost2010Prop57
140
1.0
102
RTVSPost2010PropOp57
 70
     1
102
RTVSPropertyOp0
 70
     1
102
RTVSPropertyOp1
 70
     1
102
RTVSPropertyOp2
 70
     1
102
RTVSPropertyOp3
 70
     1
102
RTVSPropertyOp4
 70
     1
102
RTVSPropertyOp5
 70
     1
102
RTVSPropertyOp6
 70
     1
102
RTVSPropertyOp7
 70
     1
102
RTVSPropertyOp8
 70
     1
102
RTVSPropertyOp9
 70
     1
102
RTVSPropertyOp10
 70
     1
102
RTVSPropertyOp11
 70
     1
102
RTVSPropertyOp12
 70
     1
102
RTVSPropertyOp13
 70
     1
102
RTVSPropertyOp14
 70
     1
102
RTVSPropertyOp15
 70
     1
102
RTVSPropertyOp16
 70
     1
102
RTVSPropertyOp17
 70
     1
102
RTVSPropertyOp18
 70
     1
102
RTVSPropertyOp19
 70
     1
102
RTVSPropertyOp20
 70
     1
102
RTVSPropertyOp21
 70
     1
102
RTVSPropertyOp22
 70
     1
102
RTVSPropertyOp23
 70
     1
102
RTVSPropertyOp24
 70
     1
102
RTVSPropertyOp25
 70
     1
102
RTVSPropertyOp26
 70
     1
102
RTVSPropertyOp27
 70
     1
102
RTVSPropertyOp28
 70
     1
102
RTVSPropertyOp29
 70
     1
102
RTVSPropertyOp30
 70
     1
102
RTVSPropertyOp31
 70
     1
102
RTVSPropertyOp32
 70
     1
102
RTVSPropertyOp33
 70
     1
102
RTVSPropertyOp34
 70
     1
102
RTVSPropertyOp35
 70
     1
102
RTVSPropertyOp36
 70
     1
102
RTVSPropertyOp37
 70
     1
102
RTVSPropertyOp38
 70
     1
102
RTVSPropertyOp39
 70
     1
102
RTVSPropertyOp40
 70
     1
102
RTVSPropertyOp41
 70
     1
102
RTVSPropertyOp42
 70
     1
102
RTVSPropertyOp43
 70
     1
102
RTVSPropertyOp44
 70
     1
102
RTVSPropertyOp45
 70
     1
102
RTVSPropertyOp46
 70
     1
102
RTVSPropertyOp47
 70
     1
102
RTVSPropertyOp48
 70
     1
102
RTVSPropertyOp49
 70
     1
102
RTVSPropertyOp50
 70
     1
102
RTVSPropertyOp51
 70
     0
102
RTVSPropertyOp52
 70
     0
102
RTVSPropertyOp53
 70
     1
102
RTVSPropertyOp54
 70
     1
102
RTVSPropertyOp55
 70
     1
102
RTVSPropertyOp56
 70
     1
102
RTVSPropertyOp57
 70
     1
102
RTVSPropertyOp58
 70
     1
102
RTVSPropertyOp59
 70
     1
102
RTVSPropertyOp60
 70
     1
102
RTVSPropertyOp61
 70
     1
102
RTVSPropertyOp62
 70
     1
  0
XRECORD
  5
490
102
{ACAD_REACTORS
330
48F
102
}
330
48F
100
AcDbXrecord
280
     1
102
RTVSPost2010Prop28
280
     0
102
RTVSPost2010PropOp28
 70
     1
102
RTVSPost2010Prop29
280
     1
102
RTVSPost2010PropOp29
 70
     1
102
RTVSPost2010Prop30
280
     1
102
RTVSPost2010PropOp30
 70
     1
102
RTVSPost2010Prop31
280
     0
102
RTVSPost2010PropOp31
 70
     1
102
RTVSPost2010Prop32
280
     0
102
RTVSPost2010PropOp32
 70
     1
102
RTVSPost2010Prop33
280
     0
102
RTVSPost2010PropOp33
 70
     1
102
RTVSPost2010Prop34
280
     0
102
RTVSPost2010PropOp34
 70
     1
102
RTVSPost2010Prop35
280
     0
102
RTVSPost2010PropOp35
 70
     1
102
RTVSPost2010Prop36
280
     0
102
RTVSPost2010PropOp36
 70
     1
102
RTVSPost2010Prop37
 90
       50
102
RTVSPost2010PropOp37
 70
     1
102
RTVSPost2010Prop38
140
0.0
102
RTVSPost2010PropOp38
 70
     1
102
RTVSPost2010Prop39
140
1.0
102
RTVSPost2010PropOp39
 70
     1
102
RTVSPost2010Prop40
 90
        0
102
RTVSPost2010PropOp40
 70
     1
102
RTVSPost2010Prop41ColorIndex
 90
       18
102
RTVSPost2010Prop41ColorRGB
 90
        0
102
RTVSPost2010PropOp41
 70
     1
102
RTVSPost2010Prop42
 90
       50
102
RTVSPost2010PropOp42
 70
     1
102
RTVSPost2010Prop43
 90
        3
102
RTVSPost2010PropOp43
 70
     1
102
RTVSPost2010Prop44ColorIndex
 90
        5
102
RTVSPost2010Prop44ColorRGB
 90
      255
102
RTVSPost2010PropOp44
 70
     1
102
RTVSPost2010Prop45
280
     0
102
RTVSPost2010PropOp45
 70
     1
102
RTVSPost2010Prop46
 90
       50
102
RTVSPost2010PropOp46
 70
     1
102
RTVSPost2010Prop47
 90
       50
102
RTVSPost2010PropOp47
 70
     1
102
RTVSPost2010Prop48
 90
       50
102
RTVSPost2010PropOp48
 70
     1
102
RTVSPost2010Prop49
280
     0
102
RTVSPost2010PropOp49
 70
     1
102
RTVSPost2010Prop50
 90
       50
102
RTVSPost2010PropOp50
 70
     1
102
RTVSPost2010Prop51ColorIndex
 90
      256
102
RTVSPost2010Prop51ColorRGB
 90
-16777216
102
RTVSPost2010PropOp51
 70
     0
102
RTVSPost2010Prop52
140
1.0
102
RTVSPost2010PropOp52
 70
     0
102
RTVSPost2010Prop53
 90
        2
102
RTVSPost2010PropOp53
 70
     1
102
RTVSPost2010Prop54
  1
strokes_ogs.tif
102
RTVSPost2010PropOp54
 70
     1
102
RTVSPost2010Prop55
280
     0
102
RTVSPost2010PropOp55
 70
     1
102
RTVSPost2010Prop56
140
1.0
102
RTVSPost2010PropOp56
 70
     1
102
RTVSPost2010Prop57
140
1.0
102
RTVSPost2010PropOp57
 70
     1
102
RTVSPropertyOp0
 70
     1
102
RTVSPropertyOp1
 70
     1
102
RTVSPropertyOp2
 70
     1
102
RTVSPropertyOp3
 70
     1
102
RTVSPropertyOp4
 70
     1
102
RTVSPropertyOp5
 70
     1
102
RTVSPropertyOp6
 70
     1
102
RTVSPropertyOp7
 70
     1
102
RTVSPropertyOp8
 70
     1
102
RTVSPropertyOp9
 70
     1
102
RTVSPropertyOp10
 70
     1
102
RTVSPropertyOp11
 70
     1
102
RTVSPropertyOp12
 70
     1
102
RTVSPropertyOp13
 70
     1
102
RTVSPropertyOp14
 70
     1
102
RTVSPropertyOp15
 70
     1
102
RTVSPropertyOp16
 70
     1
102
RTVSPropertyOp17
 70
     1
102
RTVSPropertyOp18
 70
     1
102
RTVSPropertyOp19
 70
     1
102
RTVSPropertyOp20
 70
     1
102
RTVSPropertyOp21
 70
     1
102
RTVSPropertyOp22
 70
     1
102
RTVSPropertyOp23
 70
     1
102
RTVSPropertyOp24
 70
     1
102
RTVSPropertyOp25
 70
     1
102
RTVSPropertyOp26
 70
     1
102
RTVSPropertyOp27
 70
     1
102
RTVSPropertyOp28
 70
     1
102
RTVSPropertyOp29
 70
     1
102
RTVSPropertyOp30
 70
     1
102
RTVSPropertyOp31
 70
     1
102
RTVSPropertyOp32
 70
     1
102
RTVSPropertyOp33
 70
     1
102
RTVSPropertyOp34
 70
     1
102
RTVSPropertyOp35
 70
     1
102
RTVSPropertyOp36
 70
     1
102
RTVSPropertyOp37
 70
     1
102
RTVSPropertyOp38
 70
     1
102
RTVSPropertyOp39
 70
     1
102
RTVSPropertyOp40
 70
     1
102
RTVSPropertyOp41
 70
     1
102
RTVSPropertyOp42
 70
     1
102
RTVSPropertyOp43
 70
     1
102
RTVSPropertyOp44
 70
     1
102
RTVSPropertyOp45
 70
     1
102
RTVSPropertyOp46
 70
     1
102
RTVSPropertyOp47
 70
     1
102
RTVSPropertyOp48
 70
     1
102
RTVSPropertyOp49
 70
     1
102
RTVSPropertyOp50
 70
     1
102
RTVSPropertyOp51
 70
     0
102
RTVSPropertyOp52
 70
     0
102
RTVSPropertyOp53
 70
     1
102
RTVSPropertyOp54
 70
     1
102
RTVSPropertyOp55
 70
     1
102
RTVSPropertyOp56
 70
     1
102
RTVSPropertyOp57
 70
     1
102
RTVSPropertyOp58
 70
     1
102
RTVSPropertyOp59
 70
     1
102
RTVSPropertyOp60
 70
     1
102
RTVSPropertyOp61
 70
     1
102
RTVSPropertyOp62
 70
     1
  0
XRECORD
  5
4AC
102
{ACAD_REACTORS
330
4AB
102
}
330
4AB
100
AcDbXrecord
280
     1
102
RTVSPost2010Prop28
280
     0
102
RTVSPost2010PropOp28
 70
     0
102
RTVSPost2010Prop29
280
     1
102
RTVSPost2010PropOp29
 70
     0
102
RTVSPost2010Prop30
280
     1
102
RTVSPost2010PropOp30
 70
     0
102
RTVSPost2010Prop31
280
     0
102
RTVSPost2010PropOp31
 70
     0
102
RTVSPost2010Prop32
280
     0
102
RTVSPost2010PropOp32
 70
     0
102
RTVSPost2010Prop33
280
     0
102
RTVSPost2010PropOp33
 70
     0
102
RTVSPost2010Prop34
280
     0
102
RTVSPost2010PropOp34
 70
     0
102
RTVSPost2010Prop35
280
     0
102
RTVSPost2010PropOp35
 70
     0
102
RTVSPost2010Prop36
280
     0
102
RTVSPost2010PropOp36
 70
     0
102
RTVSPost2010Prop37
 90
       50
102
RTVSPost2010PropOp37
 70
     0
102
RTVSPost2010Prop38
140
0.0
102
RTVSPost2010PropOp38
 70
     0
102
RTVSPost2010Prop39
140
1.0
102
RTVSPost2010PropOp39
 70
     0
102
RTVSPost2010Prop40
 90
        0
102
RTVSPost2010PropOp40
 70
     0
102
RTVSPost2010Prop41ColorIndex
 90
       18
102
RTVSPost2010Prop41ColorRGB
 90
        0
102
RTVSPost2010PropOp41
 70
     0
102
RTVSPost2010Prop42
 90
       50
102
RTVSPost2010PropOp42
 70
     0
102
RTVSPost2010Prop43
 90
        3
102
RTVSPost2010PropOp43
 70
     0
102
RTVSPost2010Prop44ColorIndex
 90
        5
102
RTVSPost2010Prop44ColorRGB
 90
      255
102
RTVSPost2010PropOp44
 70
     0
102
RTVSPost2010Prop45
280
     0
102
RTVSPost2010PropOp45
 70
     0
102
RTVSPost2010Prop46
 90
       50
102
RTVSPost2010PropOp46
 70
     0
102
RTVSPost2010Prop47
 90
       50
102
RTVSPost2010PropOp47
 70
     0
102
RTVSPost2010Prop48
 90
       50
102
RTVSPost2010PropOp48
 70
     0
102
RTVSPost2010Prop49
280
     0
102
RTVSPost2010PropOp49
 70
     0
102
RTVSPost2010Prop50
 90
       50
102
RTVSPost2010PropOp50
 70
     0
102
RTVSPost2010Prop51ColorIndex
 90
      256
102
RTVSPost2010Prop51ColorRGB
 90
-16777216
102
RTVSPost2010PropOp51
 70
     0
102
RTVSPost2010Prop52
140
1.0
102
RTVSPost2010PropOp52
 70
     0
102
RTVSPost2010Prop53
 90
        2
102
RTVSPost2010PropOp53
 70
     0
102
RTVSPost2010Prop54
  1
strokes_ogs.tif
102
RTVSPost2010PropOp54
 70
     0
102
RTVSPost2010Prop55
280
     0
102
RTVSPost2010PropOp55
 70
     0
102
RTVSPost2010Prop56
140
1.0
102
RTVSPost2010PropOp56
 70
     0
102
RTVSPost2010Prop57
140
1.0
102
RTVSPost2010PropOp57
 70
     0
102
RTVSPropertyOp0
 70
     0
102
RTVSPropertyOp1
 70
     0
102
RTVSPropertyOp2
 70
     0
102
RTVSPropertyOp3
 70
     0
102
RTVSPropertyOp4
 70
     0
102
RTVSPropertyOp5
 70
     0
102
RTVSPropertyOp6
 70
     0
102
RTVSPropertyOp7
 70
     0
102
RTVSPropertyOp8
 70
     0
102
RTVSPropertyOp9
 70
     0
102
RTVSPropertyOp10
 70
     0
102
RTVSPropertyOp11
 70
     0
102
RTVSPropertyOp12
 70
     0
102
RTVSPropertyOp13
 70
     0
102
RTVSPropertyOp14
 70
     2
102
RTVSPropertyOp15
 70
     0
102
RTVSPropertyOp16
 70
     0
102
RTVSPropertyOp17
 70
     0
102
RTVSPropertyOp18
 70
     0
102
RTVSPropertyOp19
 70
     0
102
RTVSPropertyOp20
 70
     0
102
RTVSPropertyOp21
 70
     0
102
RTVSPropertyOp22
 70
     0
102
RTVSPropertyOp23
 70
     0
102
RTVSPropertyOp24
 70
     0
102
RTVSPropertyOp25
 70
     0
102
RTVSPropertyOp26
 70
     0
102
RTVSPropertyOp27
 70
     0
102
RTVSPropertyOp28
 70
     0
102
RTVSPropertyOp29
 70
     0
102
RTVSPropertyOp30
 70
     0
102
RTVSPropertyOp31
 70
     0
102
RTVSPropertyOp32
 70
     0
102
RTVSPropertyOp33
 70
     0
102
RTVSPropertyOp34
 70
     0
102
RTVSPropertyOp35
 70
     0
102
RTVSPropertyOp36
 70
     0
102
RTVSPropertyOp37
 70
     0
102
RTVSPropertyOp38
 70
     0
102
RTVSPropertyOp39
 70
     0
102
RTVSPropertyOp40
 70
     0
102
RTVSPropertyOp41
 70
     0
102
RTVSPropertyOp42
 70
     0
102
RTVSPropertyOp43
 70
     0
102
RTVSPropertyOp44
 70
     0
102
RTVSPropertyOp45
 70
     0
102
RTVSPropertyOp46
 70
     0
102
RTVSPropertyOp47
 70
     0
102
RTVSPropertyOp48
 70
     0
102
RTVSPropertyOp49
 70
     0
102
RTVSPropertyOp50
 70
     0
102
RTVSPropertyOp51
 70
     0
102
RTVSPropertyOp52
 70
     0
102
RTVSPropertyOp53
 70
     0
102
RTVSPropertyOp54
 70
     0
102
RTVSPropertyOp55
 70
     0
102
RTVSPropertyOp56
 70
     0
102
RTVSPropertyOp57
 70
     0
102
RTVSPropertyOp58
 70
     0
102
RTVSPropertyOp59
 70
     0
102
RTVSPropertyOp60
 70
     0
102
RTVSPropertyOp61
 70
     0
102
RTVSPropertyOp62
 70
     0
  0
XRECORD
  5
49C
102
{ACAD_REACTORS
330
49B
102
}
330
49B
100
AcDbXrecord
280
     1
102
RTVSPost2010Prop28
280
     0
102
RTVSPost2010PropOp28
 70
     1
102
RTVSPost2010Prop29
280
     1
102
RTVSPost2010PropOp29
 70
     1
102
RTVSPost2010Prop30
280
     1
102
RTVSPost2010PropOp30
 70
     1
102
RTVSPost2010Prop31
280
     0
102
RTVSPost2010PropOp31
 70
     1
102
RTVSPost2010Prop32
280
     0
102
RTVSPost2010PropOp32
 70
     1
102
RTVSPost2010Prop33
280
     0
102
RTVSPost2010PropOp33
 70
     1
102
RTVSPost2010Prop34
280
     0
102
RTVSPost2010PropOp34
 70
     1
102
RTVSPost2010Prop35
280
     0
102
RTVSPost2010PropOp35
 70
     1
102
RTVSPost2010Prop36
280
     0
102
RTVSPost2010PropOp36
 70
     1
102
RTVSPost2010Prop37
 90
       50
102
RTVSPost2010PropOp37
 70
     1
102
RTVSPost2010Prop38
140
0.0
102
RTVSPost2010PropOp38
 70
     1
102
RTVSPost2010Prop39
140
1.0
102
RTVSPost2010PropOp39
 70
     1
102
RTVSPost2010Prop40
 90
        0
102
RTVSPost2010PropOp40
 70
     1
102
RTVSPost2010Prop41ColorIndex
 90
       18
102
RTVSPost2010Prop41ColorRGB
 90
        0
102
RTVSPost2010PropOp41
 70
     1
102
RTVSPost2010Prop42
 90
       50
102
RTVSPost2010PropOp42
 70
     1
102
RTVSPost2010Prop43
 90
        3
102
RTVSPost2010PropOp43
 70
     1
102
RTVSPost2010Prop44ColorIndex
 90
        5
102
RTVSPost2010Prop44ColorRGB
 90
      255
102
RTVSPost2010PropOp44
 70
     1
102
RTVSPost2010Prop45
280
     0
102
RTVSPost2010PropOp45
 70
     1
102
RTVSPost2010Prop46
 90
       50
102
RTVSPost2010PropOp46
 70
     1
102
RTVSPost2010Prop47
 90
       50
102
RTVSPost2010PropOp47
 70
     1
102
RTVSPost2010Prop48
 90
       50
102
RTVSPost2010PropOp48
 70
     1
102
RTVSPost2010Prop49
280
     0
102
RTVSPost2010PropOp49
 70
     1
102
RTVSPost2010Prop50
 90
       50
102
RTVSPost2010PropOp50
 70
     1
102
RTVSPost2010Prop51ColorIndex
 90
      256
102
RTVSPost2010Prop51ColorRGB
 90
-16777216
102
RTVSPost2010PropOp51
 70
     0
102
RTVSPost2010Prop52
140
1.0
102
RTVSPost2010PropOp52
 70
     0
102
RTVSPost2010Prop53
 90
        2
102
RTVSPost2010PropOp53
 70
     1
102
RTVSPost2010Prop54
  1
strokes_ogs.tif
102
RTVSPost2010PropOp54
 70
     1
102
RTVSPost2010Prop55
280
     0
102
RTVSPost2010PropOp55
 70
     1
102
RTVSPost2010Prop56
140
1.0
102
RTVSPost2010PropOp56
 70
     1
102
RTVSPost2010Prop57
140
1.0
102
RTVSPost2010PropOp57
 70
     1
102
RTVSPropertyOp0
 70
     1
102
RTVSPropertyOp1
 70
     1
102
RTVSPropertyOp2
 70
     1
102
RTVSPropertyOp3
 70
     1
102
RTVSPropertyOp4
 70
     1
102
RTVSPropertyOp5
 70
     1
102
RTVSPropertyOp6
 70
     1
102
RTVSPropertyOp7
 70
     1
102
RTVSPropertyOp8
 70
     1
102
RTVSPropertyOp9
 70
     1
102
RTVSPropertyOp10
 70
     1
102
RTVSPropertyOp11
 70
     1
102
RTVSPropertyOp12
 70
     1
102
RTVSPropertyOp13
 70
     1
102
RTVSPropertyOp14
 70
     1
102
RTVSPropertyOp15
 70
     1
102
RTVSPropertyOp16
 70
     1
102
RTVSPropertyOp17
 70
     1
102
RTVSPropertyOp18
 70
     1
102
RTVSPropertyOp19
 70
     1
102
RTVSPropertyOp20
 70
     1
102
RTVSPropertyOp21
 70
     1
102
RTVSPropertyOp22
 70
     1
102
RTVSPropertyOp23
 70
     1
102
RTVSPropertyOp24
 70
     1
102
RTVSPropertyOp25
 70
     1
102
RTVSPropertyOp26
 70
     1
102
RTVSPropertyOp27
 70
     1
102
RTVSPropertyOp28
 70
     1
102
RTVSPropertyOp29
 70
     1
102
RTVSPropertyOp30
 70
     1
102
RTVSPropertyOp31
 70
     1
102
RTVSPropertyOp32
 70
     1
102
RTVSPropertyOp33
 70
     1
102
RTVSPropertyOp34
 70
     1
102
RTVSPropertyOp35
 70
     1
102
RTVSPropertyOp36
 70
     1
102
RTVSPropertyOp37
 70
     1
102
RTVSPropertyOp38
 70
     1
102
RTVSPropertyOp39
 70
     1
102
RTVSPropertyOp40
 70
     1
102
RTVSPropertyOp41
 70
     1
102
RTVSPropertyOp42
 70
     1
102
RTVSPropertyOp43
 70
     1
102
RTVSPropertyOp44
 70
     1
102
RTVSPropertyOp45
 70
     1
102
RTVSPropertyOp46
 70
     1
102
RTVSPropertyOp47
 70
     1
102
RTVSPropertyOp48
 70
     1
102
RTVSPropertyOp49
 70
     1
102
RTVSPropertyOp50
 70
     1
102
RTVSPropertyOp51
 70
     0
102
RTVSPropertyOp52
 70
     0
102
RTVSPropertyOp53
 70
     1
102
RTVSPropertyOp54
 70
     1
102
RTVSPropertyOp55
 70
     1
102
RTVSPropertyOp56
 70
     1
102
RTVSPropertyOp57
 70
     1
102
RTVSPropertyOp58
 70
     1
102
RTVSPropertyOp59
 70
     1
102
RTVSPropertyOp60
 70
     1
102
RTVSPropertyOp61
 70
     1
102
RTVSPropertyOp62
 70
     1
  0
XRECORD
  5
4AE
102
{ACAD_REACTORS
330
4AD
102
}
330
4AD
100
AcDbXrecord
280
     1
102
RTVSPost2010Prop28
280
     0
102
RTVSPost2010PropOp28
 70
     0
102
RTVSPost2010Prop29
280
     1
102
RTVSPost2010PropOp29
 70
     0
102
RTVSPost2010Prop30
280
     1
102
RTVSPost2010PropOp30
 70
     0
102
RTVSPost2010Prop31
280
     0
102
RTVSPost2010PropOp31
 70
     0
102
RTVSPost2010Prop32
280
     0
102
RTVSPost2010PropOp32
 70
     0
102
RTVSPost2010Prop33
280
     0
102
RTVSPost2010PropOp33
 70
     0
102
RTVSPost2010Prop34
280
     0
102
RTVSPost2010PropOp34
 70
     0
102
RTVSPost2010Prop35
280
     0
102
RTVSPost2010PropOp35
 70
     0
102
RTVSPost2010Prop36
280
     0
102
RTVSPost2010PropOp36
 70
     0
102
RTVSPost2010Prop37
 90
       50
102
RTVSPost2010PropOp37
 70
     0
102
RTVSPost2010Prop38
140
0.0
102
RTVSPost2010PropOp38
 70
     0
102
RTVSPost2010Prop39
140
1.0
102
RTVSPost2010PropOp39
 70
     0
102
RTVSPost2010Prop40
 90
        0
102
RTVSPost2010PropOp40
 70
     0
102
RTVSPost2010Prop41ColorIndex
 90
       18
102
RTVSPost2010Prop41ColorRGB
 90
        0
102
RTVSPost2010PropOp41
 70
     0
102
RTVSPost2010Prop42
 90
       50
102
RTVSPost2010PropOp42
 70
     0
102
RTVSPost2010Prop43
 90
        3
102
RTVSPost2010PropOp43
 70
     0
102
RTVSPost2010Prop44ColorIndex
 90
        5
102
RTVSPost2010Prop44ColorRGB
 90
      255
102
RTVSPost2010PropOp44
 70
     0
102
RTVSPost2010Prop45
280
     0
102
RTVSPost2010PropOp45
 70
     0
102
RTVSPost2010Prop46
 90
       50
102
RTVSPost2010PropOp46
 70
     0
102
RTVSPost2010Prop47
 90
       50
102
RTVSPost2010PropOp47
 70
     0
102
RTVSPost2010Prop48
 90
       50
102
RTVSPost2010PropOp48
 70
     0
102
RTVSPost2010Prop49
280
     0
102
RTVSPost2010PropOp49
 70
     0
102
RTVSPost2010Prop50
 90
       50
102
RTVSPost2010PropOp50
 70
     0
102
RTVSPost2010Prop51ColorIndex
 90
      256
102
RTVSPost2010Prop51ColorRGB
 90
-16777216
102
RTVSPost2010PropOp51
 70
     0
102
RTVSPost2010Prop52
140
1.0
102
RTVSPost2010PropOp52
 70
     0
102
RTVSPost2010Prop53
 90
        2
102
RTVSPost2010PropOp53
 70
     0
102
RTVSPost2010Prop54
  1
strokes_ogs.tif
102
RTVSPost2010PropOp54
 70
     0
102
RTVSPost2010Prop55
280
     0
102
RTVSPost2010PropOp55
 70
     0
102
RTVSPost2010Prop56
140
1.0
102
RTVSPost2010PropOp56
 70
     0
102
RTVSPost2010Prop57
140
1.0
102
RTVSPost2010PropOp57
 70
     0
102
RTVSPropertyOp0
 70
     0
102
RTVSPropertyOp1
 70
     0
102
RTVSPropertyOp2
 70
     0
102
RTVSPropertyOp3
 70
     0
102
RTVSPropertyOp4
 70
     0
102
RTVSPropertyOp5
 70
     0
102
RTVSPropertyOp6
 70
     0
102
RTVSPropertyOp7
 70
     0
102
RTVSPropertyOp8
 70
     0
102
RTVSPropertyOp9
 70
     0
102
RTVSPropertyOp10
 70
     0
102
RTVSPropertyOp11
 70
     0
102
RTVSPropertyOp12
 70
     0
102
RTVSPropertyOp13
 70
     0
102
RTVSPropertyOp14
 70
     2
102
RTVSPropertyOp15
 70
     0
102
RTVSPropertyOp16
 70
     0
102
RTVSPropertyOp17
 70
     0
102
RTVSPropertyOp18
 70
     0
102
RTVSPropertyOp19
 70
     0
102
RTVSPropertyOp20
 70
     0
102
RTVSPropertyOp21
 70
     0
102
RTVSPropertyOp22
 70
     0
102
RTVSPropertyOp23
 70
     0
102
RTVSPropertyOp24
 70
     0
102
RTVSPropertyOp25
 70
     0
102
RTVSPropertyOp26
 70
     0
102
RTVSPropertyOp27
 70
     0
102
RTVSPropertyOp28
 70
     0
102
RTVSPropertyOp29
 70
     0
102
RTVSPropertyOp30
 70
     0
102
RTVSPropertyOp31
 70
     0
102
RTVSPropertyOp32
 70
     0
102
RTVSPropertyOp33
 70
     0
102
RTVSPropertyOp34
 70
     0
102
RTVSPropertyOp35
 70
     0
102
RTVSPropertyOp36
 70
     0
102
RTVSPropertyOp37
 70
     0
102
RTVSPropertyOp38
 70
     0
102
RTVSPropertyOp39
 70
     0
102
RTVSPropertyOp40
 70
     0
102
RTVSPropertyOp41
 70
     0
102
RTVSPropertyOp42
 70
     0
102
RTVSPropertyOp43
 70
     0
102
RTVSPropertyOp44
 70
     0
102
RTVSPropertyOp45
 70
     0
102
RTVSPropertyOp46
 70
     0
102
RTVSPropertyOp47
 70
     0
102
RTVSPropertyOp48
 70
     0
102
RTVSPropertyOp49
 70
     0
102
RTVSPropertyOp50
 70
     0
102
RTVSPropertyOp51
 70
     0
102
RTVSPropertyOp52
 70
     0
102
RTVSPropertyOp53
 70
     0
102
RTVSPropertyOp54
 70
     0
102
RTVSPropertyOp55
 70
     0
102
RTVSPropertyOp56
 70
     0
102
RTVSPropertyOp57
 70
     0
102
RTVSPropertyOp58
 70
     0
102
RTVSPropertyOp59
 70
     0
102
RTVSPropertyOp60
 70
     0
102
RTVSPropertyOp61
 70
     0
102
RTVSPropertyOp62
 70
     0
  0
XRECORD
  5
494
102
{ACAD_REACTORS
330
493
102
}
330
493
100
AcDbXrecord
280
     1
102
RTVSPost2010Prop28
280
     0
102
RTVSPost2010PropOp28
 70
     1
102
RTVSPost2010Prop29
280
     1
102
RTVSPost2010PropOp29
 70
     1
102
RTVSPost2010Prop30
280
     1
102
RTVSPost2010PropOp30
 70
     1
102
RTVSPost2010Prop31
280
     0
102
RTVSPost2010PropOp31
 70
     1
102
RTVSPost2010Prop32
280
     0
102
RTVSPost2010PropOp32
 70
     1
102
RTVSPost2010Prop33
280
     0
102
RTVSPost2010PropOp33
 70
     1
102
RTVSPost2010Prop34
280
     0
102
RTVSPost2010PropOp34
 70
     1
102
RTVSPost2010Prop35
280
     0
102
RTVSPost2010PropOp35
 70
     1
102
RTVSPost2010Prop36
280
     0
102
RTVSPost2010PropOp36
 70
     1
102
RTVSPost2010Prop37
 90
       50
102
RTVSPost2010PropOp37
 70
     1
102
RTVSPost2010Prop38
140
0.0
102
RTVSPost2010PropOp38
 70
     1
102
RTVSPost2010Prop39
140
1.0
102
RTVSPost2010PropOp39
 70
     1
102
RTVSPost2010Prop40
 90
        0
102
RTVSPost2010PropOp40
 70
     1
102
RTVSPost2010Prop41ColorIndex
 90
       18
102
RTVSPost2010Prop41ColorRGB
 90
        0
102
RTVSPost2010PropOp41
 70
     1
102
RTVSPost2010Prop42
 90
       50
102
RTVSPost2010PropOp42
 70
     1
102
RTVSPost2010Prop43
 90
        3
102
RTVSPost2010PropOp43
 70
     1
102
RTVSPost2010Prop44ColorIndex
 90
        5
102
RTVSPost2010Prop44ColorRGB
 90
      255
102
RTVSPost2010PropOp44
 70
     1
102
RTVSPost2010Prop45
280
     0
102
RTVSPost2010PropOp45
 70
     1
102
RTVSPost2010Prop46
 90
       50
102
RTVSPost2010PropOp46
 70
     1
102
RTVSPost2010Prop47
 90
       50
102
RTVSPost2010PropOp47
 70
     1
102
RTVSPost2010Prop48
 90
       50
102
RTVSPost2010PropOp48
 70
     1
102
RTVSPost2010Prop49
280
     0
102
RTVSPost2010PropOp49
 70
     1
102
RTVSPost2010Prop50
 90
       50
102
RTVSPost2010PropOp50
 70
     1
102
RTVSPost2010Prop51ColorIndex
 90
      256
102
RTVSPost2010Prop51ColorRGB
 90
-16777216
102
RTVSPost2010PropOp51
 70
     0
102
RTVSPost2010Prop52
140
1.0
102
RTVSPost2010PropOp52
 70
     0
102
RTVSPost2010Prop53
 90
        2
102
RTVSPost2010PropOp53
 70
     1
102
RTVSPost2010Prop54
  1
strokes_ogs.tif
102
RTVSPost2010PropOp54
 70
     1
102
RTVSPost2010Prop55
280
     0
102
RTVSPost2010PropOp55
 70
     1
102
RTVSPost2010Prop56
140
1.0
102
RTVSPost2010PropOp56
 70
     1
102
RTVSPost2010Prop57
140
1.0
102
RTVSPost2010PropOp57
 70
     1
102
RTVSPropertyOp0
 70
     1
102
RTVSPropertyOp1
 70
     1
102
RTVSPropertyOp2
 70
     1
102
RTVSPropertyOp3
 70
     1
102
RTVSPropertyOp4
 70
     1
102
RTVSPropertyOp5
 70
     1
102
RTVSPropertyOp6
 70
     1
102
RTVSPropertyOp7
 70
     1
102
RTVSPropertyOp8
 70
     1
102
RTVSPropertyOp9
 70
     1
102
RTVSPropertyOp10
 70
     1
102
RTVSPropertyOp11
 70
     1
102
RTVSPropertyOp12
 70
     1
102
RTVSPropertyOp13
 70
     1
102
RTVSPropertyOp14
 70
     1
102
RTVSPropertyOp15
 70
     1
102
RTVSPropertyOp16
 70
     1
102
RTVSPropertyOp17
 70
     1
102
RTVSPropertyOp18
 70
     1
102
RTVSPropertyOp19
 70
     1
102
RTVSPropertyOp20
 70
     1
102
RTVSPropertyOp21
 70
     1
102
RTVSPropertyOp22
 70
     1
102
RTVSPropertyOp23
 70
     1
102
RTVSPropertyOp24
 70
     1
102
RTVSPropertyOp25
 70
     1
102
RTVSPropertyOp26
 70
     1
102
RTVSPropertyOp27
 70
     1
102
RTVSPropertyOp28
 70
     1
102
RTVSPropertyOp29
 70
     1
102
RTVSPropertyOp30
 70
     1
102
RTVSPropertyOp31
 70
     1
102
RTVSPropertyOp32
 70
     1
102
RTVSPropertyOp33
 70
     1
102
RTVSPropertyOp34
 70
     1
102
RTVSPropertyOp35
 70
     1
102
RTVSPropertyOp36
 70
     1
102
RTVSPropertyOp37
 70
     1
102
RTVSPropertyOp38
 70
     1
102
RTVSPropertyOp39
 70
     1
102
RTVSPropertyOp40
 70
     1
102
RTVSPropertyOp41
 70
     1
102
RTVSPropertyOp42
 70
     1
102
RTVSPropertyOp43
 70
     1
102
RTVSPropertyOp44
 70
     1
102
RTVSPropertyOp45
 70
     1
102
RTVSPropertyOp46
 70
     1
102
RTVSPropertyOp47
 70
     1
102
RTVSPropertyOp48
 70
     1
102
RTVSPropertyOp49
 70
     1
102
RTVSPropertyOp50
 70
     1
102
RTVSPropertyOp51
 70
     0
102
RTVSPropertyOp52
 70
     0
102
RTVSPropertyOp53
 70
     1
102
RTVSPropertyOp54
 70
     1
102
RTVSPropertyOp55
 70
     1
102
RTVSPropertyOp56
 70
     1
102
RTVSPropertyOp57
 70
     1
102
RTVSPropertyOp58
 70
     1
102
RTVSPropertyOp59
 70
     1
102
RTVSPropertyOp60
 70
     1
102
RTVSPropertyOp61
 70
     1
102
RTVSPropertyOp62
 70
     1
  0
XRECORD
  5
4AA
102
{ACAD_REACTORS
330
4A9
102
}
330
4A9
100
AcDbXrecord
280
     1
102
RTVSPost2010Prop28
280
     0
102
RTVSPost2010PropOp28
 70
     1
102
RTVSPost2010Prop29
280
     1
102
RTVSPost2010PropOp29
 70
     1
102
RTVSPost2010Prop30
280
     1
102
RTVSPost2010PropOp30
 70
     1
102
RTVSPost2010Prop31
280
     0
102
RTVSPost2010PropOp31
 70
     1
102
RTVSPost2010Prop32
280
     0
102
RTVSPost2010PropOp32
 70
     1
102
RTVSPost2010Prop33
280
     0
102
RTVSPost2010PropOp33
 70
     1
102
RTVSPost2010Prop34
280
     0
102
RTVSPost2010PropOp34
 70
     1
102
RTVSPost2010Prop35
280
     0
102
RTVSPost2010PropOp35
 70
     1
102
RTVSPost2010Prop36
280
     0
102
RTVSPost2010PropOp36
 70
     1
102
RTVSPost2010Prop37
 90
       50
102
RTVSPost2010PropOp37
 70
     1
102
RTVSPost2010Prop38
140
0.0
102
RTVSPost2010PropOp38
 70
     1
102
RTVSPost2010Prop39
140
1.0
102
RTVSPost2010PropOp39
 70
     1
102
RTVSPost2010Prop40
 90
        0
102
RTVSPost2010PropOp40
 70
     1
102
RTVSPost2010Prop41ColorIndex
 90
       18
102
RTVSPost2010Prop41ColorRGB
 90
        0
102
RTVSPost2010PropOp41
 70
     1
102
RTVSPost2010Prop42
 90
       50
102
RTVSPost2010PropOp42
 70
     1
102
RTVSPost2010Prop43
 90
        3
102
RTVSPost2010PropOp43
 70
     1
102
RTVSPost2010Prop44ColorIndex
 90
        5
102
RTVSPost2010Prop44ColorRGB
 90
      255
102
RTVSPost2010PropOp44
 70
     1
102
RTVSPost2010Prop45
280
     0
102
RTVSPost2010PropOp45
 70
     1
102
RTVSPost2010Prop46
 90
       50
102
RTVSPost2010PropOp46
 70
     1
102
RTVSPost2010Prop47
 90
       50
102
RTVSPost2010PropOp47
 70
     1
102
RTVSPost2010Prop48
 90
       50
102
RTVSPost2010PropOp48
 70
     1
102
RTVSPost2010Prop49
280
     0
102
RTVSPost2010PropOp49
 70
     1
102
RTVSPost2010Prop50
 90
       50
102
RTVSPost2010PropOp50
 70
     1
102
RTVSPost2010Prop51ColorIndex
 90
      256
102
RTVSPost2010Prop51ColorRGB
 90
-16777216
102
RTVSPost2010PropOp51
 70
     0
102
RTVSPost2010Prop52
140
1.0
102
RTVSPost2010PropOp52
 70
     0
102
RTVSPost2010Prop53
 90
        2
102
RTVSPost2010PropOp53
 70
     1
102
RTVSPost2010Prop54
  1
strokes_ogs.tif
102
RTVSPost2010PropOp54
 70
     1
102
RTVSPost2010Prop55
280
     0
102
RTVSPost2010PropOp55
 70
     1
102
RTVSPost2010Prop56
140
1.0
102
RTVSPost2010PropOp56
 70
     1
102
RTVSPost2010Prop57
140
1.0
102
RTVSPost2010PropOp57
 70
     1
102
RTVSPropertyOp0
 70
     1
102
RTVSPropertyOp1
 70
     1
102
RTVSPropertyOp2
 70
     1
102
RTVSPropertyOp3
 70
     1
102
RTVSPropertyOp4
 70
     1
102
RTVSPropertyOp5
 70
     1
102
RTVSPropertyOp6
 70
     1
102
RTVSPropertyOp7
 70
     1
102
RTVSPropertyOp8
 70
     1
102
RTVSPropertyOp9
 70
     1
102
RTVSPropertyOp10
 70
     1
102
RTVSPropertyOp11
 70
     1
102
RTVSPropertyOp12
 70
     1
102
RTVSPropertyOp13
 70
     1
102
RTVSPropertyOp14
 70
     1
102
RTVSPropertyOp15
 70
     1
102
RTVSPropertyOp16
 70
     1
102
RTVSPropertyOp17
 70
     1
102
RTVSPropertyOp18
 70
     1
102
RTVSPropertyOp19
 70
     1
102
RTVSPropertyOp20
 70
     1
102
RTVSPropertyOp21
 70
     1
102
RTVSPropertyOp22
 70
     1
102
RTVSPropertyOp23
 70
     1
102
RTVSPropertyOp24
 70
     1
102
RTVSPropertyOp25
 70
     1
102
RTVSPropertyOp26
 70
     1
102
RTVSPropertyOp27
 70
     1
102
RTVSPropertyOp28
 70
     1
102
RTVSPropertyOp29
 70
     1
102
RTVSPropertyOp30
 70
     1
102
RTVSPropertyOp31
 70
     1
102
RTVSPropertyOp32
 70
     1
102
RTVSPropertyOp33
 70
     1
102
RTVSPropertyOp34
 70
     1
102
RTVSPropertyOp35
 70
     1
102
RTVSPropertyOp36
 70
     1
102
RTVSPropertyOp37
 70
     1
102
RTVSPropertyOp38
 70
     1
102
RTVSPropertyOp39
 70
     1
102
RTVSPropertyOp40
 70
     1
102
RTVSPropertyOp41
 70
     1
102
RTVSPropertyOp42
 70
     1
102
RTVSPropertyOp43
 70
     1
102
RTVSPropertyOp44
 70
     1
102
RTVSPropertyOp45
 70
     1
102
RTVSPropertyOp46
 70
     1
102
RTVSPropertyOp47
 70
     1
102
RTVSPropertyOp48
 70
     1
102
RTVSPropertyOp49
 70
     1
102
RTVSPropertyOp50
 70
     1
102
RTVSPropertyOp51
 70
     0
102
RTVSPropertyOp52
 70
     0
102
RTVSPropertyOp53
 70
     1
102
RTVSPropertyOp54
 70
     1
102
RTVSPropertyOp55
 70
     1
102
RTVSPropertyOp56
 70
     1
102
RTVSPropertyOp57
 70
     1
102
RTVSPropertyOp58
 70
     1
102
RTVSPropertyOp59
 70
     1
102
RTVSPropertyOp60
 70
     1
102
RTVSPropertyOp61
 70
     1
102
RTVSPropertyOp62
 70
     1
  0
XRECORD
  5
4A8
102
{ACAD_REACTORS
330
4A7
102
}
330
4A7
100
AcDbXrecord
280
     1
102
RTVSPost2010Prop28
280
     0
102
RTVSPost2010PropOp28
 70
     1
102
RTVSPost2010Prop29
280
     1
102
RTVSPost2010PropOp29
 70
     1
102
RTVSPost2010Prop30
280
     1
102
RTVSPost2010PropOp30
 70
     1
102
RTVSPost2010Prop31
280
     0
102
RTVSPost2010PropOp31
 70
     1
102
RTVSPost2010Prop32
280
     0
102
RTVSPost2010PropOp32
 70
     1
102
RTVSPost2010Prop33
280
     0
102
RTVSPost2010PropOp33
 70
     1
102
RTVSPost2010Prop34
280
     0
102
RTVSPost2010PropOp34
 70
     1
102
RTVSPost2010Prop35
280
     0
102
RTVSPost2010PropOp35
 70
     1
102
RTVSPost2010Prop36
280
     0
102
RTVSPost2010PropOp36
 70
     1
102
RTVSPost2010Prop37
 90
       50
102
RTVSPost2010PropOp37
 70
     1
102
RTVSPost2010Prop38
140
0.0
102
RTVSPost2010PropOp38
 70
     1
102
RTVSPost2010Prop39
140
1.0
102
RTVSPost2010PropOp39
 70
     1
102
RTVSPost2010Prop40
 90
        0
102
RTVSPost2010PropOp40
 70
     1
102
RTVSPost2010Prop41ColorIndex
 90
       18
102
RTVSPost2010Prop41ColorRGB
 90
        0
102
RTVSPost2010PropOp41
 70
     1
102
RTVSPost2010Prop42
 90
       50
102
RTVSPost2010PropOp42
 70
     1
102
RTVSPost2010Prop43
 90
        3
102
RTVSPost2010PropOp43
 70
     1
102
RTVSPost2010Prop44ColorIndex
 90
        5
102
RTVSPost2010Prop44ColorRGB
 90
      255
102
RTVSPost2010PropOp44
 70
     1
102
RTVSPost2010Prop45
280
     0
102
RTVSPost2010PropOp45
 70
     1
102
RTVSPost2010Prop46
 90
       50
102
RTVSPost2010PropOp46
 70
     1
102
RTVSPost2010Prop47
 90
       50
102
RTVSPost2010PropOp47
 70
     1
102
RTVSPost2010Prop48
 90
       50
102
RTVSPost2010PropOp48
 70
     1
102
RTVSPost2010Prop49
280
     0
102
RTVSPost2010PropOp49
 70
     1
102
RTVSPost2010Prop50
 90
       50
102
RTVSPost2010PropOp50
 70
     1
102
RTVSPost2010Prop51ColorIndex
 90
      256
102
RTVSPost2010Prop51ColorRGB
 90
-16777216
102
RTVSPost2010PropOp51
 70
     0
102
RTVSPost2010Prop52
140
1.0
102
RTVSPost2010PropOp52
 70
     0
102
RTVSPost2010Prop53
 90
        2
102
RTVSPost2010PropOp53
 70
     1
102
RTVSPost2010Prop54
  1
strokes_ogs.tif
102
RTVSPost2010PropOp54
 70
     1
102
RTVSPost2010Prop55
280
     0
102
RTVSPost2010PropOp55
 70
     1
102
RTVSPost2010Prop56
140
1.0
102
RTVSPost2010PropOp56
 70
     1
102
RTVSPost2010Prop57
140
1.0
102
RTVSPost2010PropOp57
 70
     1
102
RTVSPropertyOp0
 70
     1
102
RTVSPropertyOp1
 70
     1
102
RTVSPropertyOp2
 70
     1
102
RTVSPropertyOp3
 70
     1
102
RTVSPropertyOp4
 70
     1
102
RTVSPropertyOp5
 70
     1
102
RTVSPropertyOp6
 70
     1
102
RTVSPropertyOp7
 70
     1
102
RTVSPropertyOp8
 70
     1
102
RTVSPropertyOp9
 70
     1
102
RTVSPropertyOp10
 70
     1
102
RTVSPropertyOp11
 70
     1
102
RTVSPropertyOp12
 70
     1
102
RTVSPropertyOp13
 70
     1
102
RTVSPropertyOp14
 70
     1
102
RTVSPropertyOp15
 70
     1
102
RTVSPropertyOp16
 70
     1
102
RTVSPropertyOp17
 70
     1
102
RTVSPropertyOp18
 70
     1
102
RTVSPropertyOp19
 70
     1
102
RTVSPropertyOp20
 70
     1
102
RTVSPropertyOp21
 70
     1
102
RTVSPropertyOp22
 70
     1
102
RTVSPropertyOp23
 70
     1
102
RTVSPropertyOp24
 70
     1
102
RTVSPropertyOp25
 70
     1
102
RTVSPropertyOp26
 70
     1
102
RTVSPropertyOp27
 70
     1
102
RTVSPropertyOp28
 70
     1
102
RTVSPropertyOp29
 70
     1
102
RTVSPropertyOp30
 70
     1
102
RTVSPropertyOp31
 70
     1
102
RTVSPropertyOp32
 70
     1
102
RTVSPropertyOp33
 70
     1
102
RTVSPropertyOp34
 70
     1
102
RTVSPropertyOp35
 70
     1
102
RTVSPropertyOp36
 70
     1
102
RTVSPropertyOp37
 70
     1
102
RTVSPropertyOp38
 70
     1
102
RTVSPropertyOp39
 70
     1
102
RTVSPropertyOp40
 70
     1
102
RTVSPropertyOp41
 70
     1
102
RTVSPropertyOp42
 70
     1
102
RTVSPropertyOp43
 70
     1
102
RTVSPropertyOp44
 70
     1
102
RTVSPropertyOp45
 70
     1
102
RTVSPropertyOp46
 70
     1
102
RTVSPropertyOp47
 70
     1
102
RTVSPropertyOp48
 70
     1
102
RTVSPropertyOp49
 70
     1
102
RTVSPropertyOp50
 70
     1
102
RTVSPropertyOp51
 70
     0
102
RTVSPropertyOp52
 70
     0
102
RTVSPropertyOp53
 70
     1
102
RTVSPropertyOp54
 70
     1
102
RTVSPropertyOp55
 70
     1
102
RTVSPropertyOp56
 70
     1
102
RTVSPropertyOp57
 70
     1
102
RTVSPropertyOp58
 70
     1
102
RTVSPropertyOp59
 70
     1
102
RTVSPropertyOp60
 70
     1
102
RTVSPropertyOp61
 70
     1
102
RTVSPropertyOp62
 70
     1
  0
XRECORD
  5
4A2
102
{ACAD_REACTORS
330
4A1
102
}
330
4A1
100
AcDbXrecord
280
     1
102
RTVSPost2010Prop28
280
     0
102
RTVSPost2010PropOp28
 70
     1
102
RTVSPost2010Prop29
280
     1
102
RTVSPost2010PropOp29
 70
     1
102
RTVSPost2010Prop30
280
     1
102
RTVSPost2010PropOp30
 70
     1
102
RTVSPost2010Prop31
280
     0
102
RTVSPost2010PropOp31
 70
     1
102
RTVSPost2010Prop32
280
     0
102
RTVSPost2010PropOp32
 70
     1
102
RTVSPost2010Prop33
280
     0
102
RTVSPost2010PropOp33
 70
     1
102
RTVSPost2010Prop34
280
     0
102
RTVSPost2010PropOp34
 70
     1
102
RTVSPost2010Prop35
280
     0
102
RTVSPost2010PropOp35
 70
     1
102
RTVSPost2010Prop36
280
     0
102
RTVSPost2010PropOp36
 70
     1
102
RTVSPost2010Prop37
 90
       50
102
RTVSPost2010PropOp37
 70
     1
102
RTVSPost2010Prop38
140
0.0
102
RTVSPost2010PropOp38
 70
     1
102
RTVSPost2010Prop39
140
1.0
102
RTVSPost2010PropOp39
 70
     1
102
RTVSPost2010Prop40
 90
        0
102
RTVSPost2010PropOp40
 70
     1
102
RTVSPost2010Prop41ColorIndex
 90
       18
102
RTVSPost2010Prop41ColorRGB
 90
        0
102
RTVSPost2010PropOp41
 70
     1
102
RTVSPost2010Prop42
 90
       50
102
RTVSPost2010PropOp42
 70
     1
102
RTVSPost2010Prop43
 90
        3
102
RTVSPost2010PropOp43
 70
     1
102
RTVSPost2010Prop44ColorIndex
 90
        5
102
RTVSPost2010Prop44ColorRGB
 90
      255
102
RTVSPost2010PropOp44
 70
     1
102
RTVSPost2010Prop45
280
     0
102
RTVSPost2010PropOp45
 70
     1
102
RTVSPost2010Prop46
 90
       50
102
RTVSPost2010PropOp46
 70
     1
102
RTVSPost2010Prop47
 90
       50
102
RTVSPost2010PropOp47
 70
     1
102
RTVSPost2010Prop48
 90
       50
102
RTVSPost2010PropOp48
 70
     1
102
RTVSPost2010Prop49
280
     0
102
RTVSPost2010PropOp49
 70
     1
102
RTVSPost2010Prop50
 90
       50
102
RTVSPost2010PropOp50
 70
     1
102
RTVSPost2010Prop51ColorIndex
 90
      256
102
RTVSPost2010Prop51ColorRGB
 90
-16777216
102
RTVSPost2010PropOp51
 70
     0
102
RTVSPost2010Prop52
140
1.0
102
RTVSPost2010PropOp52
 70
     0
102
RTVSPost2010Prop53
 90
        2
102
RTVSPost2010PropOp53
 70
     1
102
RTVSPost2010Prop54
  1
strokes_ogs.tif
102
RTVSPost2010PropOp54
 70
     1
102
RTVSPost2010Prop55
280
     0
102
RTVSPost2010PropOp55
 70
     1
102
RTVSPost2010Prop56
140
1.0
102
RTVSPost2010PropOp56
 70
     1
102
RTVSPost2010Prop57
140
1.0
102
RTVSPost2010PropOp57
 70
     1
102
RTVSPropertyOp0
 70
     1
102
RTVSPropertyOp1
 70
     1
102
RTVSPropertyOp2
 70
     1
102
RTVSPropertyOp3
 70
     1
102
RTVSPropertyOp4
 70
     1
102
RTVSPropertyOp5
 70
     1
102
RTVSPropertyOp6
 70
     1
102
RTVSPropertyOp7
 70
     1
102
RTVSPropertyOp8
 70
     1
102
RTVSPropertyOp9
 70
     1
102
RTVSPropertyOp10
 70
     1
102
RTVSPropertyOp11
 70
     1
102
RTVSPropertyOp12
 70
     1
102
RTVSPropertyOp13
 70
     1
102
RTVSPropertyOp14
 70
     1
102
RTVSPropertyOp15
 70
     1
102
RTVSPropertyOp16
 70
     1
102
RTVSPropertyOp17
 70
     1
102
RTVSPropertyOp18
 70
     1
102
RTVSPropertyOp19
 70
     1
102
RTVSPropertyOp20
 70
     1
102
RTVSPropertyOp21
 70
     1
102
RTVSPropertyOp22
 70
     1
102
RTVSPropertyOp23
 70
     1
102
RTVSPropertyOp24
 70
     1
102
RTVSPropertyOp25
 70
     1
102
RTVSPropertyOp26
 70
     1
102
RTVSPropertyOp27
 70
     1
102
RTVSPropertyOp28
 70
     1
102
RTVSPropertyOp29
 70
     1
102
RTVSPropertyOp30
 70
     1
102
RTVSPropertyOp31
 70
     1
102
RTVSPropertyOp32
 70
     1
102
RTVSPropertyOp33
 70
     1
102
RTVSPropertyOp34
 70
     1
102
RTVSPropertyOp35
 70
     1
102
RTVSPropertyOp36
 70
     1
102
RTVSPropertyOp37
 70
     1
102
RTVSPropertyOp38
 70
     1
102
RTVSPropertyOp39
 70
     1
102
RTVSPropertyOp40
 70
     1
102
RTVSPropertyOp41
 70
     1
102
RTVSPropertyOp42
 70
     1
102
RTVSPropertyOp43
 70
     1
102
RTVSPropertyOp44
 70
     1
102
RTVSPropertyOp45
 70
     1
102
RTVSPropertyOp46
 70
     1
102
RTVSPropertyOp47
 70
     1
102
RTVSPropertyOp48
 70
     1
102
RTVSPropertyOp49
 70
     1
102
RTVSPropertyOp50
 70
     1
102
RTVSPropertyOp51
 70
     0
102
RTVSPropertyOp52
 70
     0
102
RTVSPropertyOp53
 70
     1
102
RTVSPropertyOp54
 70
     1
102
RTVSPropertyOp55
 70
     1
102
RTVSPropertyOp56
 70
     1
102
RTVSPropertyOp57
 70
     1
102
RTVSPropertyOp58
 70
     1
102
RTVSPropertyOp59
 70
     1
102
RTVSPropertyOp60
 70
     1
102
RTVSPropertyOp61
 70
     1
102
RTVSPropertyOp62
 70
     1
  0
XRECORD
  5
4A4
102
{ACAD_REACTORS
330
4A3
102
}
330
4A3
100
AcDbXrecord
280
     1
102
RTVSPost2010Prop28
280
     0
102
RTVSPost2010PropOp28
 70
     1
102
RTVSPost2010Prop29
280
     1
102
RTVSPost2010PropOp29
 70
     1
102
RTVSPost2010Prop30
280
     1
102
RTVSPost2010PropOp30
 70
     1
102
RTVSPost2010Prop31
280
     0
102
RTVSPost2010PropOp31
 70
     1
102
RTVSPost2010Prop32
280
     0
102
RTVSPost2010PropOp32
 70
     1
102
RTVSPost2010Prop33
280
     0
102
RTVSPost2010PropOp33
 70
     1
102
RTVSPost2010Prop34
280
     0
102
RTVSPost2010PropOp34
 70
     1
102
RTVSPost2010Prop35
280
     0
102
RTVSPost2010PropOp35
 70
     1
102
RTVSPost2010Prop36
280
     0
102
RTVSPost2010PropOp36
 70
     1
102
RTVSPost2010Prop37
 90
       50
102
RTVSPost2010PropOp37
 70
     1
102
RTVSPost2010Prop38
140
0.0
102
RTVSPost2010PropOp38
 70
     1
102
RTVSPost2010Prop39
140
1.0
102
RTVSPost2010PropOp39
 70
     1
102
RTVSPost2010Prop40
 90
        0
102
RTVSPost2010PropOp40
 70
     1
102
RTVSPost2010Prop41ColorIndex
 90
       18
102
RTVSPost2010Prop41ColorRGB
 90
        0
102
RTVSPost2010PropOp41
 70
     1
102
RTVSPost2010Prop42
 90
       50
102
RTVSPost2010PropOp42
 70
     1
102
RTVSPost2010Prop43
 90
        3
102
RTVSPost2010PropOp43
 70
     1
102
RTVSPost2010Prop44ColorIndex
 90
        5
102
RTVSPost2010Prop44ColorRGB
 90
      255
102
RTVSPost2010PropOp44
 70
     1
102
RTVSPost2010Prop45
280
     0
102
RTVSPost2010PropOp45
 70
     1
102
RTVSPost2010Prop46
 90
       50
102
RTVSPost2010PropOp46
 70
     1
102
RTVSPost2010Prop47
 90
       50
102
RTVSPost2010PropOp47
 70
     1
102
RTVSPost2010Prop48
 90
       50
102
RTVSPost2010PropOp48
 70
     1
102
RTVSPost2010Prop49
280
     0
102
RTVSPost2010PropOp49
 70
     1
102
RTVSPost2010Prop50
 90
       50
102
RTVSPost2010PropOp50
 70
     1
102
RTVSPost2010Prop51ColorIndex
 90
      256
102
RTVSPost2010Prop51ColorRGB
 90
-16777216
102
RTVSPost2010PropOp51
 70
     0
102
RTVSPost2010Prop52
140
1.0
102
RTVSPost2010PropOp52
 70
     0
102
RTVSPost2010Prop53
 90
        2
102
RTVSPost2010PropOp53
 70
     1
102
RTVSPost2010Prop54
  1
strokes_ogs.tif
102
RTVSPost2010PropOp54
 70
     1
102
RTVSPost2010Prop55
280
     0
102
RTVSPost2010PropOp55
 70
     1
102
RTVSPost2010Prop56
140
1.0
102
RTVSPost2010PropOp56
 70
     1
102
RTVSPost2010Prop57
140
1.0
102
RTVSPost2010PropOp57
 70
     1
102
RTVSPropertyOp0
 70
     1
102
RTVSPropertyOp1
 70
     1
102
RTVSPropertyOp2
 70
     1
102
RTVSPropertyOp3
 70
     1
102
RTVSPropertyOp4
 70
     1
102
RTVSPropertyOp5
 70
     1
102
RTVSPropertyOp6
 70
     1
102
RTVSPropertyOp7
 70
     1
102
RTVSPropertyOp8
 70
     1
102
RTVSPropertyOp9
 70
     1
102
RTVSPropertyOp10
 70
     1
102
RTVSPropertyOp11
 70
     1
102
RTVSPropertyOp12
 70
     1
102
RTVSPropertyOp13
 70
     1
102
RTVSPropertyOp14
 70
     1
102
RTVSPropertyOp15
 70
     1
102
RTVSPropertyOp16
 70
     1
102
RTVSPropertyOp17
 70
     1
102
RTVSPropertyOp18
 70
     1
102
RTVSPropertyOp19
 70
     1
102
RTVSPropertyOp20
 70
     1
102
RTVSPropertyOp21
 70
     1
102
RTVSPropertyOp22
 70
     1
102
RTVSPropertyOp23
 70
     1
102
RTVSPropertyOp24
 70
     1
102
RTVSPropertyOp25
 70
     1
102
RTVSPropertyOp26
 70
     1
102
RTVSPropertyOp27
 70
     1
102
RTVSPropertyOp28
 70
     1
102
RTVSPropertyOp29
 70
     1
102
RTVSPropertyOp30
 70
     1
102
RTVSPropertyOp31
 70
     1
102
RTVSPropertyOp32
 70
     1
102
RTVSPropertyOp33
 70
     1
102
RTVSPropertyOp34
 70
     1
102
RTVSPropertyOp35
 70
     1
102
RTVSPropertyOp36
 70
     1
102
RTVSPropertyOp37
 70
     1
102
RTVSPropertyOp38
 70
     1
102
RTVSPropertyOp39
 70
     1
102
RTVSPropertyOp40
 70
     1
102
RTVSPropertyOp41
 70
     1
102
RTVSPropertyOp42
 70
     1
102
RTVSPropertyOp43
 70
     1
102
RTVSPropertyOp44
 70
     1
102
RTVSPropertyOp45
 70
     1
102
RTVSPropertyOp46
 70
     1
102
RTVSPropertyOp47
 70
     1
102
RTVSPropertyOp48
 70
     1
102
RTVSPropertyOp49
 70
     1
102
RTVSPropertyOp50
 70
     1
102
RTVSPropertyOp51
 70
     0
102
RTVSPropertyOp52
 70
     0
102
RTVSPropertyOp53
 70
     1
102
RTVSPropertyOp54
 70
     1
102
RTVSPropertyOp55
 70
     1
102
RTVSPropertyOp56
 70
     1
102
RTVSPropertyOp57
 70
     1
102
RTVSPropertyOp58
 70
     1
102
RTVSPropertyOp59
 70
     1
102
RTVSPropertyOp60
 70
     1
102
RTVSPropertyOp61
 70
     1
102
RTVSPropertyOp62
 70
     1
  0
XRECORD
  5
49A
102
{ACAD_REACTORS
330
499
102
}
330
499
100
AcDbXrecord
280
     1
102
RTVSPost2010Prop28
280
     0
102
RTVSPost2010PropOp28
 70
     1
102
RTVSPost2010Prop29
280
     1
102
RTVSPost2010PropOp29
 70
     1
102
RTVSPost2010Prop30
280
     1
102
RTVSPost2010PropOp30
 70
     1
102
RTVSPost2010Prop31
280
     0
102
RTVSPost2010PropOp31
 70
     1
102
RTVSPost2010Prop32
280
     0
102
RTVSPost2010PropOp32
 70
     1
102
RTVSPost2010Prop33
280
     0
102
RTVSPost2010PropOp33
 70
     1
102
RTVSPost2010Prop34
280
     0
102
RTVSPost2010PropOp34
 70
     1
102
RTVSPost2010Prop35
280
     0
102
RTVSPost2010PropOp35
 70
     1
102
RTVSPost2010Prop36
280
     0
102
RTVSPost2010PropOp36
 70
     1
102
RTVSPost2010Prop37
 90
       50
102
RTVSPost2010PropOp37
 70
     1
102
RTVSPost2010Prop38
140
0.0
102
RTVSPost2010PropOp38
 70
     1
102
RTVSPost2010Prop39
140
1.0
102
RTVSPost2010PropOp39
 70
     1
102
RTVSPost2010Prop40
 90
        0
102
RTVSPost2010PropOp40
 70
     1
102
RTVSPost2010Prop41ColorIndex
 90
       18
102
RTVSPost2010Prop41ColorRGB
 90
        0
102
RTVSPost2010PropOp41
 70
     1
102
RTVSPost2010Prop42
 90
       50
102
RTVSPost2010PropOp42
 70
     1
102
RTVSPost2010Prop43
 90
        3
102
RTVSPost2010PropOp43
 70
     1
102
RTVSPost2010Prop44ColorIndex
 90
        5
102
RTVSPost2010Prop44ColorRGB
 90
      255
102
RTVSPost2010PropOp44
 70
     1
102
RTVSPost2010Prop45
280
     0
102
RTVSPost2010PropOp45
 70
     1
102
RTVSPost2010Prop46
 90
       50
102
RTVSPost2010PropOp46
 70
     1
102
RTVSPost2010Prop47
 90
       50
102
RTVSPost2010PropOp47
 70
     1
102
RTVSPost2010Prop48
 90
       50
102
RTVSPost2010PropOp48
 70
     1
102
RTVSPost2010Prop49
280
     0
102
RTVSPost2010PropOp49
 70
     1
102
RTVSPost2010Prop50
 90
       50
102
RTVSPost2010PropOp50
 70
     1
102
RTVSPost2010Prop51ColorIndex
 90
      256
102
RTVSPost2010Prop51ColorRGB
 90
-16777216
102
RTVSPost2010PropOp51
 70
     0
102
RTVSPost2010Prop52
140
1.0
102
RTVSPost2010PropOp52
 70
     0
102
RTVSPost2010Prop53
 90
        2
102
RTVSPost2010PropOp53
 70
     1
102
RTVSPost2010Prop54
  1
strokes_ogs.tif
102
RTVSPost2010PropOp54
 70
     1
102
RTVSPost2010Prop55
280
     0
102
RTVSPost2010PropOp55
 70
     1
102
RTVSPost2010Prop56
140
1.0
102
RTVSPost2010PropOp56
 70
     1
102
RTVSPost2010Prop57
140
1.0
102
RTVSPost2010PropOp57
 70
     1
102
RTVSPropertyOp0
 70
     1
102
RTVSPropertyOp1
 70
     1
102
RTVSPropertyOp2
 70
     1
102
RTVSPropertyOp3
 70
     1
102
RTVSPropertyOp4
 70
     1
102
RTVSPropertyOp5
 70
     1
102
RTVSPropertyOp6
 70
     1
102
RTVSPropertyOp7
 70
     1
102
RTVSPropertyOp8
 70
     1
102
RTVSPropertyOp9
 70
     1
102
RTVSPropertyOp10
 70
     1
102
RTVSPropertyOp11
 70
     1
102
RTVSPropertyOp12
 70
     1
102
RTVSPropertyOp13
 70
     1
102
RTVSPropertyOp14
 70
     1
102
RTVSPropertyOp15
 70
     1
102
RTVSPropertyOp16
 70
     1
102
RTVSPropertyOp17
 70
     1
102
RTVSPropertyOp18
 70
     1
102
RTVSPropertyOp19
 70
     1
102
RTVSPropertyOp20
 70
     1
102
RTVSPropertyOp21
 70
     1
102
RTVSPropertyOp22
 70
     1
102
RTVSPropertyOp23
 70
     1
102
RTVSPropertyOp24
 70
     1
102
RTVSPropertyOp25
 70
     1
102
RTVSPropertyOp26
 70
     1
102
RTVSPropertyOp27
 70
     1
102
RTVSPropertyOp28
 70
     1
102
RTVSPropertyOp29
 70
     1
102
RTVSPropertyOp30
 70
     1
102
RTVSPropertyOp31
 70
     1
102
RTVSPropertyOp32
 70
     1
102
RTVSPropertyOp33
 70
     1
102
RTVSPropertyOp34
 70
     1
102
RTVSPropertyOp35
 70
     1
102
RTVSPropertyOp36
 70
     1
102
RTVSPropertyOp37
 70
     1
102
RTVSPropertyOp38
 70
     1
102
RTVSPropertyOp39
 70
     1
102
RTVSPropertyOp40
 70
     1
102
RTVSPropertyOp41
 70
     1
102
RTVSPropertyOp42
 70
     1
102
RTVSPropertyOp43
 70
     1
102
RTVSPropertyOp44
 70
     1
102
RTVSPropertyOp45
 70
     1
102
RTVSPropertyOp46
 70
     1
102
RTVSPropertyOp47
 70
     1
102
RTVSPropertyOp48
 70
     1
102
RTVSPropertyOp49
 70
     1
102
RTVSPropertyOp50
 70
     1
102
RTVSPropertyOp51
 70
     0
102
RTVSPropertyOp52
 70
     0
102
RTVSPropertyOp53
 70
     1
102
RTVSPropertyOp54
 70
     1
102
RTVSPropertyOp55
 70
     1
102
RTVSPropertyOp56
 70
     1
102
RTVSPropertyOp57
 70
     1
102
RTVSPropertyOp58
 70
     1
102
RTVSPropertyOp59
 70
     1
102
RTVSPropertyOp60
 70
     1
102
RTVSPropertyOp61
 70
     1
102
RTVSPropertyOp62
 70
     1
  0
XRECORD
  5
48E
102
{ACAD_REACTORS
330
48D
102
}
330
48D
100
AcDbXrecord
280
     1
102
RTVSPost2010Prop28
280
     0
102
RTVSPost2010PropOp28
 70
     1
102
RTVSPost2010Prop29
280
     1
102
RTVSPost2010PropOp29
 70
     1
102
RTVSPost2010Prop30
280
     1
102
RTVSPost2010PropOp30
 70
     1
102
RTVSPost2010Prop31
280
     0
102
RTVSPost2010PropOp31
 70
     1
102
RTVSPost2010Prop32
280
     0
102
RTVSPost2010PropOp32
 70
     1
102
RTVSPost2010Prop33
280
     0
102
RTVSPost2010PropOp33
 70
     1
102
RTVSPost2010Prop34
280
     0
102
RTVSPost2010PropOp34
 70
     1
102
RTVSPost2010Prop35
280
     0
102
RTVSPost2010PropOp35
 70
     1
102
RTVSPost2010Prop36
280
     0
102
RTVSPost2010PropOp36
 70
     1
102
RTVSPost2010Prop37
 90
       50
102
RTVSPost2010PropOp37
 70
     1
102
RTVSPost2010Prop38
140
0.0
102
RTVSPost2010PropOp38
 70
     1
102
RTVSPost2010Prop39
140
1.0
102
RTVSPost2010PropOp39
 70
     1
102
RTVSPost2010Prop40
 90
        0
102
RTVSPost2010PropOp40
 70
     1
102
RTVSPost2010Prop41ColorIndex
 90
       18
102
RTVSPost2010Prop41ColorRGB
 90
        0
102
RTVSPost2010PropOp41
 70
     1
102
RTVSPost2010Prop42
 90
       50
102
RTVSPost2010PropOp42
 70
     1
102
RTVSPost2010Prop43
 90
        3
102
RTVSPost2010PropOp43
 70
     1
102
RTVSPost2010Prop44ColorIndex
 90
        5
102
RTVSPost2010Prop44ColorRGB
 90
      255
102
RTVSPost2010PropOp44
 70
     1
102
RTVSPost2010Prop45
280
     0
102
RTVSPost2010PropOp45
 70
     1
102
RTVSPost2010Prop46
 90
       50
102
RTVSPost2010PropOp46
 70
     1
102
RTVSPost2010Prop47
 90
       50
102
RTVSPost2010PropOp47
 70
     1
102
RTVSPost2010Prop48
 90
       50
102
RTVSPost2010PropOp48
 70
     1
102
RTVSPost2010Prop49
280
     0
102
RTVSPost2010PropOp49
 70
     1
102
RTVSPost2010Prop50
 90
       50
102
RTVSPost2010PropOp50
 70
     1
102
RTVSPost2010Prop51ColorIndex
 90
      256
102
RTVSPost2010Prop51ColorRGB
 90
-16777216
102
RTVSPost2010PropOp51
 70
     0
102
RTVSPost2010Prop52
140
1.0
102
RTVSPost2010PropOp52
 70
     0
102
RTVSPost2010Prop53
 90
        2
102
RTVSPost2010PropOp53
 70
     1
102
RTVSPost2010Prop54
  1
strokes_ogs.tif
102
RTVSPost2010PropOp54
 70
     1
102
RTVSPost2010Prop55
280
     0
102
RTVSPost2010PropOp55
 70
     1
102
RTVSPost2010Prop56
140
1.0
102
RTVSPost2010PropOp56
 70
     1
102
RTVSPost2010Prop57
140
1.0
102
RTVSPost2010PropOp57
 70
     1
102
RTVSPropertyOp0
 70
     1
102
RTVSPropertyOp1
 70
     1
102
RTVSPropertyOp2
 70
     1
102
RTVSPropertyOp3
 70
     1
102
RTVSPropertyOp4
 70
     1
102
RTVSPropertyOp5
 70
     1
102
RTVSPropertyOp6
 70
     1
102
RTVSPropertyOp7
 70
     1
102
RTVSPropertyOp8
 70
     1
102
RTVSPropertyOp9
 70
     1
102
RTVSPropertyOp10
 70
     1
102
RTVSPropertyOp11
 70
     1
102
RTVSPropertyOp12
 70
     1
102
RTVSPropertyOp13
 70
     1
102
RTVSPropertyOp14
 70
     1
102
RTVSPropertyOp15
 70
     1
102
RTVSPropertyOp16
 70
     1
102
RTVSPropertyOp17
 70
     1
102
RTVSPropertyOp18
 70
     1
102
RTVSPropertyOp19
 70
     1
102
RTVSPropertyOp20
 70
     1
102
RTVSPropertyOp21
 70
     1
102
RTVSPropertyOp22
 70
     1
102
RTVSPropertyOp23
 70
     1
102
RTVSPropertyOp24
 70
     1
102
RTVSPropertyOp25
 70
     1
102
RTVSPropertyOp26
 70
     1
102
RTVSPropertyOp27
 70
     1
102
RTVSPropertyOp28
 70
     1
102
RTVSPropertyOp29
 70
     1
102
RTVSPropertyOp30
 70
     1
102
RTVSPropertyOp31
 70
     1
102
RTVSPropertyOp32
 70
     1
102
RTVSPropertyOp33
 70
     1
102
RTVSPropertyOp34
 70
     1
102
RTVSPropertyOp35
 70
     1
102
RTVSPropertyOp36
 70
     1
102
RTVSPropertyOp37
 70
     1
102
RTVSPropertyOp38
 70
     1
102
RTVSPropertyOp39
 70
     1
102
RTVSPropertyOp40
 70
     1
102
RTVSPropertyOp41
 70
     1
102
RTVSPropertyOp42
 70
     1
102
RTVSPropertyOp43
 70
     1
102
RTVSPropertyOp44
 70
     1
102
RTVSPropertyOp45
 70
     1
102
RTVSPropertyOp46
 70
     1
102
RTVSPropertyOp47
 70
     1
102
RTVSPropertyOp48
 70
     1
102
RTVSPropertyOp49
 70
     1
102
RTVSPropertyOp50
 70
     1
102
RTVSPropertyOp51
 70
     0
102
RTVSPropertyOp52
 70
     0
102
RTVSPropertyOp53
 70
     1
102
RTVSPropertyOp54
 70
     1
102
RTVSPropertyOp55
 70
     1
102
RTVSPropertyOp56
 70
     1
102
RTVSPropertyOp57
 70
     1
102
RTVSPropertyOp58
 70
     1
102
RTVSPropertyOp59
 70
     1
102
RTVSPropertyOp60
 70
     1
102
RTVSPropertyOp61
 70
     1
102
RTVSPropertyOp62
 70
     1
  0
XRECORD
  5
4A6
102
{ACAD_REACTORS
330
4A5
102
}
330
4A5
100
AcDbXrecord
280
     1
102
RTVSPost2010Prop28
280
     0
102
RTVSPost2010PropOp28
 70
     1
102
RTVSPost2010Prop29
280
     1
102
RTVSPost2010PropOp29
 70
     1
102
RTVSPost2010Prop30
280
     1
102
RTVSPost2010PropOp30
 70
     1
102
RTVSPost2010Prop31
280
     0
102
RTVSPost2010PropOp31
 70
     1
102
RTVSPost2010Prop32
280
     0
102
RTVSPost2010PropOp32
 70
     1
102
RTVSPost2010Prop33
280
     0
102
RTVSPost2010PropOp33
 70
     1
102
RTVSPost2010Prop34
280
     0
102
RTVSPost2010PropOp34
 70
     1
102
RTVSPost2010Prop35
280
     0
102
RTVSPost2010PropOp35
 70
     1
102
RTVSPost2010Prop36
280
     0
102
RTVSPost2010PropOp36
 70
     1
102
RTVSPost2010Prop37
 90
       50
102
RTVSPost2010PropOp37
 70
     1
102
RTVSPost2010Prop38
140
0.0
102
RTVSPost2010PropOp38
 70
     1
102
RTVSPost2010Prop39
140
1.0
102
RTVSPost2010PropOp39
 70
     1
102
RTVSPost2010Prop40
 90
        0
102
RTVSPost2010PropOp40
 70
     1
102
RTVSPost2010Prop41ColorIndex
 90
       18
102
RTVSPost2010Prop41ColorRGB
 90
        0
102
RTVSPost2010PropOp41
 70
     1
102
RTVSPost2010Prop42
 90
       50
102
RTVSPost2010PropOp42
 70
     1
102
RTVSPost2010Prop43
 90
        3
102
RTVSPost2010PropOp43
 70
     1
102
RTVSPost2010Prop44ColorIndex
 90
        5
102
RTVSPost2010Prop44ColorRGB
 90
      255
102
RTVSPost2010PropOp44
 70
     1
102
RTVSPost2010Prop45
280
     0
102
RTVSPost2010PropOp45
 70
     1
102
RTVSPost2010Prop46
 90
       50
102
RTVSPost2010PropOp46
 70
     1
102
RTVSPost2010Prop47
 90
       50
102
RTVSPost2010PropOp47
 70
     1
102
RTVSPost2010Prop48
 90
       50
102
RTVSPost2010PropOp48
 70
     1
102
RTVSPost2010Prop49
280
     0
102
RTVSPost2010PropOp49
 70
     1
102
RTVSPost2010Prop50
 90
       50
102
RTVSPost2010PropOp50
 70
     1
102
RTVSPost2010Prop51ColorIndex
 90
      256
102
RTVSPost2010Prop51ColorRGB
 90
-16777216
102
RTVSPost2010PropOp51
 70
     0
102
RTVSPost2010Prop52
140
1.0
102
RTVSPost2010PropOp52
 70
     0
102
RTVSPost2010Prop53
 90
        2
102
RTVSPost2010PropOp53
 70
     1
102
RTVSPost2010Prop54
  1
strokes_ogs.tif
102
RTVSPost2010PropOp54
 70
     1
102
RTVSPost2010Prop55
280
     0
102
RTVSPost2010PropOp55
 70
     1
102
RTVSPost2010Prop56
140
1.0
102
RTVSPost2010PropOp56
 70
     1
102
RTVSPost2010Prop57
140
1.0
102
RTVSPost2010PropOp57
 70
     1
102
RTVSPropertyOp0
 70
     1
102
RTVSPropertyOp1
 70
     1
102
RTVSPropertyOp2
 70
     1
102
RTVSPropertyOp3
 70
     1
102
RTVSPropertyOp4
 70
     1
102
RTVSPropertyOp5
 70
     1
102
RTVSPropertyOp6
 70
     1
102
RTVSPropertyOp7
 70
     1
102
RTVSPropertyOp8
 70
     1
102
RTVSPropertyOp9
 70
     1
102
RTVSPropertyOp10
 70
     1
102
RTVSPropertyOp11
 70
     1
102
RTVSPropertyOp12
 70
     1
102
RTVSPropertyOp13
 70
     1
102
RTVSPropertyOp14
 70
     1
102
RTVSPropertyOp15
 70
     1
102
RTVSPropertyOp16
 70
     1
102
RTVSPropertyOp17
 70
     1
102
RTVSPropertyOp18
 70
     1
102
RTVSPropertyOp19
 70
     1
102
RTVSPropertyOp20
 70
     1
102
RTVSPropertyOp21
 70
     1
102
RTVSPropertyOp22
 70
     1
102
RTVSPropertyOp23
 70
     1
102
RTVSPropertyOp24
 70
     1
102
RTVSPropertyOp25
 70
     1
102
RTVSPropertyOp26
 70
     1
102
RTVSPropertyOp27
 70
     1
102
RTVSPropertyOp28
 70
     1
102
RTVSPropertyOp29
 70
     1
102
RTVSPropertyOp30
 70
     1
102
RTVSPropertyOp31
 70
     1
102
RTVSPropertyOp32
 70
     1
102
RTVSPropertyOp33
 70
     1
102
RTVSPropertyOp34
 70
     1
102
RTVSPropertyOp35
 70
     1
102
RTVSPropertyOp36
 70
     1
102
RTVSPropertyOp37
 70
     1
102
RTVSPropertyOp38
 70
     1
102
RTVSPropertyOp39
 70
     1
102
RTVSPropertyOp40
 70
     1
102
RTVSPropertyOp41
 70
     1
102
RTVSPropertyOp42
 70
     1
102
RTVSPropertyOp43
 70
     1
102
RTVSPropertyOp44
 70
     1
102
RTVSPropertyOp45
 70
     1
102
RTVSPropertyOp46
 70
     1
102
RTVSPropertyOp47
 70
     1
102
RTVSPropertyOp48
 70
     1
102
RTVSPropertyOp49
 70
     1
102
RTVSPropertyOp50
 70
     1
102
RTVSPropertyOp51
 70
     0
102
RTVSPropertyOp52
 70
     0
102
RTVSPropertyOp53
 70
     1
102
RTVSPropertyOp54
 70
     1
102
RTVSPropertyOp55
 70
     1
102
RTVSPropertyOp56
 70
     1
102
RTVSPropertyOp57
 70
     1
102
RTVSPropertyOp58
 70
     1
102
RTVSPropertyOp59
 70
     1
102
RTVSPropertyOp60
 70
     1
102
RTVSPropertyOp61
 70
     1
102
RTVSPropertyOp62
 70
     1
  0
ENDSEC
  0
EOF
