  0
SECTION
  2
HEADER
  9
$ACADVER
  1
AC1021
  9
$ACADMAINTVER
 70
    50
  9
$DWGCODEPAGE
  3
ANSI_1252
  9
$LASTSAVEDBY
  1
leeh
  9
$INSBASE
 10
0.0
 20
0.0
 30
0.0
  9
$EXTMIN
 10
7.837830576856958
 20
15.78447031437474
 30
-0.0015258207003583
  9
$EXTMAX
 10
393.4487924508853
 20
570.1896067224322
 30
0.0000000349246037
  9
$LIMMIN
 10
0.0
 20
0.0
  9
$LIMMAX
 10
420.0
 20
297.0
  9
$ORTHOMODE
 70
     0
  9
$REGENMODE
 70
     1
  9
$FILLMODE
 70
     1
  9
$QTEXTMODE
 70
     0
  9
$MIRRTEXT
 70
     0
  9
$LTSCALE
 40
1.0
  9
$ATTMODE
 70
     1
  9
$TEXTSIZE
 40
2.5
  9
$TRACEWID
 40
1.0
  9
$TEXTSTYLE
  7
Standard
  9
$CLAYER
  8
0
  9
$CELTYPE
  6
ByLayer
  9
$CECOLOR
 62
   256
  9
$CELTSCALE
 40
1.0
  9
$DISPSILH
 70
     0
  9
$DIMSCALE
 40
1.0
  9
$DIMASZ
 40
2.5
  9
$DIMEXO
 40
0.625
  9
$DIMDLI
 40
3.75
  9
$DIMRND
 40
0.0
  9
$DIMDLE
 40
0.0
  9
$DIMEXE
 40
1.25
  9
$DIMTP
 40
0.0
  9
$DIMTM
 40
0.0
  9
$DIMTXT
 40
2.5
  9
$DIMCEN
 40
2.5
  9
$DIMTSZ
 40
0.0
  9
$DIMTOL
 70
     0
  9
$DIMLIM
 70
     0
  9
$DIMTIH
 70
     0
  9
$DIMTOH
 70
     0
  9
$DIMSE1
 70
     0
  9
$DIMSE2
 70
     0
  9
$DIMTAD
 70
     1
  9
$DIMZIN
 70
     8
  9
$DIMBLK
  1

  9
$DIMASO
 70
     1
  9
$DIMSHO
 70
     1
  9
$DIMPOST
  1

  9
$DIMAPOST
  1

  9
$DIMALT
 70
     0
  9
$DIMALTD
 70
     3
  9
$DIMALTF
 40
0.03937007874016
  9
$DIMLFAC
 40
1.0
  9
$DIMTOFL
 70
     1
  9
$DIMTVP
 40
0.0
  9
$DIMTIX
 70
     0
  9
$DIMSOXD
 70
     0
  9
$DIMSAH
 70
     0
  9
$DIMBLK1
  1

  9
$DIMBLK2
  1

  9
$DIMSTYLE
  2
ISO-25
  9
$DIMCLRD
 70
     0
  9
$DIMCLRE
 70
     0
  9
$DIMCLRT
 70
     0
  9
$DIMTFAC
 40
1.0
  9
$DIMGAP
 40
0.625
  9
$DIMJUST
 70
     0
  9
$DIMSD1
 70
     0
  9
$DIMSD2
 70
     0
  9
$DIMTOLJ
 70
     0
  9
$DIMTZIN
 70
     8
  9
$DIMALTZ
 70
     0
  9
$DIMALTTZ
 70
     0
  9
$DIMUPT
 70
     0
  9
$DIMDEC
 70
     2
  9
$DIMTDEC
 70
     2
  9
$DIMALTU
 70
     2
  9
$DIMALTTD
 70
     3
  9
$DIMTXSTY
  7
Standard
  9
$DIMAUNIT
 70
     0
  9
$DIMADEC
 70
     0
  9
$DIMALTRND
 40
0.0
  9
$DIMAZIN
 70
     0
  9
$DIMDSEP
 70
    44
  9
$DIMATFIT
 70
     3
  9
$DIMFRAC
 70
     0
  9
$DIMLDRBLK
  1

  9
$DIMLUNIT
 70
     2
  9
$DIMLWD
 70
    -2
  9
$DIMLWE
 70
    -2
  9
$DIMTMOVE
 70
     0
  9
$DIMFXL
 40
1.0
  9
$DIMFXLON
 70
     0
  9
$DIMJOGANG
 40
1.570796326794896
  9
$DIMTFILL
 70
     0
  9
$DIMTFILLCLR
 70
     0
  9
$DIMARCSYM
 70
     0
  9
$DIMLTYPE
  6

  9
$DIMLTEX1
  6

  9
$DIMLTEX2
  6

  9
$LUNITS
 70
     2
  9
$LUPREC
 70
     4
  9
$SKETCHINC
 40
1.0
  9
$FILLETRAD
 40
0.0
  9
$AUNITS
 70
     0
  9
$AUPREC
 70
     0
  9
$MENU
  1
.
  9
$ELEVATION
 40
0.0
  9
$PELEVATION
 40
0.0
  9
$THICKNESS
 40
0.0
  9
$LIMCHECK
 70
     0
  9
$CHAMFERA
 40
0.0
  9
$CHAMFERB
 40
0.0
  9
$CHAMFERC
 40
0.0
  9
$CHAMFERD
 40
0.0
  9
$SKPOLY
 70
     0
  9
$TDCREATE
 40
2459523.550717593
  9
$TDUCREATE
 40
2459523.009050926
  9
$TDUPDATE
 40
2459523.551840278
  9
$TDUUPDATE
 40
2459523.010173612
  9
$TDINDWG
 40
0.0011226852
  9
$TDUSRTIMER
 40
0.0011226852
  9
$USRTIMER
 70
     1
  9
$ANGBASE
 50
0.0
  9
$ANGDIR
 70
     0
  9
$PDMODE
 70
     0
  9
$PDSIZE
 40
0.0
  9
$PLINEWID
 40
0.0
  9
$SPLFRAME
 70
     0
  9
$SPLINETYPE
 70
     6
  9
$SPLINESEGS
 70
     8
  9
$HANDSEED
  5
47C
  9
$SURFTAB1
 70
     6
  9
$SURFTAB2
 70
     6
  9
$SURFTYPE
 70
     6
  9
$SURFU
 70
     6
  9
$SURFV
 70
     6
  9
$UCSBASE
  2

  9
$UCSNAME
  2

  9
$UCSORG
 10
0.0
 20
0.0
 30
0.0
  9
$UCSXDIR
 10
1.0
 20
0.0
 30
0.0
  9
$UCSYDIR
 10
0.0
 20
1.0
 30
0.0
  9
$UCSORTHOREF
  2

  9
$UCSORTHOVIEW
 70
     0
  9
$UCSORGTOP
 10
0.0
 20
0.0
 30
0.0
  9
$UCSORGBOTTOM
 10
0.0
 20
0.0
 30
0.0
  9
$UCSORGLEFT
 10
0.0
 20
0.0
 30
0.0
  9
$UCSORGRIGHT
 10
0.0
 20
0.0
 30
0.0
  9
$UCSORGFRONT
 10
0.0
 20
0.0
 30
0.0
  9
$UCSORGBACK
 10
0.0
 20
0.0
 30
0.0
  9
$PUCSBASE
  2

  9
$PUCSNAME
  2

  9
$PUCSORG
 10
0.0
 20
0.0
 30
0.0
  9
$PUCSXDIR
 10
1.0
 20
0.0
 30
0.0
  9
$PUCSYDIR
 10
0.0
 20
1.0
 30
0.0
  9
$PUCSORTHOREF
  2

  9
$PUCSORTHOVIEW
 70
     0
  9
$PUCSORGTOP
 10
0.0
 20
0.0
 30
0.0
  9
$PUCSORGBOTTOM
 10
0.0
 20
0.0
 30
0.0
  9
$PUCSORGLEFT
 10
0.0
 20
0.0
 30
0.0
  9
$PUCSORGRIGHT
 10
0.0
 20
0.0
 30
0.0
  9
$PUCSORGFRONT
 10
0.0
 20
0.0
 30
0.0
  9
$PUCSORGBACK
 10
0.0
 20
0.0
 30
0.0
  9
$USERI1
 70
     0
  9
$USERI2
 70
     0
  9
$USERI3
 70
     0
  9
$USERI4
 70
     0
  9
$USERI5
 70
     0
  9
$USERR1
 40
0.0
  9
$USERR2
 40
0.0
  9
$USERR3
 40
0.0
  9
$USERR4
 40
0.0
  9
$USERR5
 40
0.0
  9
$WORLDVIEW
 70
     1
  9
$SHADEDGE
 70
     3
  9
$SHADEDIF
 70
    70
  9
$TILEMODE
 70
     1
  9
$MAXACTVP
 70
    64
  9
$PINSBASE
 10
0.0
 20
0.0
 30
0.0
  9
$PLIMCHECK
 70
     0
  9
$PEXTMIN
 10
1.000000000000000E+20
 20
1.000000000000000E+20
 30
1.000000000000000E+20
  9
$PEXTMAX
 10
-1.000000000000000E+20
 20
-1.000000000000000E+20
 30
-1.000000000000000E+20
  9
$PLIMMIN
 10
0.0
 20
0.0
  9
$PLIMMAX
 10
420.0
 20
297.0
  9
$UNITMODE
 70
     0
  9
$VISRETAIN
 70
     1
  9
$PLINEGEN
 70
     0
  9
$PSLTSCALE
 70
     1
  9
$TREEDEPTH
 70
  3020
  9
$CMLSTYLE
  2
Standard
  9
$CMLJUST
 70
     0
  9
$CMLSCALE
 40
20.0
  9
$PROXYGRAPHICS
 70
     1
  9
$MEASUREMENT
 70
     1
  9
$CELWEIGHT
370
    -1
  9
$ENDCAPS
280
     0
  9
$JOINSTYLE
280
     0
  9
$LWDISPLAY
290
     0
  9
$INSUNITS
 70
     4
  9
$HYPERLINKBASE
  1

  9
$STYLESHEET
  1

  9
$XEDIT
290
     1
  9
$CEPSNTYPE
380
     0
  9
$PSTYLEMODE
290
     1
  9
$FINGERPRINTGUID
  2
{D8373460-8B49-EA48-BCE9-55994FDD8D7D}
  9
$VERSIONGUID
  2
{52E6E6F3-834A-1645-894E-A3EE3497075B}
  9
$EXTNAMES
290
     1
  9
$PSVPSCALE
 40
0.0
  9
$OLESTARTUP
290
     0
  9
$SORTENTS
280
   127
  9
$INDEXCTL
280
     0
  9
$HIDETEXT
280
     1
  9
$XCLIPFRAME
290
     0
  9
$HALOGAP
280
     0
  9
$OBSCOLOR
 70
   257
  9
$OBSLTYPE
280
     0
  9
$INTERSECTIONDISPLAY
280
     0
  9
$INTERSECTIONCOLOR
 70
   257
  9
$DIMASSOC
280
     2
  9
$PROJECTNAME
  1

  9
$CAMERADISPLAY
290
     0
  9
$LENSLENGTH
 40
50.0
  9
$CAMERAHEIGHT
 40
0.0
  9
$STEPSPERSEC
 40
2.0
  9
$STEPSIZE
 40
6.0
  9
$3DDWFPREC
 40
2.0
  9
$PSOLWIDTH
 40
0.25
  9
$PSOLHEIGHT
 40
4.0
  9
$LOFTANG1
 40
1.570796326794896
  9
$LOFTANG2
 40
1.570796326794896
  9
$LOFTMAG1
 40
0.0
  9
$LOFTMAG2
 40
0.0
  9
$LOFTPARAM
 70
     7
  9
$LOFTNORMALS
280
     1
  9
$LATITUDE
 40
37.795
  9
$LONGITUDE
 40
-122.394
  9
$NORTHDIRECTION
 40
0.0
  9
$TIMEZONE
 70
 -8000
  9
$LIGHTGLYPHDISPLAY
280
     1
  9
$TILEMODELIGHTSYNCH
280
     1
  9
$CMATERIAL
347
11
  9
$SOLIDHIST
280
     0
  9
$SHOWHIST
280
     1
  9
$DWFFRAME
280
     2
  9
$DGNFRAME
280
     0
  9
$REALWORLDSCALE
290
     1
  9
$INTERFERECOLOR
 62
     1
  9
$INTERFEREOBJVS
345
33
  9
$INTERFEREVPVS
346
30
  9
$CSHADOW
280
     0
  9
$SHADOWPLANELOCATION
 40
0.0
  0
ENDSEC
  0
SECTION
  2
CLASSES
  0
CLASS
  1
ACDBDICTIONARYWDFLT
  2
AcDbDictionaryWithDefault
  3
ObjectDBX Classes
 90
        0
 91
        1
280
     0
281
     0
  0
CLASS
  1
MATERIAL
  2
AcDbMaterial
  3
ObjectDBX Classes
 90
     1153
 91
        3
280
     0
281
     0
  0
CLASS
  1
VISUALSTYLE
  2
AcDbVisualStyle
  3
ObjectDBX Classes
 90
     4095
 91
       24
280
     0
281
     0
  0
CLASS
  1
SCALE
  2
AcDbScale
  3
ObjectDBX Classes
 90
     1153
 91
       17
280
     0
281
     0
  0
CLASS
  1
TABLESTYLE
  2
AcDbTableStyle
  3
ObjectDBX Classes
 90
     4095
 91
        1
280
     0
281
     0
  0
CLASS
  1
MLEADERSTYLE
  2
AcDbMLeaderStyle
  3
ACDB_MLEADERSTYLE_CLASS
 90
     4095
 91
        1
280
     0
281
     0
  0
CLASS
  1
ACDBSECTIONVIEWSTYLE
  2
AcDbSectionViewStyle
  3
ObjectDBX Classes
 90
     1025
 91
        1
280
     0
281
     0
  0
CLASS
  1
ACDBDETAILVIEWSTYLE
  2
AcDbDetailViewStyle
  3
ObjectDBX Classes
 90
     1025
 91
        1
280
     0
281
     0
  0
CLASS
  1
DICTIONARYVAR
  2
AcDbDictionaryVar
  3
ObjectDBX Classes
 90
        0
 91
       34
280
     0
281
     0
  0
CLASS
  1
ACDB_HATCHVIEWCONTEXTDATA_CLASS
  2
AcDbHatchViewContextData
  3
ObjectDBX Classes
 90
     1153
 91
        6
280
     0
281
     0
  0
CLASS
  1
ACDB_HATCHSCALECONTEXTDATA_CLASS
  2
AcDbHatchScaleContextData
  3
ObjectDBX Classes
 90
     1153
 91
        6
280
     0
281
     0
  0
CLASS
  1
DIMASSOC
  2
AcDbDimAssoc
  3
"AcDbDimAssoc|Product Desc:     AcDim ARX App For Dimension|Company:          Autodesk, Inc.|WEB Address:      www.autodesk.com"
 90
        0
 91
        2
280
     0
281
     0
  0
CLASS
  1
SORTENTSTABLE
  2
AcDbSortentsTable
  3
ObjectDBX Classes
 90
        0
 91
        1
280
     0
281
     0
  0
CLASS
  1
CELLSTYLEMAP
  2
AcDbCellStyleMap
  3
ObjectDBX Classes
 90
     1152
 91
        2
280
     0
281
     0
  0
ENDSEC
  0
SECTION
  2
TABLES
  0
TABLE
  2
VPORT
  5
8
330
0
100
AcDbSymbolTable
 70
     1
  0
VPORT
  5
57
330
8
100
AcDbSymbolTableRecord
100
AcDbViewportTableRecord
  2
*Active
 70
     0
 10
0.0
 20
0.0
 11
1.0
 21
1.0
 12
200.6433115138711
 22
292.9870385184035
 13
0.0
 23
0.0
 14
10.0
 24
10.0
 15
10.0
 25
10.0
 16
0.0
 26
0.0
 36
1.0
 17
0.0
 27
0.0
 37
0.0
 40
558.8821630816084
 41
2.475741239892183
 42
50.0
 43
0.0
 44
0.0
 50
0.0
 51
0.0
 71
     0
 72
  1000
 73
     1
 74
     3
 75
     0
 76
     0
 77
     0
 78
     0
281
     0
 65
     1
110
0.0
120
0.0
130
0.0
111
1.0
121
0.0
131
0.0
112
0.0
122
1.0
132
0.0
 79
     0
146
0.0
348
2F
 60
     2
 61
     5
292
     1
282
     1
141
0.0
142
0.0
 63
   250
421
  3355443
1001
ACAD_NAV_VCDISPLAY
1070
     1
  0
ENDTAB
  0
TABLE
  2
LTYPE
  5
5
330
0
100
AcDbSymbolTable
 70
     3
  0
LTYPE
  5
5B
330
5
100
AcDbSymbolTableRecord
100
AcDbLinetypeTableRecord
  2
ByBlock
 70
     0
  3

 72
    65
 73
     0
 40
0.0
  0
LTYPE
  5
5C
330
5
100
AcDbSymbolTableRecord
100
AcDbLinetypeTableRecord
  2
ByLayer
 70
     0
  3

 72
    65
 73
     0
 40
0.0
  0
LTYPE
  5
5D
330
5
100
AcDbSymbolTableRecord
100
AcDbLinetypeTableRecord
  2
Continuous
 70
     0
  3
Solid line
 72
    65
 73
     0
 40
0.0
  0
LTYPE
  5
BB
330
5
100
AcDbSymbolTableRecord
100
AcDbLinetypeTableRecord
  2
CENTER
 70
     0
  3
Center ____ _ ____ _ ____ _ ____ _ ____ _ ____
 72
    65
 73
     4
 40
50.8
 49
31.75
 74
     0
 49
-6.349999999999999
 74
     0
 49
6.349999999999999
 74
     0
 49
-6.349999999999999
 74
     0
  0
LTYPE
  5
BC
330
5
100
AcDbSymbolTableRecord
100
AcDbLinetypeTableRecord
  2
DASHED
 70
     0
  3
Dashed __ __ __ __ __ __ __ __ __ __ __ __ __ _
 72
    65
 73
     2
 40
19.05
 49
12.7
 74
     0
 49
-6.349999999999999
 74
     0
  0
ENDTAB
  0
TABLE
  2
LAYER
  5
2
102
{ACAD_XDICTIONARY
360
E2
102
}
330
0
100
AcDbSymbolTable
 70
    12
  0
LAYER
  5
54
330
2
100
AcDbSymbolTableRecord
100
AcDbLayerTableRecord
  2
0
 70
     0
 62
     7
  6
Continuous
370
    -3
390
F
347
21
  0
LAYER
  5
BF
102
{ACAD_XDICTIONARY
360
C0
102
}
330
2
100
AcDbSymbolTableRecord
100
AcDbLayerTableRecord
  2
dim
 70
     0
 62
     7
  6
Continuous
370
     5
390
F
347
21
  0
LAYER
  5
C1
102
{ACAD_XDICTIONARY
360
C2
102
}
330
2
100
AcDbSymbolTableRecord
100
AcDbLayerTableRecord
  2
Post
 70
     0
 62
     3
  6
Continuous
370
    -3
390
F
347
21
1001
AcAecLayerStandard
1000

1000

  0
LAYER
  5
C3
330
2
100
AcDbSymbolTableRecord
100
AcDbLayerTableRecord
  2
Defpoints
 70
     0
 62
     7
  6
Continuous
290
     0
370
    -3
390
F
347
21
  0
LAYER
  5
C4
102
{ACAD_XDICTIONARY
360
C5
102
}
330
2
100
AcDbSymbolTableRecord
100
AcDbLayerTableRecord
  2
fixing
 70
     0
 62
     4
  6
Continuous
370
     5
390
F
347
21
1001
AcAecLayerStandard
1000

1000

  0
LAYER
  5
C6
102
{ACAD_XDICTIONARY
360
C7
102
}
330
2
100
AcDbSymbolTableRecord
100
AcDbLayerTableRecord
  2
Spigot
 70
     0
 62
     6
  6
DASHED
370
     9
390
F
347
21
  0
LAYER
  5
C8
102
{ACAD_XDICTIONARY
360
C9
102
}
330
2
100
AcDbSymbolTableRecord
100
AcDbLayerTableRecord
  2
baseplate
 70
     0
 62
     7
  6
Continuous
370
    25
390
F
347
21
1001
AcAecLayerStandard
1000

1000

  0
LAYER
  5
CA
102
{ACAD_XDICTIONARY
360
CB
102
}
330
2
100
AcDbSymbolTableRecord
100
AcDbLayerTableRecord
  2
shade 8
 70
     0
 62
     8
  6
Continuous
370
     9
390
F
347
21
  0
LAYER
  5
CE
102
{ACAD_XDICTIONARY
360
CF
102
}
330
2
100
AcDbSymbolTableRecord
100
AcDbLayerTableRecord
  2
ctrl
 70
     0
 62
   220
  6
CENTER
370
     5
390
F
347
21
1001
AcAecLayerStandard
1000

1000

  0
LAYER
  5
D0
102
{ACAD_XDICTIONARY
360
D1
102
}
330
2
100
AcDbSymbolTableRecord
100
AcDbLayerTableRecord
  2
title
 70
     0
 62
     7
  6
Continuous
370
     0
390
F
347
21
  0
ENDTAB
  0
TABLE
  2
STYLE
  5
3
330
0
100
AcDbSymbolTable
 70
     5
  0
STYLE
  5
55
330
3
100
AcDbSymbolTableRecord
100
AcDbTextStyleTableRecord
  2
Standard
 70
     0
 40
0.0
 41
1.0
 50
0.0
 71
     0
 42
2.5
  3
txt
  4

  0
STYLE
  5
D2
330
3
100
AcDbSymbolTableRecord
100
AcDbTextStyleTableRecord
  2
Arial Narrow
 70
     0
 40
0.0
 41
1.0
 50
0.0
 71
     0
 42
2.5
  3
ARIALN.TTF
  4

1001
ACAD
1000
Arial Narrow
1071
       34
  0
STYLE
  5
D3
330
3
100
AcDbSymbolTableRecord
100
AcDbTextStyleTableRecord
  2
Calibri
 70
     0
 40
0.0
 41
1.0
 50
0.0
 71
     0
 42
15.0
  3
calibri.ttf
  4

1001
ACAD
1000
Calibri
1071
       34
  0
ENDTAB
  0
TABLE
  2
VIEW
  5
6
330
0
100
AcDbSymbolTable
 70
     3
  0
ENDTAB
  0
TABLE
  2
UCS
  5
7
330
0
100
AcDbSymbolTable
 70
     0
  0
ENDTAB
  0
TABLE
  2
APPID
  5
9
330
0
100
AcDbSymbolTable
 70
    12
  0
APPID
  5
56
330
9
100
AcDbSymbolTableRecord
100
AcDbRegAppTableRecord
  2
ACAD
 70
     0
  0
APPID
  5
5E
330
9
100
AcDbSymbolTableRecord
100
AcDbRegAppTableRecord
  2
AcadAnnotative
 70
     0
  0
APPID
  5
7D
330
9
100
AcDbSymbolTableRecord
100
AcDbRegAppTableRecord
  2
ACAD_NAV_VCDISPLAY
 70
     0
  0
APPID
  5
DA
330
9
100
AcDbSymbolTableRecord
100
AcDbRegAppTableRecord
  2
ACAD_PSEXT
 70
     0
  0
APPID
  5
DB
330
9
100
AcDbSymbolTableRecord
100
AcDbRegAppTableRecord
  2
AcAecLayerStandard
 70
     0
  0
APPID
  5
DC
330
9
100
AcDbSymbolTableRecord
100
AcDbRegAppTableRecord
  2
ACAD_DSTYLE_DIMJAG
 70
     0
  0
APPID
  5
DD
330
9
100
AcDbSymbolTableRecord
100
AcDbRegAppTableRecord
  2
ACAD_DSTYLE_DIMTALN
 70
     0
  0
APPID
  5
DE
330
9
100
AcDbSymbolTableRecord
100
AcDbRegAppTableRecord
  2
GradientColor1ACI
 70
     0
  0
APPID
  5
DF
330
9
100
AcDbSymbolTableRecord
100
AcDbRegAppTableRecord
  2
GradientColor2ACI
 70
     0
  0
APPID
  5
E0
330
9
100
AcDbSymbolTableRecord
100
AcDbRegAppTableRecord
  2
ACAD_DSTYLE_DIMBREAK
 70
     0
  0
APPID
  5
E1
330
9
100
AcDbSymbolTableRecord
100
AcDbRegAppTableRecord
  2
Acad_TC
 70
     0
  0
APPID
  5
472
330
9
100
AcDbSymbolTableRecord
100
AcDbRegAppTableRecord
  2
ACAD_MLEADERVER
 70
     0
  0
ENDTAB
  0
TABLE
  2
DIMSTYLE
  5
A
330
0
100
AcDbSymbolTable
 70
     7
100
AcDbDimStyleTable
 71
     0
  0
DIMSTYLE
105
58
330
A
100
AcDbSymbolTableRecord
100
AcDbDimStyleTableRecord
  2
ISO-25
 70
     0
 41
2.5
 42
0.625
 43
3.75
 44
1.25
 50
90.0
 73
     0
 74
     0
 77
     1
 78
     8
140
2.5
141
2.5
143
0.03937007874016
147
0.625
171
     3
172
     1
271
     2
272
     2
274
     3
278
    44
283
     0
284
     8
340
55
  0
DIMSTYLE
105
D5
102
{ACAD_REACTORS
330
164
330
166
330
167
330
168
330
16A
330
28C
330
28E
330
28F
330
290
330
292
102
}
330
A
100
AcDbSymbolTableRecord
100
AcDbDimStyleTableRecord
  2
Spectrum 2
 70
     0
 40
2.0
 41
3.0
 42
1.0
 43
6.0
 44
2.0
 73
     0
 74
     0
 77
     1
 78
     8
140
2.25
141
0.0
143
0.03937007874016
147
1.0
171
     3
172
     1
271
     1
272
     1
274
     3
283
     0
284
     8
340
D3
1001
ACAD_DSTYLE_DIMJAG
1070
   388
1040
1.5
1001
ACAD_DSTYLE_DIMTALN
1070
   392
1070
     0
  0
ENDTAB
  0
TABLE
  2
BLOCK_RECORD
  5
1
330
0
100
AcDbSymbolTable
 70
    12
  0
BLOCK_RECORD
  5
70
330
1
100
AcDbSymbolTableRecord
100
AcDbBlockTableRecord
  2
*Model_Space
340
73
 70
     0
280
     1
281
     0
  0
BLOCK_RECORD
  5
6C
330
1
100
AcDbSymbolTableRecord
100
AcDbBlockTableRecord
  2
*Paper_Space
340
6F
 70
     0
280
     1
281
     0
  0
BLOCK_RECORD
  5
74
330
1
100
AcDbSymbolTableRecord
100
AcDbBlockTableRecord
  2
*Paper_Space0
340
77
 70
     0
280
     1
281
     0
  0
BLOCK_RECORD
  5
328
330
1
100
AcDbSymbolTableRecord
100
AcDbBlockTableRecord
  2
*D7
340
0
 70
     0
280
     1
281
     0
  0
BLOCK_RECORD
  5
334
330
1
100
AcDbSymbolTableRecord
100
AcDbBlockTableRecord
  2
*D8
340
0
 70
     0
280
     1
281
     0
  0
BLOCK_RECORD
  5
340
330
1
100
AcDbSymbolTableRecord
100
AcDbBlockTableRecord
  2
*D9
340
0
 70
     0
280
     1
281
     0
  0
BLOCK_RECORD
  5
34C
330
1
100
AcDbSymbolTableRecord
100
AcDbBlockTableRecord
  2
*D10
340
0
 70
     0
280
     1
281
     0
  0
BLOCK_RECORD
  5
37C
330
1
100
AcDbSymbolTableRecord
100
AcDbBlockTableRecord
  2
*D11
340
0
 70
     0
280
     1
281
     0
  0
ENDTAB
  0
ENDSEC
  0
SECTION
  2
BLOCKS
  0
BLOCK
  5
71
330
70
100
AcDbEntity
  8
0
100
AcDbBlockBegin
  2
*Model_Space
 70
     0
 10
0.0
 20
0.0
 30
0.0
  3
*Model_Space
  1

  0
ENDBLK
  5
72
330
70
100
AcDbEntity
  8
0
100
AcDbBlockEnd
  0
BLOCK
  5
6D
330
6C
100
AcDbEntity
 67
     1
  8
0
100
AcDbBlockBegin
  2
*Paper_Space
 70
     0
 10
0.0
 20
0.0
 30
0.0
  3
*Paper_Space
  1

  0
ENDBLK
  5
6E
330
6C
100
AcDbEntity
 67
     1
  8
0
100
AcDbBlockEnd
  0
BLOCK
  5
75
330
74
100
AcDbEntity
 67
     1
  8
0
100
AcDbBlockBegin
  2
*Paper_Space0
 70
     0
 10
0.0
 20
0.0
 30
0.0
  3
*Paper_Space0
  1

  0
ENDBLK
  5
76
330
74
100
AcDbEntity
 67
     1
  8
0
100
AcDbBlockEnd
  0
BLOCK
  5
329
330
328
100
AcDbEntity
  8
0
100
AcDbBlockBegin
  2
*D7
 70
     1
 10
0.0
 20
0.0
 30
0.0
  3
*D7
  1

  0
LINE
  5
388
330
328
100
AcDbEntity
  8
dim
 62
     0
440
 16777216
370
    -2
100
AcDbLine
 10
69.12133702324358
 20
248.1566519237896
 30
0.0
 11
46.39033083282986
 21
248.1566519237896
 31
0.0
  0
LINE
  5
389
330
328
100
AcDbEntity
  8
dim
 62
     0
440
 16777216
370
    -2
100
AcDbLine
 10
69.12133702324358
 20
348.1566519237896
 30
0.0
 11
46.39033083282984
 21
348.1566519237896
 31
0.0
  0
LINE
  5
38A
330
328
100
AcDbEntity
  8
dim
 62
     0
440
 16777216
370
    -2
100
AcDbLine
 10
50.39033083282987
 20
254.1566519237896
 30
0.0
 11
50.39033083282984
 21
342.1566519237896
 31
0.0
  0
SOLID
  5
38B
330
328
100
AcDbEntity
  8
dim
 62
     0
440
 16777216
100
AcDbTrace
 10
49.39033083282986
 20
254.1566519237896
 30
0.0
 11
51.39033083282987
 21
254.1566519237896
 31
0.0
 12
50.39033083282987
 22
248.1566519237896
 32
0.0
 13
50.39033083282987
 23
248.1566519237896
 33
0.0
  0
SOLID
  5
38C
330
328
100
AcDbEntity
  8
dim
 62
     0
440
 16777216
100
AcDbTrace
 10
49.39033083282985
 20
342.1566519237896
 30
0.0
 11
51.39033083282985
 21
342.1566519237896
 31
0.0
 12
50.39033083282984
 22
348.1566519237896
 32
0.0
 13
50.39033083282984
 23
348.1566519237896
 33
0.0
  0
MTEXT
  5
38D
330
328
100
AcDbEntity
  8
dim
 62
     0
440
 16777216
100
AcDbMText
 10
45.33552314052224
 20
298.1566519238004
 30
0.0
 40
4.5
 41
0.0
 46
0.0
 71
     5
 72
     1
  1
100mm min fixing crs
  7
Calibri
 11
0.0000000000000001
 21
1.0
 31
0.0
 73
     1
 44
1.0
  0
POINT
  5
38E
330
328
100
AcDbEntity
  8
Defpoints
 62
     0
440
 16777216
100
AcDbPoint
 10
99.12133702324361
 20
248.1566519237896
 30
0.0
  0
POINT
  5
38F
330
328
100
AcDbEntity
  8
Defpoints
 62
     0
440
 16777216
100
AcDbPoint
 10
99.12133702324361
 20
348.1566519237896
 30
0.0
  0
POINT
  5
390
330
328
100
AcDbEntity
  8
Defpoints
 62
     0
440
 16777216
100
AcDbPoint
 10
50.39033083282984
 20
348.1566519237896
 30
0.0
  0
ENDBLK
  5
32A
330
328
100
AcDbEntity
  8
0
100
AcDbBlockEnd
  0
BLOCK
  5
335
330
334
100
AcDbEntity
  8
0
100
AcDbBlockBegin
  2
*D8
 70
     1
 10
0.0
 20
0.0
 30
0.0
  3
*D8
  1

  0
LINE
  5
391
330
334
100
AcDbEntity
  8
dim
 62
     0
440
 16777216
370
    -2
100
AcDbLine
 10
95.12133702324359
 20
348.1566519237896
 30
0.0
 11
46.39033083284439
 21
348.1566519237896
 31
0.0
  0
LINE
  5
392
330
334
100
AcDbEntity
  8
dim
 62
     0
440
 16777216
370
    -2
100
AcDbLine
 10
59.28537704149497
 20
398.1566519237897
 30
0.0
 11
46.39033083284438
 21
398.1566519237897
 31
0.0
  0
LINE
  5
393
330
334
100
AcDbEntity
  8
dim
 62
     0
440
 16777216
370
    -2
100
AcDbLine
 10
50.3903308328444
 20
354.1566519237896
 30
0.0
 11
50.39033083284439
 21
392.1566519237897
 31
0.0
  0
SOLID
  5
394
330
334
100
AcDbEntity
  8
dim
 62
     0
440
 16777216
100
AcDbTrace
 10
49.3903308328444
 20
354.1566519237896
 30
0.0
 11
51.3903308328444
 21
354.1566519237896
 31
0.0
 12
50.3903308328444
 22
348.1566519237896
 32
0.0
 13
50.3903308328444
 23
348.1566519237896
 33
0.0
  0
SOLID
  5
395
330
334
100
AcDbEntity
  8
dim
 62
     0
440
 16777216
100
AcDbTrace
 10
49.39033083284439
 20
392.1566519237897
 30
0.0
 11
51.39033083284439
 21
392.1566519237897
 31
0.0
 12
50.39033083284439
 22
398.1566519237897
 32
0.0
 13
50.39033083284439
 23
398.1566519237897
 33
0.0
  0
MTEXT
  5
396
330
334
100
AcDbEntity
  8
dim
 62
     0
440
 16777216
100
AcDbMText
 10
46.06071544822909
 20
373.1566519237931
 30
0.0
 40
4.5
 41
0.0
 46
0.0
 71
     5
 72
     1
  1
50 min
  7
Calibri
 11
0.0000000000000001
 21
1.0
 31
0.0
 73
     1
 44
1.0
  0
POINT
  5
397
330
334
100
AcDbEntity
  8
Defpoints
 62
     0
440
 16777216
100
AcDbPoint
 10
99.12133702324361
 20
348.1566519237896
 30
0.0
  0
POINT
  5
398
330
334
100
AcDbEntity
  8
Defpoints
 62
     0
440
 16777216
100
AcDbPoint
 10
63.28537704149496
 20
398.1566519237897
 30
0.0
  0
POINT
  5
399
330
334
100
AcDbEntity
  8
Defpoints
 62
     0
440
 16777216
100
AcDbPoint
 10
50.39033083284439
 20
398.1566519237897
 30
0.0
  0
ENDBLK
  5
336
330
334
100
AcDbEntity
  8
0
100
AcDbBlockEnd
  0
BLOCK
  5
341
330
340
100
AcDbEntity
  8
0
100
AcDbBlockBegin
  2
*D9
 70
     1
 10
0.0
 20
0.0
 30
0.0
  3
*D9
  1

  0
LINE
  5
39A
330
340
100
AcDbEntity
  8
dim
 62
     0
440
 16777216
370
    -2
100
AcDbLine
 10
57.73232658805503
 20
198.1568205526201
 30
0.0
 11
46.39033083284443
 21
198.1568205526201
 31
0.0
  0
LINE
  5
39B
330
340
100
AcDbEntity
  8
dim
 62
     0
440
 16777216
370
    -2
100
AcDbLine
 10
95.12133702324359
 20
248.1566519237896
 30
0.0
 11
46.39033083284441
 21
248.1566519237896
 31
0.0
  0
LINE
  5
39C
330
340
100
AcDbEntity
  8
dim
 62
     0
440
 16777216
370
    -2
100
AcDbLine
 10
50.39033083284444
 20
204.1568205526202
 30
0.0
 11
50.39033083284443
 21
242.1566519237896
 31
0.0
  0
SOLID
  5
39D
330
340
100
AcDbEntity
  8
dim
 62
     0
440
 16777216
100
AcDbTrace
 10
49.39033083284444
 20
204.1568205526202
 30
0.0
 11
51.39033083284444
 21
204.1568205526202
 31
0.0
 12
50.39033083284444
 22
198.1568205526201
 32
0.0
 13
50.39033083284444
 23
198.1568205526201
 33
0.0
  0
SOLID
  5
39E
330
340
100
AcDbEntity
  8
dim
 62
     0
440
 16777216
100
AcDbTrace
 10
49.39033083284442
 20
242.1566519237896
 30
0.0
 11
51.39033083284442
 21
242.1566519237896
 31
0.0
 12
50.39033083284443
 22
248.1566519237896
 32
0.0
 13
50.39033083284443
 23
248.1566519237896
 33
0.0
  0
MTEXT
  5
39F
330
340
100
AcDbEntity
  8
dim
 62
     0
440
 16777216
100
AcDbMText
 10
46.06071544822909
 20
223.1567362382084
 30
0.0
 40
4.5
 41
0.0
 46
0.0
 71
     5
 72
     1
  1
50 min
  7
Calibri
 11
0.0000000000000001
 21
1.0
 31
0.0
 73
     1
 44
1.0
  0
POINT
  5
3A0
330
340
100
AcDbEntity
  8
Defpoints
 62
     0
440
 16777216
100
AcDbPoint
 10
61.73232658805503
 20
198.1568205526201
 30
0.0
  0
POINT
  5
3A1
330
340
100
AcDbEntity
  8
Defpoints
 62
     0
440
 16777216
100
AcDbPoint
 10
99.12133702324361
 20
248.1566519237896
 30
0.0
  0
POINT
  5
3A2
330
340
100
AcDbEntity
  8
Defpoints
 62
     0
440
 16777216
100
AcDbPoint
 10
50.39033083284443
 20
248.1566519237896
 30
0.0
  0
ENDBLK
  5
342
330
340
100
AcDbEntity
  8
0
100
AcDbBlockEnd
  0
BLOCK
  5
34D
330
34C
100
AcDbEntity
  8
0
100
AcDbBlockBegin
  2
*D10
 70
     1
 10
0.0
 20
0.0
 30
0.0
  3
*D10
  1

  0
LINE
  5
3A3
330
34C
100
AcDbEntity
  8
dim
 62
     0
440
 16777216
370
    -2
100
AcDbLine
 10
57.32042001532684
 20
198.1568205526201
 30
0.0
 11
32.39033083284443
 21
198.1568205526201
 31
0.0
  0
LINE
  5
3A4
330
34C
100
AcDbEntity
  8
dim
 62
     0
440
 16777216
370
    -2
100
AcDbLine
 10
59.28537704149497
 20
398.1566519237897
 30
0.0
 11
32.39033083284438
 21
398.1566519237897
 31
0.0
  0
LINE
  5
3A5
330
34C
100
AcDbEntity
  8
dim
 62
     0
440
 16777216
370
    -2
100
AcDbLine
 10
36.39033083284443
 20
204.1568205526202
 30
0.0
 11
36.39033083284438
 21
392.1566519237897
 31
0.0
  0
SOLID
  5
3A6
330
34C
100
AcDbEntity
  8
dim
 62
     0
440
 16777216
100
AcDbTrace
 10
35.39033083284443
 20
204.1568205526202
 30
0.0
 11
37.39033083284443
 21
204.1568205526202
 31
0.0
 12
36.39033083284443
 22
198.1568205526201
 32
0.0
 13
36.39033083284443
 23
198.1568205526201
 33
0.0
  0
SOLID
  5
3A7
330
34C
100
AcDbEntity
  8
dim
 62
     0
440
 16777216
100
AcDbTrace
 10
35.39033083284439
 20
392.1566519237897
 30
0.0
 11
37.39033083284438
 21
392.1566519237897
 31
0.0
 12
36.39033083284438
 22
398.1566519237897
 32
0.0
 13
36.39033083284438
 23
398.1566519237897
 33
0.0
  0
MTEXT
  5
3A8
330
34C
100
AcDbEntity
  8
dim
 62
     0
440
 16777216
100
AcDbMText
 10
31.94648467899833
 20
298.1567362382084
 30
0.0
 40
4.5
 41
0.0
 46
0.0
 71
     5
 72
     1
  1
200 min concrete thickness
  7
Calibri
 11
0.0000000000000001
 21
1.0
 31
0.0
 73
     1
 44
1.0
  0
POINT
  5
3A9
330
34C
100
AcDbEntity
  8
Defpoints
 62
     0
440
 16777216
100
AcDbPoint
 10
61.32042001532685
 20
198.1568205526201
 30
0.0
  0
POINT
  5
3AA
330
34C
100
AcDbEntity
  8
Defpoints
 62
     0
440
 16777216
100
AcDbPoint
 10
63.28537704149496
 20
398.1566519237897
 30
0.0
  0
POINT
  5
3AB
330
34C
100
AcDbEntity
  8
Defpoints
 62
     0
440
 16777216
100
AcDbPoint
 10
36.39033083284438
 20
398.1566519237897
 30
0.0
  0
ENDBLK
  5
34E
330
34C
100
AcDbEntity
  8
0
100
AcDbBlockEnd
  0
BLOCK
  5
37D
330
37C
100
AcDbEntity
  8
0
100
AcDbBlockBegin
  2
*D11
 70
     1
 10
0.0
 20
0.0
 30
0.0
  3
*D11
  1

  0
LINE
  5
3AC
330
37C
100
AcDbEntity
  8
dim
 62
     0
440
 16777216
370
    -2
100
AcDbLine
 10
195.732326588055
 20
402.1566519237894
 30
0.0
 11
195.732326588055
 21
433.110328695091
 31
0.0
  0
LINE
  5
3AD
330
37C
100
AcDbEntity
  8
dim
 62
     0
440
 16777216
370
    -2
100
AcDbLine
 10
105.732326588055
 20
356.3566519237938
 30
0.0
 11
105.732326588055
 21
433.110328695091
 31
0.0
  0
LINE
  5
3AE
330
37C
100
AcDbEntity
  8
dim
 62
     0
440
 16777216
370
    -2
100
AcDbLine
 10
189.732326588055
 20
429.110328695091
 30
0.0
 11
111.732326588055
 21
429.110328695091
 31
0.0
  0
SOLID
  5
3AF
330
37C
100
AcDbEntity
  8
dim
 62
     0
440
 16777216
100
AcDbTrace
 10
189.732326588055
 20
430.1103286950911
 30
0.0
 11
189.732326588055
 21
428.110328695091
 31
0.0
 12
195.732326588055
 22
429.110328695091
 32
0.0
 13
195.732326588055
 23
429.110328695091
 33
0.0
  0
SOLID
  5
3B0
330
37C
100
AcDbEntity
  8
dim
 62
     0
440
 16777216
100
AcDbTrace
 10
111.732326588055
 20
430.1103286950911
 30
0.0
 11
111.732326588055
 21
428.110328695091
 31
0.0
 12
105.732326588055
 22
429.110328695091
 32
0.0
 13
105.732326588055
 23
429.110328695091
 33
0.0
  0
MTEXT
  5
3B1
330
37C
100
AcDbEntity
  8
dim
 62
     0
440
 16777216
100
AcDbMText
 10
150.732326588055
 20
433.5541748489372
 30
0.0
 40
4.5
 41
0.0
 46
0.0
 71
     5
 72
     1
  1
100 min embedment
  7
Calibri
 73
     1
 44
1.0
  0
POINT
  5
3B2
330
37C
100
AcDbEntity
  8
Defpoints
 62
     0
440
 16777216
100
AcDbPoint
 10
195.732326588055
 20
398.1566519237895
 30
0.0
  0
POINT
  5
3B3
330
37C
100
AcDbEntity
  8
Defpoints
 62
     0
440
 16777216
100
AcDbPoint
 10
105.732326588055
 20
352.3566519237939
 30
0.0
  0
POINT
  5
3B4
330
37C
100
AcDbEntity
  8
Defpoints
 62
     0
440
 16777216
100
AcDbPoint
 10
105.732326588055
 20
429.110328695091
 30
0.0
  0
ENDBLK
  5
37E
330
37C
100
AcDbEntity
  8
0
100
AcDbBlockEnd
  0
ENDSEC
  0
SECTION
  2
ENTITIES
  0
LINE
  5
214
330
70
100
AcDbEntity
  8
Post
100
AcDbLine
 10
197.232326588055
 20
198.15682055262
 30
0.0
 11
197.232326588055
 21
527.9299231557979
 31
0.0
  0
LINE
  5
215
330
70
100
AcDbEntity
  8
Post
100
AcDbLine
 10
248.0323265880433
 20
198.15682055262
 30
0.0
 11
248.0323265880433
 21
527.8310650565199
 31
0.0
  0
HATCH
  5
216
330
70
100
AcDbEntity
  8
shade 8
100
AcDbHatch
 10
0.0
 20
0.0
 30
0.0
210
0.0
220
0.0
230
1.0
  2
AR-CONC
 70
     0
 71
     0
 91
        3
 92
        1
 93
       10
 72
     1
 10
195.732326588055
 20
343.1566519237895
 11
96.98232658805501
 21
343.1566519237895
 72
     1
 10
96.98232658805501
 20
343.1566519237895
 11
95.73232658805499
 21
344.4066519237895
 72
     1
 10
95.73232658805499
 20
344.4066519237895
 11
95.73232658805499
 21
348.1566519237895
 72
     1
 10
95.73232658805499
 20
348.1566519237895
 11
62.73006269217876
 21
348.1566519237895
 72
     1
 10
62.73006269217876
 20
348.1566519237895
 11
61.87573292400339
 21
248.1566519237895
 72
     1
 10
61.87573292400339
 20
248.1566519237895
 11
95.73232658805499
 21
248.1566519237895
 72
     1
 10
95.73232658805499
 20
248.1566519237895
 11
95.73232658805499
 21
251.9066519237895
 72
     1
 10
95.73232658805499
 20
251.9066519237895
 11
96.98232658805501
 21
253.1566519237895
 72
     1
 10
96.98232658805501
 20
253.1566519237895
 11
195.732326588055
 21
253.1566519237895
 72
     1
 10
195.732326588055
 20
253.1566519237895
 11
195.732326588055
 21
343.1566519237895
 97
        0
 92
        1
 93
        7
 72
     1
 10
195.732326588055
 20
243.1566519237895
 11
96.98232658805501
 21
243.1566519237895
 72
     1
 10
96.98232658805501
 20
243.1566519237895
 11
95.73232658805499
 21
244.4066519237895
 72
     1
 10
95.73232658805499
 20
244.4066519237895
 11
95.73232658805499
 21
248.1566519237895
 72
     1
 10
95.73232658805499
 20
248.1566519237895
 11
61.87573292400339
 21
248.1566519237895
 72
     1
 10
61.87573292400339
 20
248.1566519237895
 11
61.32042001532681
 21
198.15682055262
 72
     1
 10
61.32042001532681
 20
198.15682055262
 11
195.732326588055
 21
198.15682055262
 72
     1
 10
195.732326588055
 20
198.15682055262
 11
195.732326588055
 21
243.1566519237895
 97
        0
 92
        1
 93
        7
 72
     1
 10
195.732326588055
 20
398.1566519237895
 11
63.28537704149494
 21
398.1566519237895
 72
     1
 10
63.28537704149494
 20
398.1566519237895
 11
62.73006269217876
 21
348.1566519237895
 72
     1
 10
62.73006269217876
 20
348.1566519237895
 11
95.73232658805499
 21
348.1566519237895
 72
     1
 10
95.73232658805499
 20
348.1566519237895
 11
95.73232658805499
 21
351.9066519237895
 72
     1
 10
95.73232658805499
 20
351.9066519237895
 11
96.98232658805501
 21
353.1566519237895
 72
     1
 10
96.98232658805501
 20
353.1566519237895
 11
195.732326588055
 21
353.1566519237895
 72
     1
 10
195.732326588055
 20
353.1566519237895
 11
195.732326588055
 21
398.1566519237895
 97
        0
 75
     0
 76
     1
 52
0.0
 41
0.5
 77
     0
 78
    13
 53
50.0
 43
-632.2502772540901
 44
-171.0871751349405
 45
91.092334498002
 46
-7.969542769451543
 79
     2
 49
9.525
 49
-104.775
 53
355.0
 43
-632.2502772540901
 44
-171.0871751349405
 45
-17.62141298783349
 46
95.52832144108998
 79
     2
 49
7.62
 49
-83.81999999999999
 53
100.451
 43
-624.6592772540898
 44
-171.7513001349416
 45
73.47125083297962
 46
87.55834391014593
 79
     2
 49
8.095
 49
-89.045
 53
46.1842
 43
-632.2502772540901
 44
-145.6871751349408
 45
135.5395204460649
 46
-21.02116396636358
 79
     2
 49
14.2875
 49
-157.1625
 53
96.63559999999996
 43
-620.9553272540943
 44
-147.4389251349421
 45
118.7021172331185
 46
123.7127779450246
 79
     2
 49
12.14249999999996
 49
-133.5674999999994
 53
351.184
 43
-632.2502772540901
 44
-145.6871751349408
 45
118.7023029069669
 46
123.7125589302988
 79
     2
 49
11.43
 49
-125.73
 53
21.0
 43
-619.5502772540931
 44
-152.0371751349412
 45
75.80743991769164
 46
-51.13275925838125
 79
     2
 49
9.525
 49
-104.775
 53
326.0
 43
-619.5502772540931
 44
-152.0371751349412
 45
30.90101417382354
 46
92.09398306115962
 79
     2
 49
7.62
 49
-83.81999999999999
 53
71.45140000000001
 43
-613.2330272541003
 44
-156.2982251349422
 45
106.7082453850622
 46
40.96142885802872
 79
     2
 49
8.095
 49
-89.045
 53
37.5
 43
-632.2502772540901
 44
-171.0871751349405
 45
1.544301625295908
 46
42.27751943657655
 79
     6
 49
0.0
 49
-82.804
 49
0.0
 49
-85.09
 49
0.0
 49
-84.1375
 53
7.499999999999999
 43
-632.2502772540901
 44
-171.0871751349405
 45
33.40983125515287
 46
50.09028740905975
 79
     6
 49
0.0
 49
-48.51399999999999
 49
0.0
 49
-80.899
 49
0.0
 49
-32.0675
 53
327.5
 43
-660.571277254101
 44
-171.0871751349405
 45
67.7952975834357
 46
-2.864371996336728
 79
     6
 49
0.0
 49
-31.75
 49
0.0
 49
-99.06
 49
0.0
 49
-131.445
 53
317.5
 43
-673.271277254098
 44
-171.0871751349405
 45
74.06459069300902
 46
12.71324551666651
 79
     6
 49
0.0
 49
-41.275
 49
0.0
 49
-65.786
 49
0.0
 49
-93.345
 98
        3
 10
137.8361361008865
 20
306.493740958631
 10
116.5671964978246
 20
212.6760992237978
 10
114.7177241696045
 20
375.8171219008927
1001
ACAD
1010
0.0
1020
0.0
1030
0.0
  0
LINE
  5
217
330
70
100
AcDbEntity
  8
Post
370
     9
100
AcDbLine
 10
200.232326588055
 20
198.15682055262
 30
0.0
 11
200.232326588055
 21
529.2645737065249
 31
0.0
  0
LINE
  5
218
330
70
100
AcDbEntity
  8
Post
370
     9
100
AcDbLine
 10
245.0323265880434
 20
198.15682055262
 30
0.0
 11
245.0323265880434
 21
526.4193258678224
 31
0.0
  0
SPLINE
  5
219
330
70
100
AcDbEntity
  8
dim
  6
DASHED
 48
0.2
370
     5
100
AcDbSpline
210
0.0
220
0.0
230
1.0
 70
  1064
 71
     3
 72
    10
 73
     6
 74
     4
 42
0.000000001
 43
0.0000000001
 44
0.00001
 40
0.0
 40
0.0
 40
0.0
 40
0.0
 40
25.64484537913052
 40
44.54268333005734
 40
68.78749418387261
 40
68.78749418387261
 40
68.78749418387261
 40
68.78749418387261
 10
189.7701186082122
 20
524.0531636424038
 30
0.0
 10
198.0670580979813
 20
528.5463241968222
 30
0.0
 10
212.4780612776763
 20
536.3505212885866
 30
0.0
 10
233.3827896323148
 20
519.3434264196082
 30
0.0
 10
247.209454982455
 20
527.2109042987333
 30
0.0
 10
254.9796057599451
 20
531.6321792635426
 30
0.0
 11
189.7701186082122
 21
524.0531636424038
 31
0.0
 11
214.3711153273034
 21
531.2953356195648
 31
0.0
 11
231.8951092500356
 21
524.2215872344768
 31
0.0
 11
254.9796057599451
 21
531.6321792635426
 31
0.0
  0
LINE
  5
21A
330
70
100
AcDbEntity
  8
0
100
AcDbLine
 10
195.732326588055
 20
198.15682055262
 30
0.0
 11
61.32042001532681
 21
198.15682055262
 31
0.0
  0
LINE
  5
21B
330
70
100
AcDbEntity
  8
0
100
AcDbLine
 10
195.732326588055
 20
398.1566519237895
 30
0.0
 11
63.28537704149494
 21
398.1566519237895
 31
0.0
  0
LINE
  5
21C
330
70
100
AcDbEntity
  8
Post
100
AcDbLine
 10
197.232326588055
 20
198.15682055262
 30
0.0
 11
248.0323265880433
 21
198.15682055262
 31
0.0
  0
LINE
  5
21D
330
70
100
AcDbEntity
  8
fixing
100
AcDbLine
 10
250.0323265880433
 20
358.1566519237895
 30
0.0
 11
250.0323265880433
 21
338.1566519237895
 31
0.0
  0
LINE
  5
21E
330
70
100
AcDbEntity
  8
fixing
100
AcDbLine
 10
258.0323265880434
 20
355.8459523031343
 30
0.0
 11
258.0323265880434
 21
340.4673515444447
 31
0.0
  0
LINE
  5
21F
330
70
100
AcDbEntity
  8
fixing
100
AcDbLine
 10
250.0323265880433
 20
358.1566519237895
 30
0.0
 11
248.0323265880433
 21
358.1566519237895
 31
0.0
  0
LINE
  5
220
330
70
100
AcDbEntity
  8
fixing
100
AcDbLine
 10
248.0323265880433
 20
358.1566519237895
 30
0.0
 11
248.0323265880433
 21
338.1566519237895
 31
0.0
  0
LINE
  5
221
330
70
100
AcDbEntity
  8
fixing
100
AcDbLine
 10
248.0323265880433
 20
338.1566519237895
 30
0.0
 11
250.0323265880433
 21
338.1566519237895
 31
0.0
  0
ARC
  5
222
330
70
100
AcDbEntity
  8
fixing
100
AcDbCircle
 10
260.5323265880433
 20
348.1566519237895
 30
0.0
 40
7.5
100
AcDbArc
 50
270.0
 51
90.0
  0
LINE
  5
223
330
70
100
AcDbEntity
  8
fixing
100
AcDbLine
 10
260.5323265880433
 20
355.6566519237895
 30
0.0
 11
258.6177889054233
 21
355.6566519237895
 31
0.0
  0
LINE
  5
224
330
70
100
AcDbEntity
  8
fixing
100
AcDbLine
 10
260.5323265880433
 20
340.6566519237895
 30
0.0
 11
258.6177889054233
 21
340.6566519237895
 31
0.0
  0
ARC
  5
225
330
70
100
AcDbEntity
  8
fixing
100
AcDbCircle
 10
258.6177889054233
 20
339.6566519237895
 30
0.0
 40
1.0
100
AcDbArc
 50
90.0
 51
138.1896851045237
  0
ARC
  5
226
330
70
100
AcDbEntity
  8
fixing
100
AcDbCircle
 10
257.4997549166728
 20
340.6566519237895
 30
0.0
 40
0.5
100
AcDbArc
 50
270.0
 51
318.1896851045237
  0
LINE
  5
227
330
70
100
AcDbEntity
  8
fixing
100
AcDbLine
 10
257.4997549166728
 20
340.1566519237895
 30
0.0
 11
251.2726390117896
 21
340.1566519237895
 31
0.0
  0
ARC
  5
228
330
70
100
AcDbEntity
  8
fixing
100
AcDbCircle
 10
251.2726390117896
 20
340.6566519237895
 30
0.0
 40
0.5
100
AcDbArc
 50
218.6598082544461
 51
270.0
  0
LINE
  5
229
330
70
100
AcDbEntity
  8
fixing
100
AcDbLine
 10
256.6283249867701
 20
348.1566519237895
 30
0.0
 11
251.4363281893311
 21
348.1566519237895
 31
0.0
  0
ARC
  5
22A
330
70
100
AcDbEntity
  8
fixing
100
AcDbCircle
 10
251.6323265880492
 20
344.1566519237895
 30
0.0
 40
6.4
100
AcDbArc
 50
323.6141321832159
 51
38.6821874536141
  0
ARC
  5
22B
330
70
100
AcDbEntity
  8
fixing
100
AcDbCircle
 10
256.3820634228614
 20
340.6566519237895
 30
0.0
 40
0.5
100
AcDbArc
 50
270.0
 51
323.6141321832159
  0
ARC
  5
22C
330
70
100
AcDbEntity
  8
fixing
100
AcDbCircle
 10
256.4323265880521
 20
344.1566519237895
 30
0.0
 40
6.4
100
AcDbArc
 50
141.3178125463859
 51
216.3858678167841
  0
ARC
  5
22D
330
70
100
AcDbEntity
  8
fixing
100
AcDbCircle
 10
251.6825897532399
 20
340.6566519237895
 30
0.0
 40
0.5
100
AcDbArc
 50
216.3858678167841
 51
270.0
  0
LINE
  5
22E
330
70
100
AcDbEntity
  8
fixing
100
AcDbLine
 10
250.0323265880433
 20
341.4066519237895
 30
0.0
 11
250.8822046070709
 21
340.3443044000123
 31
0.0
  0
ARC
  5
22F
330
70
100
AcDbEntity
  8
fixing
100
AcDbCircle
 10
258.6177889054233
 20
356.6566519237895
 30
0.0
 40
1.0
100
AcDbArc
 50
221.8103148954763
 51
270.0
  0
ARC
  5
230
330
70
100
AcDbEntity
  8
fixing
100
AcDbCircle
 10
257.4997549166728
 20
355.6566519237895
 30
0.0
 40
0.5
100
AcDbArc
 50
41.81031489547629
 51
90.0
  0
LINE
  5
231
330
70
100
AcDbEntity
  8
fixing
100
AcDbLine
 10
257.4997549166728
 20
356.1566519237895
 30
0.0
 11
251.2726390117896
 21
356.1566519237895
 31
0.0
  0
ARC
  5
232
330
70
100
AcDbEntity
  8
fixing
100
AcDbCircle
 10
251.2726390117896
 20
355.6566519237895
 30
0.0
 40
0.5
100
AcDbArc
 50
90.0
 51
141.3401917455539
  0
ARC
  5
233
330
70
100
AcDbEntity
  8
fixing
100
AcDbCircle
 10
251.6323265880492
 20
352.1566519237895
 30
0.0
 40
6.4
100
AcDbArc
 50
321.3178125463859
 51
36.38586781678414
  0
ARC
  5
234
330
70
100
AcDbEntity
  8
fixing
100
AcDbCircle
 10
256.3820634228614
 20
355.6566519237895
 30
0.0
 40
0.5
100
AcDbArc
 50
36.38586781678414
 51
90.0
  0
ARC
  5
235
330
70
100
AcDbEntity
  8
fixing
100
AcDbCircle
 10
256.4323265880521
 20
352.1566519237895
 30
0.0
 40
6.4
100
AcDbArc
 50
143.6141321832159
 51
218.6821874536141
  0
ARC
  5
236
330
70
100
AcDbEntity
  8
fixing
100
AcDbCircle
 10
251.6825897532399
 20
355.6566519237895
 30
0.0
 40
0.5
100
AcDbArc
 50
90.0
 51
143.6141321832159
  0
LINE
  5
237
330
70
100
AcDbEntity
  8
fixing
100
AcDbLine
 10
250.0323265880433
 20
354.9066519237895
 30
0.0
 11
250.8822046070709
 21
355.9689994475666
 31
0.0
  0
LINE
  5
238
330
70
100
AcDbEntity
  8
fixing
100
AcDbLine
 10
250.0323265880433
 20
258.1566519237895
 30
0.0
 11
250.0323265880433
 21
238.1566519237895
 31
0.0
  0
LINE
  5
239
330
70
100
AcDbEntity
  8
fixing
100
AcDbLine
 10
258.0323265880434
 20
255.8459523031343
 30
0.0
 11
258.0323265880434
 21
240.4673515444447
 31
0.0
  0
LINE
  5
23A
330
70
100
AcDbEntity
  8
fixing
100
AcDbLine
 10
250.0323265880433
 20
258.1566519237895
 30
0.0
 11
248.0323265880433
 21
258.1566519237895
 31
0.0
  0
LINE
  5
23B
330
70
100
AcDbEntity
  8
fixing
100
AcDbLine
 10
248.0323265880433
 20
258.1566519237895
 30
0.0
 11
248.0323265880433
 21
238.1566519237895
 31
0.0
  0
LINE
  5
23C
330
70
100
AcDbEntity
  8
fixing
100
AcDbLine
 10
248.0323265880433
 20
238.1566519237895
 30
0.0
 11
250.0323265880433
 21
238.1566519237895
 31
0.0
  0
ARC
  5
23D
330
70
100
AcDbEntity
  8
fixing
100
AcDbCircle
 10
260.5323265880433
 20
248.1566519237895
 30
0.0
 40
7.5
100
AcDbArc
 50
270.0
 51
90.0
  0
LINE
  5
23E
330
70
100
AcDbEntity
  8
fixing
100
AcDbLine
 10
260.5323265880433
 20
255.6566519237895
 30
0.0
 11
258.6177889054233
 21
255.6566519237895
 31
0.0
  0
LINE
  5
23F
330
70
100
AcDbEntity
  8
fixing
100
AcDbLine
 10
260.5323265880433
 20
240.6566519237895
 30
0.0
 11
258.6177889054233
 21
240.6566519237895
 31
0.0
  0
ARC
  5
240
330
70
100
AcDbEntity
  8
fixing
100
AcDbCircle
 10
258.6177889054233
 20
239.6566519237895
 30
0.0
 40
1.0
100
AcDbArc
 50
90.0
 51
138.1896851045237
  0
ARC
  5
241
330
70
100
AcDbEntity
  8
fixing
100
AcDbCircle
 10
257.4997549166728
 20
240.6566519237895
 30
0.0
 40
0.5
100
AcDbArc
 50
270.0
 51
318.1896851045237
  0
LINE
  5
242
330
70
100
AcDbEntity
  8
fixing
100
AcDbLine
 10
257.4997549166728
 20
240.1566519237895
 30
0.0
 11
251.2726390117896
 21
240.1566519237895
 31
0.0
  0
ARC
  5
243
330
70
100
AcDbEntity
  8
fixing
100
AcDbCircle
 10
251.2726390117896
 20
240.6566519237895
 30
0.0
 40
0.5
100
AcDbArc
 50
218.6598082544461
 51
270.0
  0
LINE
  5
244
330
70
100
AcDbEntity
  8
fixing
100
AcDbLine
 10
256.6283249867701
 20
248.1566519237895
 30
0.0
 11
251.4363281893311
 21
248.1566519237895
 31
0.0
  0
ARC
  5
245
330
70
100
AcDbEntity
  8
fixing
100
AcDbCircle
 10
251.6323265880492
 20
244.1566519237895
 30
0.0
 40
6.4
100
AcDbArc
 50
323.6141321832159
 51
38.6821874536141
  0
ARC
  5
246
330
70
100
AcDbEntity
  8
fixing
100
AcDbCircle
 10
256.3820634228614
 20
240.6566519237895
 30
0.0
 40
0.5
100
AcDbArc
 50
270.0
 51
323.6141321832159
  0
ARC
  5
247
330
70
100
AcDbEntity
  8
fixing
100
AcDbCircle
 10
256.4323265880521
 20
244.1566519237895
 30
0.0
 40
6.4
100
AcDbArc
 50
141.3178125463859
 51
216.3858678167841
  0
ARC
  5
248
330
70
100
AcDbEntity
  8
fixing
100
AcDbCircle
 10
251.6825897532399
 20
240.6566519237895
 30
0.0
 40
0.5
100
AcDbArc
 50
216.3858678167841
 51
270.0
  0
LINE
  5
249
330
70
100
AcDbEntity
  8
fixing
100
AcDbLine
 10
250.0323265880433
 20
241.4066519237895
 30
0.0
 11
250.8822046070709
 21
240.3443044000123
 31
0.0
  0
ARC
  5
24A
330
70
100
AcDbEntity
  8
fixing
100
AcDbCircle
 10
258.6177889054233
 20
256.6566519237895
 30
0.0
 40
1.0
100
AcDbArc
 50
221.8103148954763
 51
270.0
  0
ARC
  5
24B
330
70
100
AcDbEntity
  8
fixing
100
AcDbCircle
 10
257.4997549166728
 20
255.6566519237895
 30
0.0
 40
0.5
100
AcDbArc
 50
41.81031489547629
 51
90.0
  0
LINE
  5
24C
330
70
100
AcDbEntity
  8
fixing
100
AcDbLine
 10
257.4997549166728
 20
256.1566519237895
 30
0.0
 11
251.2726390117896
 21
256.1566519237895
 31
0.0
  0
ARC
  5
24D
330
70
100
AcDbEntity
  8
fixing
100
AcDbCircle
 10
251.2726390117896
 20
255.6566519237895
 30
0.0
 40
0.5
100
AcDbArc
 50
90.0
 51
141.3401917455539
  0
ARC
  5
24E
330
70
100
AcDbEntity
  8
fixing
100
AcDbCircle
 10
251.6323265880492
 20
252.1566519237895
 30
0.0
 40
6.4
100
AcDbArc
 50
321.3178125463859
 51
36.38586781678414
  0
ARC
  5
24F
330
70
100
AcDbEntity
  8
fixing
100
AcDbCircle
 10
256.3820634228614
 20
255.6566519237895
 30
0.0
 40
0.5
100
AcDbArc
 50
36.38586781678414
 51
90.0
  0
ARC
  5
250
330
70
100
AcDbEntity
  8
fixing
100
AcDbCircle
 10
256.4323265880521
 20
252.1566519237895
 30
0.0
 40
6.4
100
AcDbArc
 50
143.6141321832159
 51
218.6821874536141
  0
ARC
  5
251
330
70
100
AcDbEntity
  8
fixing
100
AcDbCircle
 10
251.6825897532399
 20
255.6566519237895
 30
0.0
 40
0.5
100
AcDbArc
 50
90.0
 51
143.6141321832159
  0
LINE
  5
252
330
70
100
AcDbEntity
  8
fixing
100
AcDbLine
 10
250.0323265880433
 20
254.9066519237895
 30
0.0
 11
250.8822046070709
 21
255.9689994475666
 31
0.0
  0
LINE
  5
253
330
70
100
AcDbEntity
  8
Post
100
AcDbLine
 10
197.232326588055
 20
201.15682055262
 30
0.0
 11
248.0323265880433
 21
201.15682055262
 31
0.0
  0
LINE
  5
254
330
70
100
AcDbEntity
  8
Spigot
 48
0.2
370
     5
100
AcDbLine
 10
218.9753369254904
 20
201.15682055262
 30
0.0
 11
218.9753369254904
 21
433.1580535674365
 31
0.0
  0
LINE
  5
255
330
70
100
AcDbEntity
  8
Spigot
 48
0.2
370
     5
100
AcDbLine
 10
226.2679391642887
 20
201.15682055262
 30
0.0
 11
226.2679391642887
 21
433.1580535674365
 31
0.0
  0
LINE
  5
256
330
70
100
AcDbEntity
  8
Spigot
 48
0.2
370
     5
100
AcDbLine
 10
222.6269368977373
 20
201.15682055262
 30
0.0
 11
222.6269368977373
 21
433.1580535674365
 31
0.0
  0
LINE
  5
257
330
70
100
AcDbEntity
  8
Spigot
 48
0.2
370
     5
100
AcDbLine
 10
202.2306652123225
 20
201.15682055262
 30
0.0
 11
202.2306652123225
 21
433.1580535674365
 31
0.0
  0
LINE
  5
258
330
70
100
AcDbEntity
  8
Spigot
 48
0.2
370
     5
100
AcDbLine
 10
204.2265333379764
 20
201.15682055262
 30
0.0
 11
204.2265333379764
 21
433.1580535674365
 31
0.0
  0
LINE
  5
259
330
70
100
AcDbEntity
  8
Spigot
 48
0.2
370
     5
100
AcDbLine
 10
241.0419296171167
 20
201.15682055262
 30
0.0
 11
241.0419296171167
 21
433.1580535674365
 31
0.0
  0
LINE
  5
25A
330
70
100
AcDbEntity
  8
Spigot
 48
0.2
370
     5
100
AcDbLine
 10
243.030657256284
 20
201.15682055262
 30
0.0
 11
243.030657256284
 21
433.1580535674365
 31
0.0
  0
LINE
  5
25B
330
70
100
AcDbEntity
  8
Spigot
 48
0.2
370
     5
100
AcDbLine
 10
202.2306652123225
 20
433.1580535674365
 30
0.0
 11
243.030657256284
 21
433.1580535674365
 31
0.0
  0
LINE
  5
25C
330
70
100
AcDbEntity
  8
fixing
  6
DASHED
 48
0.3
370
     5
100
AcDbLine
 10
106.5323265880579
 20
353.1566519237895
 30
0.0
 11
248.0323265880433
 21
353.1566519237895
 31
0.0
  0
LINE
  5
25D
330
70
100
AcDbEntity
  8
fixing
  6
DASHED
 48
0.3
370
     5
100
AcDbLine
 10
106.5323265880579
 20
352.3566519237902
 30
0.0
 11
248.0323265880433
 21
352.3566519237902
 31
0.0
  0
LINE
  5
25E
330
70
100
AcDbEntity
  8
fixing
  6
DASHED
 48
0.3
370
     5
100
AcDbLine
 10
106.5323265880579
 20
343.9566519237906
 30
0.0
 11
248.0323265880433
 21
343.9566519237906
 31
0.0
  0
LINE
  5
25F
330
70
100
AcDbEntity
  8
fixing
  6
DASHED
 48
0.3
370
     5
100
AcDbLine
 10
106.5323265880579
 20
343.1566519237895
 30
0.0
 11
248.0323265880579
 21
343.1566519237895
 31
0.0
  0
LINE
  5
260
330
70
100
AcDbEntity
  8
fixing
  6
DASHED
 48
0.3
370
     5
100
AcDbLine
 10
105.732326588055
 20
343.9566519237924
 30
0.0
 11
105.732326588055
 21
352.3566519237939
 31
0.0
  0
LINE
  5
261
330
70
100
AcDbEntity
  8
fixing
  6
DASHED
 48
0.3
370
     5
100
AcDbLine
 10
106.5323265880579
 20
343.1566519237895
 30
0.0
 11
106.5323265880579
 21
353.1566519237895
 31
0.0
  0
LINE
  5
262
330
70
100
AcDbEntity
  8
fixing
  6
DASHED
 48
0.3
370
     5
100
AcDbLine
 10
105.732326588055
 20
352.3566519237939
 30
0.0
 11
106.5323265880579
 21
353.1566519237895
 31
0.0
  0
LINE
  5
263
330
70
100
AcDbEntity
  8
fixing
  6
DASHED
 48
0.3
370
     5
100
AcDbLine
 10
105.732326588055
 20
343.9566519237924
 30
0.0
 11
106.5323265880579
 21
343.1566519237895
 31
0.0
  0
LINE
  5
264
330
70
100
AcDbEntity
  8
fixing
  6
DASHED
 48
0.3
370
     5
100
AcDbLine
 10
106.5323265880579
 20
253.1566519237895
 30
0.0
 11
248.0323265880433
 21
253.1566519237895
 31
0.0
  0
LINE
  5
265
330
70
100
AcDbEntity
  8
fixing
  6
DASHED
 48
0.3
370
     5
100
AcDbLine
 10
106.5323265880579
 20
252.3566519237902
 30
0.0
 11
248.0323265880433
 21
252.3566519237902
 31
0.0
  0
LINE
  5
266
330
70
100
AcDbEntity
  8
fixing
  6
DASHED
 48
0.3
370
     5
100
AcDbLine
 10
106.5323265880579
 20
243.9566519237906
 30
0.0
 11
248.0323265880433
 21
243.9566519237887
 31
0.0
  0
LINE
  5
267
330
70
100
AcDbEntity
  8
fixing
  6
DASHED
 48
0.3
370
     5
100
AcDbLine
 10
106.5323265880579
 20
243.1566519237895
 30
0.0
 11
248.0323265880433
 21
243.1566519237895
 31
0.0
  0
LINE
  5
268
330
70
100
AcDbEntity
  8
fixing
  6
DASHED
 48
0.3
370
     5
100
AcDbLine
 10
105.732326588055
 20
243.9566519237924
 30
0.0
 11
105.732326588055
 21
252.3566519237866
 31
0.0
  0
LINE
  5
269
330
70
100
AcDbEntity
  8
fixing
  6
DASHED
 48
0.3
370
     5
100
AcDbLine
 10
106.5323265880579
 20
243.1566519237895
 30
0.0
 11
106.5323265880579
 21
253.1566519237895
 31
0.0
  0
LINE
  5
26A
330
70
100
AcDbEntity
  8
fixing
  6
DASHED
 48
0.3
370
     5
100
AcDbLine
 10
105.732326588055
 20
252.3566519237866
 30
0.0
 11
106.5323265880579
 21
253.1566519237895
 31
0.0
  0
LINE
  5
26B
330
70
100
AcDbEntity
  8
fixing
  6
DASHED
 48
0.3
370
     5
100
AcDbLine
 10
105.732326588055
 20
243.9566519237924
 30
0.0
 11
106.5323265880579
 21
243.1566519237895
 31
0.0
  0
LINE
  5
26C
330
70
100
AcDbEntity
  8
ctrl
 48
0.25
100
AcDbLine
 10
270.2628556289274
 20
248.1566519237895
 30
0.0
 11
99.12133702324354
 21
248.1566519237895
 31
0.0
  0
LINE
  5
26D
330
70
100
AcDbEntity
  8
ctrl
 48
0.25
100
AcDbLine
 10
270.744920728539
 20
348.1566519237895
 30
0.0
 11
99.12133702324354
 21
348.1566519237895
 31
0.0
  0
LINE
  5
26E
102
{ACAD_REACTORS
330
294
102
}
330
70
100
AcDbEntity
  8
0
100
AcDbLine
 10
195.732326588055
 20
398.1566519237895
 30
0.0
 11
195.732326588055
 21
198.15682055262
 31
0.0
  0
HATCH
  5
26F
330
70
100
AcDbEntity
  8
shade 8
100
AcDbHatch
 10
0.0
 20
0.0
 30
0.0
210
0.0
220
0.0
230
1.0
  2
ANSI31
 70
     0
 71
     0
 91
       10
 92
        7
 72
     0
 73
     1
 93
        4
 10
200.2323265880696
 20
354.7566519237898
 10
197.2323265880841
 20
354.7566519237898
 10
197.2323265880695
 20
353.1566519237895
 10
200.2323265880841
 20
353.1566519237895
 97
        0
 92
        7
 72
     0
 73
     1
 93
        4
 10
202.230665212337
 20
354.7566519237898
 10
200.2323265880841
 20
354.7566519237898
 10
200.2323265880696
 20
353.1566519237895
 10
202.230665212337
 20
353.1566519237895
 97
        0
 92
        7
 72
     0
 73
     1
 93
        4
 10
204.226533337991
 20
354.7566519237898
 10
202.230665212337
 20
354.7566519237898
 10
202.230665212337
 20
353.1566519237895
 10
204.2265333380056
 20
353.1566519237895
 97
        0
 92
        7
 72
     0
 73
     1
 93
        4
 10
218.9753369255195
 20
354.7566519237898
 10
204.226533337991
 20
354.7566519237898
 10
204.2265333380056
 20
353.1566519237895
 10
218.9753369255195
 20
353.1566519237895
 97
        0
 92
        7
 72
     0
 73
     1
 93
        4
 10
222.6269368977519
 20
354.7566519237898
 10
218.9753369255195
 20
354.7566519237898
 10
218.9753369255195
 20
353.1566519237895
 10
222.6269368977519
 20
353.1566519237895
 97
        0
 92
        7
 72
     0
 73
     1
 93
        4
 10
226.2679391643033
 20
354.7566519237898
 10
222.6269368977519
 20
354.7566519237898
 10
222.6269368977519
 20
353.1566519237895
 10
226.2679391643033
 20
353.1566519237895
 97
        0
 92
        7
 72
     0
 73
     1
 93
        4
 10
241.0419296171312
 20
354.7566519237898
 10
226.2679391643178
 20
354.7566519237898
 10
226.2679391643033
 20
353.1566519237895
 10
241.0419296171312
 20
353.1566519237895
 97
        0
 92
        7
 72
     0
 73
     1
 93
        4
 10
243.0306572562986
 20
354.7566519237898
 10
241.0419296171458
 20
354.7566519237898
 10
241.0419296171458
 20
353.1566519237895
 10
243.0306572562986
 20
353.1566519237895
 97
        0
 92
        7
 72
     0
 73
     1
 93
        4
 10
245.0323265880725
 20
354.7566519237898
 10
243.0306572563131
 20
354.7566519237898
 10
243.0306572563131
 20
353.1566519237895
 10
245.0323265880434
 20
353.1566519237895
 97
        0
 92
        7
 72
     0
 73
     1
 93
        4
 10
248.0323265880433
 20
354.7566519237898
 10
245.0323265880579
 20
354.7566519237898
 10
245.0323265880725
 20
353.1566519237895
 10
248.0323265880725
 20
353.1566519237895
 97
        0
 75
     0
 76
     1
 52
0.0
 41
0.75
 77
     0
 78
     1
 53
45.0
 43
-69786.69424876348
 44
-507.5512703145177
 45
-1.683798022700465
 46
1.683798022700466
 79
     0
 47
0.0445768482254879
 98
       10
 10
199.8716440798452
 20
354.3990875699128
 10
200.9419481343211
 20
354.2653486462295
 10
202.5028369051433
 20
354.2653486462295
 10
206.5611018030759
 20
354.1316284771274
 10
220.9657539931359
 20
354.0870488358996
 10
224.3996939868812
 20
354.1762081183551
 10
228.6363811491028
 20
354.3545079286851
 10
241.7923452756077
 20
354.2207690050018
 10
243.8883860736823
 20
354.0870488358996
 10
245.5384477214393
 20
354.0870488358996
  0
LWPOLYLINE
  5
270
330
70
100
AcDbEntity
  8
shade 8
  6
DASHED
 48
0.25
100
AcDbPolyline
 90
        4
 70
     1
 43
0.0
 10
197.2323265880695
 20
353.1566519237895
 10
248.0323265880725
 20
353.1566519237895
 10
248.0323265880579
 20
354.7566519237898
 10
197.2323265880695
 20
354.7566519237898
  0
HATCH
  5
271
330
70
100
AcDbEntity
  8
shade 8
100
AcDbHatch
 10
0.0
 20
0.0
 30
0.0
210
0.0
220
0.0
230
1.0
  2
ANSI31
 70
     0
 71
     0
 91
       10
 92
        7
 72
     0
 73
     1
 93
        4
 10
200.2323265880696
 20
343.1566519237895
 10
197.2323265880841
 20
343.1566519237895
 10
197.2323265880695
 20
341.5566519237909
 10
200.2323265880841
 20
341.5566519237909
 97
        0
 92
        7
 72
     0
 73
     1
 93
        4
 10
202.230665212337
 20
343.1566519237895
 10
200.2323265880841
 20
343.1566519237895
 10
200.2323265880696
 20
341.5566519237909
 10
202.230665212337
 20
341.5566519237909
 97
        0
 92
        7
 72
     0
 73
     1
 93
        4
 10
204.226533337991
 20
343.1566519237895
 10
202.230665212337
 20
343.1566519237895
 10
202.230665212337
 20
341.5566519237909
 10
204.2265333380056
 20
341.5566519237909
 97
        0
 92
        7
 72
     0
 73
     1
 93
        4
 10
218.9753369255195
 20
343.1566519237895
 10
204.226533337991
 20
343.1566519237895
 10
204.2265333380056
 20
341.5566519237909
 10
218.9753369255195
 20
341.5566519237909
 97
        0
 92
        7
 72
     0
 73
     1
 93
        4
 10
222.6269368977519
 20
343.1566519237895
 10
218.9753369255195
 20
343.1566519237895
 10
218.9753369255195
 20
341.5566519237909
 10
222.6269368977519
 20
341.5566519237909
 97
        0
 92
        7
 72
     0
 73
     1
 93
        4
 10
226.2679391643033
 20
343.1566519237895
 10
222.6269368977519
 20
343.1566519237895
 10
222.6269368977519
 20
341.5566519237909
 10
226.2679391643033
 20
341.5566519237909
 97
        0
 92
        7
 72
     0
 73
     1
 93
        4
 10
241.0419296171312
 20
343.1566519237895
 10
226.2679391643178
 20
343.1566519237895
 10
226.2679391643033
 20
341.5566519237909
 10
241.0419296171312
 20
341.5566519237909
 97
        0
 92
        7
 72
     0
 73
     1
 93
        4
 10
243.0306572562986
 20
343.1566519237895
 10
241.0419296171458
 20
343.1566519237895
 10
241.0419296171458
 20
341.5566519237909
 10
243.0306572562986
 20
341.5566519237909
 97
        0
 92
        7
 72
     0
 73
     1
 93
        4
 10
245.0323265880725
 20
343.1566519237895
 10
243.0306572563131
 20
343.1566519237895
 10
243.0306572563131
 20
341.5566519237909
 10
245.0323265880434
 20
341.5566519237891
 97
        0
 92
        7
 72
     0
 73
     1
 93
        4
 10
248.0323265880433
 20
343.1566519237895
 10
245.0323265880579
 20
343.1566519237895
 10
245.0323265880725
 20
341.5566519237909
 10
248.0323265880725
 20
341.5566519237909
 97
        0
 75
     0
 76
     1
 52
0.0
 41
0.75
 77
     0
 78
     1
 53
45.0
 43
-69786.69424876348
 44
-519.1512703145162
 45
-1.683798022700465
 46
1.683798022700466
 79
     0
 47
0.0445768482254879
 98
       10
 10
199.8716440798452
 20
342.7990875699143
 10
200.9419481343211
 20
342.665348646231
 10
202.5028369051433
 20
342.665348646231
 10
206.5611018030759
 20
342.5316284771288
 10
220.9657539931359
 20
342.4870488359011
 10
224.3996939868812
 20
342.5762081183566
 10
228.6363811491028
 20
342.7545079286865
 10
241.7923452756077
 20
342.6207690050032
 10
243.8883860736823
 20
342.4870488359011
 10
245.5384477214393
 20
342.4870488359011
  0
LWPOLYLINE
  5
272
330
70
100
AcDbEntity
  8
shade 8
  6
DASHED
 48
0.25
100
AcDbPolyline
 90
        4
 70
     1
 43
0.0
 10
197.2323265880695
 20
341.5566519237909
 10
248.0323265880725
 20
341.5566519237909
 10
248.0323265880579
 20
343.1566519237895
 10
197.2323265880695
 20
343.1566519237895
  0
HATCH
  5
273
330
70
100
AcDbEntity
  8
shade 8
100
AcDbHatch
 10
0.0
 20
0.0
 30
0.0
210
0.0
220
0.0
230
1.0
  2
ANSI31
 70
     0
 71
     0
 91
       10
 92
        7
 72
     0
 73
     1
 93
        4
 10
200.2323265880696
 20
243.1566519237895
 10
197.2323265880841
 20
243.1566519237895
 10
197.2323265880695
 20
241.5566519237909
 10
200.2323265880841
 20
241.5566519237909
 97
        0
 92
        7
 72
     0
 73
     1
 93
        4
 10
202.230665212337
 20
243.1566519237895
 10
200.2323265880841
 20
243.1566519237895
 10
200.2323265880696
 20
241.5566519237909
 10
202.230665212337
 20
241.5566519237909
 97
        0
 92
        7
 72
     0
 73
     1
 93
        4
 10
204.226533337991
 20
243.1566519237895
 10
202.230665212337
 20
243.1566519237895
 10
202.230665212337
 20
241.5566519237909
 10
204.2265333380056
 20
241.5566519237909
 97
        0
 92
        7
 72
     0
 73
     1
 93
        4
 10
218.9753369255195
 20
243.1566519237895
 10
204.226533337991
 20
243.1566519237895
 10
204.2265333380056
 20
241.5566519237909
 10
218.9753369255195
 20
241.5566519237909
 97
        0
 92
        7
 72
     0
 73
     1
 93
        4
 10
222.6269368977519
 20
243.1566519237895
 10
218.9753369255195
 20
243.1566519237895
 10
218.9753369255195
 20
241.5566519237909
 10
222.6269368977519
 20
241.5566519237909
 97
        0
 92
        7
 72
     0
 73
     1
 93
        4
 10
226.2679391643033
 20
243.1566519237895
 10
222.6269368977519
 20
243.1566519237895
 10
222.6269368977519
 20
241.5566519237891
 10
226.2679391643033
 20
241.5566519237891
 97
        0
 92
        7
 72
     0
 73
     1
 93
        4
 10
241.0419296171312
 20
243.1566519237895
 10
226.2679391643178
 20
243.1566519237895
 10
226.2679391643033
 20
241.5566519237909
 10
241.0419296171312
 20
241.5566519237909
 97
        0
 92
        7
 72
     0
 73
     1
 93
        4
 10
243.0306572562986
 20
243.1566519237895
 10
241.0419296171458
 20
243.1566519237895
 10
241.0419296171458
 20
241.5566519237909
 10
243.0306572562986
 20
241.5566519237891
 97
        0
 92
        7
 72
     0
 73
     1
 93
        4
 10
245.0323265880725
 20
243.1566519237895
 10
243.0306572563131
 20
243.1566519237895
 10
243.0306572563131
 20
241.5566519237909
 10
245.0323265880434
 20
241.5566519237891
 97
        0
 92
        7
 72
     0
 73
     1
 93
        4
 10
248.0323265880433
 20
243.1566519237895
 10
245.0323265880579
 20
243.1566519237895
 10
245.0323265880725
 20
241.5566519237909
 10
248.0323265880725
 20
241.5566519237909
 97
        0
 75
     0
 76
     1
 52
0.0
 41
0.75
 77
     0
 78
     1
 53
45.0
 43
-69786.69424876348
 44
-619.1512703145162
 45
-1.683798022700465
 46
1.683798022700466
 79
     0
 47
0.0445768482254879
 98
       10
 10
199.8716440798452
 20
242.7990875699143
 10
200.9419481343211
 20
242.665348646231
 10
202.5028369051433
 20
242.665348646231
 10
206.5611018030759
 20
242.5316284771288
 10
220.9657539931359
 20
242.4870488359011
 10
224.3996939868812
 20
242.5762081183566
 10
228.6363811491028
 20
242.7545079286865
 10
241.7923452756077
 20
242.6207690050032
 10
243.8883860736823
 20
242.4870488359011
 10
245.5384477214393
 20
242.4870488359011
  0
LWPOLYLINE
  5
274
330
70
100
AcDbEntity
  8
shade 8
  6
DASHED
 48
0.25
100
AcDbPolyline
 90
        4
 70
     1
 43
0.0
 10
197.2323265880695
 20
241.5566519237909
 10
248.0323265880725
 20
241.5566519237909
 10
248.0323265880579
 20
243.1566519237895
 10
197.2323265880695
 20
243.1566519237895
  0
HATCH
  5
275
330
70
100
AcDbEntity
  8
shade 8
100
AcDbHatch
 10
0.0
 20
0.0
 30
0.0
210
0.0
220
0.0
230
1.0
  2
ANSI31
 70
     0
 71
     0
 91
       10
 92
        7
 72
     0
 73
     1
 93
        4
 10
200.232326588055
 20
254.7566519237898
 10
197.2323265880695
 20
254.7566519237898
 10
197.232326588055
 20
253.1566519237895
 10
200.2323265880696
 20
253.1566519237895
 97
        0
 92
        7
 72
     0
 73
     1
 93
        4
 10
202.2306652123225
 20
254.7566519237898
 10
200.2323265880696
 20
254.7566519237898
 10
200.232326588055
 20
253.1566519237895
 10
202.2306652123225
 20
253.1566519237895
 97
        0
 92
        7
 72
     0
 73
     1
 93
        4
 10
204.2265333379764
 20
254.7566519237898
 10
202.2306652123225
 20
254.7566519237898
 10
202.2306652123225
 20
253.1566519237895
 10
204.226533337991
 20
253.1566519237895
 97
        0
 92
        7
 72
     0
 73
     1
 93
        4
 10
218.975336925505
 20
254.7566519237898
 10
204.2265333379764
 20
254.7566519237898
 10
204.226533337991
 20
253.1566519237895
 10
218.975336925505
 20
253.1566519237895
 97
        0
 92
        7
 72
     0
 73
     1
 93
        4
 10
222.6269368977373
 20
254.7566519237898
 10
218.975336925505
 20
254.7566519237898
 10
218.975336925505
 20
253.1566519237895
 10
222.6269368977373
 20
253.1566519237895
 97
        0
 92
        7
 72
     0
 73
     1
 93
        4
 10
226.2679391642887
 20
254.7566519237898
 10
222.6269368977373
 20
254.7566519237898
 10
222.6269368977373
 20
253.1566519237895
 10
226.2679391642887
 20
253.1566519237895
 97
        0
 92
        7
 72
     0
 73
     1
 93
        4
 10
241.0419296171167
 20
254.7566519237898
 10
226.2679391643033
 20
254.7566519237898
 10
226.2679391642887
 20
253.1566519237895
 10
241.0419296171167
 20
253.1566519237895
 97
        0
 92
        7
 72
     0
 73
     1
 93
        4
 10
243.030657256284
 20
254.7566519237898
 10
241.0419296171312
 20
254.7566519237898
 10
241.0419296171312
 20
253.1566519237895
 10
243.030657256284
 20
253.1566519237895
 97
        0
 92
        7
 72
     0
 73
     1
 93
        4
 10
245.0323265880579
 20
254.7566519237898
 10
243.0306572562986
 20
254.7566519237898
 10
243.0306572562986
 20
253.1566519237895
 10
245.0323265880288
 20
253.1566519237895
 97
        0
 92
        7
 72
     0
 73
     1
 93
        4
 10
248.0323265880288
 20
254.7566519237898
 10
245.0323265880434
 20
254.7566519237898
 10
245.0323265880579
 20
253.1566519237895
 10
248.0323265880579
 20
253.1566519237895
 97
        0
 75
     0
 76
     1
 52
0.0
 41
0.75
 77
     0
 78
     1
 53
45.0
 43
-69786.6942487635
 44
-607.5512703145159
 45
-1.683798022700465
 46
1.683798022700466
 79
     0
 47
0.0445768482254879
 98
       10
 10
199.8716440798307
 20
254.3990875699146
 10
200.9419481343066
 20
254.2653486462314
 10
202.5028369051288
 20
254.2653486462314
 10
206.5611018030613
 20
254.1316284771292
 10
220.9657539931213
 20
254.0870488359014
 10
224.3996939868666
 20
254.1762081183569
 10
228.6363811490883
 20
254.3545079286869
 10
241.7923452755931
 20
254.2207690050036
 10
243.8883860736678
 20
254.0870488359014
 10
245.5384477214248
 20
254.0870488359014
  0
LWPOLYLINE
  5
276
330
70
100
AcDbEntity
  8
shade 8
  6
DASHED
 48
0.25
100
AcDbPolyline
 90
        4
 70
     1
 43
0.0
 10
197.232326588055
 20
253.1566519237895
 10
248.0323265880579
 20
253.1566519237895
 10
248.0323265880433
 20
254.7566519237898
 10
197.232326588055
 20
254.7566519237898
  0
LINE
  5
277
330
70
100
AcDbEntity
  8
dim
100
AcDbLine
 10
231.0743153116782
 20
296.2226233545262
 30
0.0
 11
281.2779513826681
 21
296.222623354528
 31
0.0
  0
HATCH
  5
279
330
70
100
AcDbEntity
  8
shade 8
100
AcDbHatch
 10
0.0
 20
0.0
 30
0.0
210
0.0
220
0.0
230
1.0
  2
SOLID
 70
     1
 71
     0
 91
        2
 92
        7
 72
     0
 73
     1
 93
        4
 10
195.732326588055
 20
254.6563845291457
 10
197.232326588055
 20
254.6563845291457
 10
197.232326588055
 20
270.6563845291457
 10
195.732326588055
 20
270.6563845291457
 97
        0
 92
        7
 72
     0
 73
     1
 93
        4
 10
197.232326588055
 20
241.6563845291457
 10
195.732326588055
 20
241.6563845291457
 10
195.732326588055
 20
225.6563845291457
 10
197.232326588055
 20
225.6563845291457
 97
        0
 75
     1
 76
     1
 47
0.1188044652130884
 98
        2
 10
196.4469057191891
 20
258.7540891621284
 10
196.8036182134819
 20
235.7060258350466
450
        0
451
        0
460
0.0
461
0.0
452
        0
462
1.0
453
        2
463
0.0
 63
     5
421
      255
463
1.0
 63
     2
421
 16776960
470
LINEAR
1001
GradientColor1ACI
1070
     5
1001
GradientColor2ACI
1070
     2
1001
ACAD
1010
0.0
1020
0.0
1030
0.0
  0
LINE
  5
27A
330
70
100
AcDbEntity
  8
baseplate
370
    15
100
AcDbLine
 10
195.732326588055
 20
225.6563845291457
 30
0.0
 11
195.732326588055
 21
270.6563845291457
 31
0.0
  0
LINE
  5
27B
330
70
100
AcDbEntity
  8
baseplate
370
    15
100
AcDbLine
 10
195.732326588055
 20
270.6563845291457
 30
0.0
 11
197.232326588055
 21
270.6563845291457
 31
0.0
  0
LINE
  5
27C
330
70
100
AcDbEntity
  8
baseplate
370
    15
100
AcDbLine
 10
197.232326588055
 20
270.6563845291457
 30
0.0
 11
197.232326588055
 21
225.6563845291457
 31
0.0
  0
LINE
  5
27D
330
70
100
AcDbEntity
  8
baseplate
370
    15
100
AcDbLine
 10
197.232326588055
 20
225.6563845291457
 30
0.0
 11
195.732326588055
 21
225.6563845291457
 31
0.0
  0
LINE
  5
27E
330
70
100
AcDbEntity
  8
baseplate
370
    15
100
AcDbLine
 10
197.232326588055
 20
241.6563845291457
 30
0.0
 11
195.732326588055
 21
241.6563845291457
 31
0.0
  0
LINE
  5
27F
330
70
100
AcDbEntity
  8
baseplate
370
    15
100
AcDbLine
 10
195.732326588055
 20
254.6563845291457
 30
0.0
 11
197.232326588055
 21
254.6563845291457
 31
0.0
  0
HATCH
  5
280
330
70
100
AcDbEntity
  8
shade 8
100
AcDbHatch
 10
0.0
 20
0.0
 30
0.0
210
0.0
220
0.0
230
1.0
  2
SOLID
 70
     1
 71
     0
 91
        2
 92
        7
 72
     0
 73
     1
 93
        4
 10
195.732326588055
 20
354.6563845291457
 10
197.232326588055
 20
354.6563845291457
 10
197.232326588055
 20
370.6563845291457
 10
195.732326588055
 20
370.6563845291457
 97
        0
 92
        7
 72
     0
 73
     1
 93
        4
 10
197.232326588055
 20
341.6563845291457
 10
195.732326588055
 20
341.6563845291457
 10
195.732326588055
 20
325.6563845291457
 10
197.232326588055
 20
325.6563845291457
 97
        0
 75
     1
 76
     1
 47
0.1188044652130884
 98
        2
 10
196.4469057191891
 20
358.7540891621284
 10
196.8036182134819
 20
335.7060258350466
450
        0
451
        0
460
0.0
461
0.0
452
        0
462
1.0
453
        2
463
0.0
 63
     5
421
      255
463
1.0
 63
     2
421
 16776960
470
LINEAR
1001
GradientColor1ACI
1070
     5
1001
GradientColor2ACI
1070
     2
1001
ACAD
1010
0.0
1020
0.0
1030
0.0
  0
LINE
  5
281
330
70
100
AcDbEntity
  8
baseplate
370
    15
100
AcDbLine
 10
195.732326588055
 20
325.6563845291457
 30
0.0
 11
195.732326588055
 21
370.6563845291457
 31
0.0
  0
LINE
  5
282
330
70
100
AcDbEntity
  8
baseplate
370
    15
100
AcDbLine
 10
195.732326588055
 20
370.6563845291457
 30
0.0
 11
197.232326588055
 21
370.6563845291457
 31
0.0
  0
LINE
  5
283
330
70
100
AcDbEntity
  8
baseplate
370
    15
100
AcDbLine
 10
197.232326588055
 20
370.6563845291457
 30
0.0
 11
197.232326588055
 21
325.6563845291457
 31
0.0
  0
LINE
  5
284
330
70
100
AcDbEntity
  8
baseplate
370
    15
100
AcDbLine
 10
197.232326588055
 20
325.6563845291457
 30
0.0
 11
195.732326588055
 21
325.6563845291457
 31
0.0
  0
LINE
  5
285
330
70
100
AcDbEntity
  8
baseplate
370
    15
100
AcDbLine
 10
197.232326588055
 20
341.6563845291457
 30
0.0
 11
195.732326588055
 21
341.6563845291457
 31
0.0
  0
LINE
  5
286
330
70
100
AcDbEntity
  8
baseplate
370
    15
100
AcDbLine
 10
195.732326588055
 20
354.6563845291457
 30
0.0
 11
197.232326588055
 21
354.6563845291457
 31
0.0
  0
LINE
  5
287
330
70
100
AcDbEntity
  8
dim
100
AcDbLine
 10
231.5563804112898
 20
374.7549282269247
 30
0.0
 11
281.7600164822798
 21
374.7549282269265
 31
0.0
  0
LINE
  5
288
330
70
100
AcDbEntity
  8
fixing
100
AcDbLine
 10
106.5323265880579
 20
243.9566519237906
 30
0.0
 11
105.732326588055
 21
243.9566519237924
 31
0.0
  0
LINE
  5
289
330
70
100
AcDbEntity
  8
fixing
100
AcDbLine
 10
106.5323265880579
 20
252.3566519237902
 30
0.0
 11
105.732326588055
 21
252.3566519237938
 31
0.0
  0
LINE
  5
28A
330
70
100
AcDbEntity
  8
fixing
100
AcDbLine
 10
106.5323265880579
 20
343.9566519237906
 30
0.0
 11
105.732326588055
 21
343.9566519237924
 31
0.0
  0
LINE
  5
28B
330
70
100
AcDbEntity
  8
fixing
100
AcDbLine
 10
106.5323265880579
 20
352.3566519237902
 30
0.0
 11
105.732326588055
 21
352.3566519237939
 31
0.0
  0
DIMENSION
  5
28C
330
70
100
AcDbEntity
  8
dim
100
AcDbDimension
  2
*D7
 10
50.39033083282984
 20
348.1566519237896
 30
0.0
 11
50.39033083282993
 21
298.1566519238004
 31
0.0
 70
   160
  1
100mm min fixing crs
 71
     5
 42
100.0
 73
     0
 74
     0
 75
     0
  3
Spectrum 2
100
AcDbAlignedDimension
 13
99.12133702324354
 23
248.1566519237895
 33
0.0
 14
99.12133702324354
 24
348.1566519237895
 34
0.0
 50
90.0
100
AcDbRotatedDimension
1001
ACAD
1000
DSTYLE
1002
{
1070
   140
1040
2.25
1070
   340
1005
D3
1070
    42
1040
15.0
1070
    40
1040
2.0
1002
}
  0
LEADER
  5
28D
330
70
100
AcDbEntity
  8
dim
100
AcDbLeader
  3
Spectrum 2
 76
     2
 10
246.5323265880434
 20
460.0156726087716
 30
0.0
 10
281.2779513826681
 20
460.0156726087716
 30
0.0
211
1.0
221
-0.0000000000000002
231
0.0
213
-0.0000000000000031
223
-12.5
233
0.0
1001
ACAD
1000
DSTYLE
1002
{
1070
    40
1040
1.0
1070
    41
1040
6.0
1070
    50
1040
1.570796326794896
1070
    77
1070
     0
1002
}
  0
DIMENSION
  5
28E
330
70
100
AcDbEntity
  8
dim
100
AcDbDimension
  2
*D8
 10
50.39033083284439
 20
398.1566519237897
 30
0.0
 11
50.39033083284448
 21
373.1566519237931
 31
0.0
 70
   160
  1
50 min
 71
     5
 42
50.00000000000006
 73
     0
 74
     0
 75
     0
  3
Spectrum 2
100
AcDbAlignedDimension
 13
99.12133702324354
 23
348.1566519237895
 33
0.0
 14
63.28537704149494
 24
398.1566519237895
 34
0.0
 50
90.0
100
AcDbRotatedDimension
1001
ACAD
1000
DSTYLE
1002
{
1070
    42
1040
2.0
1002
}
  0
DIMENSION
  5
28F
330
70
100
AcDbEntity
  8
dim
100
AcDbDimension
  2
*D9
 10
50.39033083284443
 20
248.1566519237896
 30
0.0
 11
50.39033083284448
 21
223.1567362382084
 31
0.0
 70
   160
  1
50 min
 71
     5
 42
49.99983137116939
 73
     0
 74
     0
 75
     0
  3
Spectrum 2
100
AcDbAlignedDimension
 13
61.732326588055
 23
198.15682055262
 33
0.0
 14
99.12133702324354
 24
248.1566519237895
 34
0.0
 50
90.0
100
AcDbRotatedDimension
1001
ACAD
1000
DSTYLE
1002
{
1070
    42
1040
2.0
1002
}
  0
DIMENSION
  5
290
330
70
100
AcDbEntity
  8
dim
100
AcDbDimension
  2
*D10
 10
36.39033083284438
 20
398.1566519237897
 30
0.0
 11
36.39033083284449
 21
298.1567362382084
 31
0.0
 70
   160
  1
200 min concrete thickness
 71
     5
 42
199.9998313711694
 73
     0
 74
     0
 75
     0
  3
Spectrum 2
100
AcDbAlignedDimension
 13
61.32042001532681
 23
198.15682055262
 33
0.0
 14
63.28537704149494
 24
398.1566519237895
 34
0.0
 50
90.0
100
AcDbRotatedDimension
1001
ACAD
1000
DSTYLE
1002
{
1070
    42
1040
2.0
1002
}
  0
LEADER
  5
291
330
70
100
AcDbEntity
  8
dim
100
AcDbLeader
  3
Spectrum 2
 76
     2
 10
224.0388130757492
 20
421.6118441103681
 30
0.0
 10
281.2779513826681
 20
421.6118441103681
 30
0.0
211
1.0
221
-0.0000000000000002
231
0.0
213
-0.0000000000000031
223
-12.5
233
0.0
1001
ACAD
1000
DSTYLE
1002
{
1070
    40
1040
1.0
1070
    41
1040
6.0
1070
    50
1040
1.570796326794896
1070
    77
1070
     0
1002
}
  0
DIMENSION
  5
292
102
{ACAD_XDICTIONARY
360
293
102
}
102
{ACAD_REACTORS
330
294
102
}
330
70
100
AcDbEntity
  8
dim
100
AcDbDimension
  2
*D11
 10
105.732326588055
 20
429.110328695091
 30
0.0
 11
150.732326588055
 21
429.110328695091
 31
0.0
 70
   160
  1
100 min embedment
 71
     5
 42
90.0
 73
     0
 74
     0
 75
     0
  3
Spectrum 2
100
AcDbAlignedDimension
 13
195.732326588055
 23
398.1566519237895
 33
0.0
 14
105.732326588055
 24
352.3566519237939
 34
0.0
100
AcDbRotatedDimension
1001
ACAD
1000
DSTYLE
1002
{
1070
    42
1040
2.0
1070
   340
1005
D3
1070
    40
1040
2.0
1002
}
  0
LEADER
  5
295
330
70
100
AcDbEntity
  8
dim
100
AcDbLeader
  3
Spectrum 2
 76
     2
 10
231.0743153116782
 20
254.0284223755698
 30
0.0
 10
231.0743153116782
 20
296.2226233545262
 30
0.0
211
0.0000000000000003
221
1.0
231
0.0
213
12.5
223
-0.0000000000000038
233
0.0
1001
ACAD
1000
DSTYLE
1002
{
1070
    40
1040
1.0
1070
    41
1040
6.0
1070
    50
1040
1.570796326794896
1070
    77
1070
     0
1002
}
  0
LEADER
  5
296
330
70
100
AcDbEntity
  8
dim
100
AcDbLeader
  3
Spectrum 2
 76
     2
 10
197.2323265880404
 20
326.7375472033418
 30
0.0
 10
282.0070774712076
 20
326.7375472033418
 30
0.0
211
1.0
221
-0.0000000000000002
231
0.0
213
-0.0000000000000031
223
-12.5
233
0.0
1001
ACAD
1000
DSTYLE
1002
{
1070
    40
1040
1.0
1070
    41
1040
6.0
1070
    50
1040
1.570796326794896
1070
    77
1070
     0
1002
}
  0
LEADER
  5
297
330
70
100
AcDbEntity
  8
dim
100
AcDbLeader
  3
Spectrum 2
 76
     2
 10
231.5563804112898
 20
354.0284223755698
 30
0.0
 10
231.5563804112898
 20
374.7549282269247
 30
0.0
211
0.0000000000000003
221
1.0
231
0.0
213
12.5
223
-0.0000000000000038
233
0.0
1001
ACAD
1000
DSTYLE
1002
{
1070
    40
1040
1.0
1070
    41
1040
6.0
1070
    50
1040
1.570796326794896
1070
    77
1070
     0
1002
}
  0
MTEXT
  5
298
330
70
100
AcDbEntity
  8
dim
100
AcDbMText
 10
283.5358493463136
 20
459.5672897286004
 30
0.0
 40
4.5
 41
75.0
 46
0.0
 71
     4
 72
     5
  1
50.8 x 50.8 post
  7
Calibri
 73
     1
 44
0.9333333333333333
  0
MTEXT
  5
299
330
70
100
AcDbEntity
  8
dim
100
AcDbMText
 10
283.5358493463136
 20
374.8247336777167
 30
0.0
 40
4.5
 41
95.20056583199858
 46
0.0
 71
     4
 72
     5
  1
Fixing consists of (2x) 316 S/S M10 threaded rod, nut and washer. Secured using Hilti HIT-HY 200-R V3. 100mm min to outer edge of concrete. Concrete {\L20MPa min (uncracked)}
  7
Calibri
 73
     1
 44
0.9333333333333333
  0
MTEXT
  5
29A
330
70
100
AcDbEntity
  8
dim
100
AcDbMText
 10
283.9775006624405
 20
422.5659592641241
 30
0.0
 40
4.5
 41
86.62404204197811
 46
0.0
 71
     4
 72
     5
  1
Internal spigot-Clearspan (or post packer-Clearview) @ fixing location
  7
Calibri
 73
     1
 44
0.9333333333333333
  0
MTEXT
  5
29B
330
70
100
AcDbEntity
  8
dim
100
AcDbMText
 10
200.0
 20
567.6080283128794
 30
0.0
 40
9.0
 41
399.9999999999989
 46
35.37353678770671
 71
     2
 72
     5
  1
{\fArial Narrow|b1|i0|c0|p34;\LCLEARSPAN\l or \LCLEARVIEW\l FACE FIXED TO 200mm CONCRETE}
  7
Arial Narrow
 73
     1
 44
0.8333333333333335
1001
ACAD
1000
ACAD_MTEXT_DEFINED_HEIGHT_BEGIN
1070
    46
1040
35.37353678770671
1000
ACAD_MTEXT_DEFINED_HEIGHT_END
  0
MTEXT
  5
29C
330
70
100
AcDbEntity
  8
dim
100
AcDbMText
 10
283.5358493463136
 20
296.222623354528
 30
0.0
 40
4.5
 41
99.96276816965929
 46
0.0
 71
     4
 72
     5
  1
Stainless fixings separated from  aluminium by plastic sleeve
  7
Calibri
 73
     1
 44
0.9333333333333333
  0
MTEXT
  5
29D
330
70
100
AcDbEntity
  8
dim
370
     5
100
AcDbMText
 10
55.44641006883466
 20
223.1567362382066
 30
0.0
 40
4.5
 41
49.99983137117308
 46
12.07269205939316
 71
     5
 72
     5
  1
edge distance
  7
Calibri
 11
0.0000000000000001
 21
1.0
 31
0.0
 73
     1
 44
0.9333333333333333
  0
MTEXT
  5
29E
330
70
100
AcDbEntity
  8
dim
370
     5
100
AcDbMText
 10
55.44641006883466
 20
373.1566519237913
 30
0.0
 40
4.5
 41
49.99999999999637
 46
12.07269205939315
 71
     5
 72
     5
  1
edge distance
  7
Calibri
 11
0.0000000000000001
 21
1.0
 31
0.0
 73
     1
 44
0.9333333333333333
  0
MTEXT
  5
29F
330
70
100
AcDbEntity
  8
dim
100
AcDbMText
 10
284.7066267509799
 20
326.6921194676215
 30
0.0
 40
4.5
 41
85.89491595343861
 46
14.40289270513771
 71
     4
 72
     5
  1
Rigid plastic separation washer where required
  7
Calibri
 73
     1
 44
0.9333333333333333
  0
LINE
  5
2AE
330
70
100
AcDbEntity
  8
title
100
AcDbLine
 10
121.846000000005
 20
31.6780000000017
 30
0.0
 11
121.846000000005
 21
24.36187306453758
 31
0.0
  0
ARC
  5
2AF
330
70
100
AcDbEntity
  8
title
100
AcDbCircle
 10
112.3420000000187
 20
30.88600000000042
 30
0.0
 40
1.583999999999994
100
AcDbArc
 50
0.0
 51
180.0
  0
LINE
  5
2B0
330
70
100
AcDbEntity
  8
title
100
AcDbLine
 10
108.3820000000269
 20
34.63812693546242
 30
0.0
 11
110.7580000000162
 21
34.84599999999955
 31
0.0
  0
LINE
  5
2B1
330
70
100
AcDbEntity
  8
title
100
AcDbLine
 10
110.7580000000162
 20
34.84599999999955
 30
0.0
 11
110.7580000000162
 21
33.77343503836346
 31
0.0
  0
ARC
  5
2B2
330
70
100
AcDbEntity
  8
title
100
AcDbCircle
 10
113.1340000000054
 20
31.6780000000017
 30
0.0
 40
3.167999999999932
100
AcDbArc
 50
28.95502437188621
 51
138.5903778907244
  0
ARC
  5
2B3
330
70
100
AcDbEntity
  8
title
100
AcDbCircle
 10
118.6779999999999
 20
31.6780000000017
 30
0.0
 40
3.168000000000042
100
AcDbArc
 50
0.0
 51
151.0449756281138
  0
ARC
  5
2B4
330
70
100
AcDbEntity
  8
title
100
AcDbCircle
 10
117.8860000000131
 20
30.88600000000042
 30
0.0
 40
1.583999999999994
100
AcDbArc
 50
0.0
 51
180.0
  0
HATCH
  5
2B5
330
70
100
AcDbEntity
  8
title
100
AcDbHatch
 10
0.0
 20
0.0
 30
0.0
210
0.0
220
0.0
230
1.0
  2
SOLID
 70
     1
 71
     0
 91
        2
 92
        7
 72
     1
 73
     1
 93
        8
 10
48.78399999999965
 20
34.84599999999955
 42
0.2416525696711335
 10
46.2100000000064
 20
33.52482105251147
 42
0.0
 10
46.2100000000064
 20
34.84599999999955
 42
0.0
 10
43.83400000001711
 20
34.63812693546242
 42
0.0
 10
43.83400000001711
 20
20.97612693546216
 42
0.0
 10
46.2100000000064
 20
21.18399999999929
 42
0.0
 10
46.2100000000064
 20
25.47517894748853
 42
0.2416525696711312
 10
48.78399999999965
 20
24.15400000000045
 42
1.0
 97
        0
 92
       20
 93
        1
 72
     3
 10
48.98200000000361
 20
29.50000000000182
 11
0.0
 21
3.168
 40
0.8432858722721601
 50
0.0
 51
360.0
 73
     1
 97
        0
 75
     0
 76
     1
 47
0.0533697688817678
 98
        2
 10
51.79775989484915
 20
32.74767840057211
 10
51.79775989484915
 20
32.74767840057211
450
        0
451
        0
460
0.0
461
0.0
452
        0
462
0.0
453
        0
470

1001
ACAD
1010
0.0
1020
0.0
1030
0.0
  0
HATCH
  5
2B6
330
70
100
AcDbEntity
  8
title
 62
     8
100
AcDbHatch
 10
0.0
 20
0.0
 30
0.0
210
0.0
220
0.0
230
1.0
  2
SOLID
 70
     1
 71
     0
 91
        1
 92
        7
 72
     1
 73
     1
 93
        8
 10
30.76600000001781
 20
32.86599999999999
 42
0.4142135623730951
 10
28.78600000000734
 20
34.84599999999955
 42
0.0
 10
22.05400000001828
 20
34.84599999999955
 42
0.4142135623730951
 10
20.0740000000078
 20
32.86599999999999
 42
0.0
 10
20.0740000000078
 20
26.13400000000002
 42
0.4142135623730974
 10
22.05400000001828
 20
24.15400000000045
 42
0.0
 10
28.78600000000734
 20
24.15400000000045
 42
0.4142135623730926
 10
30.76600000001781
 20
26.13400000000002
 42
0.0
 97
        0
 75
     0
 76
     1
 47
0.1082592480357776
 98
        1
 10
26.46459899171896
 20
28.91638806323863
450
        0
451
        0
460
0.0
461
0.0
452
        0
462
0.0
453
        0
470

1001
ACAD
1010
0.0
1020
0.0
1030
0.0
  0
HATCH
  5
2B7
330
70
100
AcDbEntity
  8
title
100
AcDbHatch
 10
0.0
 20
0.0
 30
0.0
210
0.0
220
0.0
230
1.0
  2
SOLID
 70
     1
 71
     0
 91
        1
 92
        7
 72
     1
 73
     1
 93
        2
 10
17.50000000001455
 20
24.15400000000045
 42
0.0
 10
17.50000000001455
 20
34.84599999999955
 42
1.0
 97
        0
 75
     0
 76
     1
 47
0.0533697688817678
 98
        1
 10
14.58491007513657
 20
30.95125203735552
450
        0
451
        0
460
0.0
461
0.0
452
        0
462
0.0
453
        0
470

1001
ACAD
1010
0.0
1020
0.0
1030
0.0
  0
HATCH
  5
2B8
330
70
100
AcDbEntity
  8
title
100
AcDbHatch
 10
0.0
 20
0.0
 30
0.0
210
0.0
220
0.0
230
1.0
  2
SOLID
 70
     1
 71
     0
 91
        1
 92
        7
 72
     1
 73
     1
 93
       20
 10
38.62840371190396
 20
26.63843393964817
 42
-0.3012846663385126
 10
36.15939541660191
 20
26.7764142067881
 42
0.0
 10
35.14992521407839
 20
27.52973131314684
 42
0.0
 10
33.56338198813319
 20
26.19846347739986
 42
0.0
 10
34.49073105522257
 20
25.33614209012194
 42
0.4458507091054388
 10
41.03417541283124
 20
25.9247798277047
 42
0.3326569577304132
 10
41.03417541283124
 20
28.71922017229918
 42
0.1735965709070794
 10
38.55193656381743
 20
30.36239387457135
 42
0.0
 10
36.96384954494715
 20
30.75267264948525
 42
-0.0722414400542119
 10
36.36759628810978
 20
30.99443393964794
 42
-0.5734605933816534
 10
36.36759628810978
 20
32.36156606035184
 42
-0.301284666338504
 10
38.83660458344093
 20
32.2235857932119
 42
0.0
 10
39.84607478593535
 20
31.4702686868568
 42
0.0
 10
41.43261801190965
 20
32.80153652260378
 42
0.0
 10
40.50526894479117
 20
33.66385790987806
 42
0.4458507091054385
 10
33.96182458718249
 20
33.07522017229894
 42
0.3326569577304224
 10
33.96182458718249
 20
30.28077982770446
 42
0.1735965709070752
 10
36.44406343619631
 20
28.63760612543229
 42
0.0
 10
38.03215045509569
 20
28.24732735051839
 42
-0.0722414400542143
 10
38.62840371190396
 20
28.00556606035207
 42
-0.5734605933816371
 97
        0
 75
     0
 76
     1
 47
0.0533697688817678
 98
        1
 10
40.1687433997431
 20
27.35839931092596
450
        0
451
        0
460
0.0
461
0.0
452
        0
462
0.0
453
        0
470

1001
ACAD
1010
0.0
1020
0.0
1030
0.0
  0
HATCH
  5
2B9
330
70
100
AcDbEntity
  8
title
100
AcDbHatch
 10
0.0
 20
0.0
 30
0.0
210
0.0
220
0.0
230
1.0
  2
SOLID
 70
     1
 71
     0
 91
        1
 92
        7
 72
     1
 73
     1
 93
        4
 10
77.26592913740024
 20
25.48863354306195
 42
0.0
 10
76.00343964919739
 20
27.29165538918278
 42
-2.463129903974627
 10
76.00343964919739
 20
31.70834461081722
 42
0.0
 10
77.26592913740024
 20
33.51136645694169
 42
2.213691826143602
 97
        0
 75
     0
 76
     1
 47
0.0407585876075802
 98
        1
 10
72.26106739130045
 20
24.93107292920285
450
        0
451
        0
460
0.0
461
0.0
452
        0
462
0.0
453
        0
470

1001
ACAD
1010
0.0
1020
0.0
1030
0.0
  0
HATCH
  5
2BA
330
70
100
AcDbEntity
  8
title
100
AcDbHatch
 10
0.0
 20
0.0
 30
0.0
210
0.0
220
0.0
230
1.0
  2
SOLID
 70
     1
 71
     0
 91
        2
 92
        7
 72
     1
 73
     1
 93
        6
 10
66.48738223592227
 20
31.78432312983023
 42
1.817188575814173
 10
61.6540000000241
 20
24.15400000000045
 42
0.1736979194000531
 10
65.92840120497567
 20
25.68510408303882
 42
0.0
 10
64.96244437199493
 20
27.756605196284
 42
-0.2061487455951641
 10
61.6540000000241
 20
26.33200000000034
 42
-0.2063556810793467
 10
59.35074576425541
 20
27.32485772295149
 42
0.0
 97
        0
 92
       22
 72
     1
 73
     1
 93
        2
 10
58.50737238772854
 20
29.13263278640625
 42
-0.6328959439340069
 10
63.36357821930142
 20
32.16712697712683
 42
0.0
 97
        0
 75
     0
 76
     1
 47
0.0407585876075802
 98
        2
 10
60.23121407961298
 20
29.28898097343154
 10
60.23121407961298
 20
29.28898097343154
450
        0
451
        0
460
0.0
461
0.0
452
        0
462
0.0
453
        0
470

1001
ACAD
1010
0.0
1020
0.0
1030
0.0
  0
HATCH
  5
2BB
330
70
100
AcDbEntity
  8
title
100
AcDbHatch
 10
0.0
 20
0.0
 30
0.0
210
0.0
220
0.0
230
1.0
  2
SOLID
 70
     1
 71
     0
 91
        1
 92
        7
 72
     1
 73
     1
 93
       16
 10
83.6320000000269
 20
32.27199999999903
 42
0.0
 10
85.81000000001223
 20
32.27199999999903
 42
0.0
 10
85.81000000001223
 20
34.44999999999891
 42
0.0
 10
83.6320000000269
 20
34.44999999999891
 42
0.0
 10
83.6320000000269
 20
37.22199999999975
 42
0.0
 10
81.05800000000455
 20
36.28514061699934
 42
0.0
 10
81.05800000000455
 20
34.44999999999891
 42
0.0
 10
79.85804016400653
 20
34.44999999999891
 42
0.0
 10
79.47400000000198
 20
32.27199999999903
 42
0.0
 10
81.05800000000455
 20
32.27199999999903
 42
0.0
 10
81.05800000000455
 20
27.32200000000194
 42
0.4142135623731022
 10
84.22600000000967
 20
24.15400000000045
 42
0.0
 10
85.82040665890962
 20
24.15400000000045
 42
0.0
 10
86.4040000000241
 20
26.33200000000034
 42
0.0
 10
85.21600000000034
 20
26.33200000000034
 42
-0.4142135623730937
 10
83.6320000000269
 20
27.91599999999926
 42
0.0
 97
        0
 75
     0
 76
     1
 47
0.0407585876075802
 98
        1
 10
82.83765024012245
 20
28.4012597568817
450
        0
451
        0
460
0.0
461
0.0
452
        0
462
0.0
453
        0
470

1001
ACAD
1010
0.0
1020
0.0
1030
0.0
  0
HATCH
  5
2BC
330
70
100
AcDbEntity
  8
title
100
AcDbHatch
 10
0.0
 20
0.0
 30
0.0
210
0.0
220
0.0
230
1.0
  2
SOLID
 70
     1
 71
     0
 91
        1
 92
        7
 72
     1
 73
     1
 93
       15
 10
108.3820000000269
 20
24.15400000000045
 42
0.0
 10
110.7580000000162
 20
24.36187306453758
 42
0.0
 10
110.7580000000162
 20
30.88600000000042
 42
-1.0
 10
113.9260000000213
 20
30.88600000000042
 42
0.0
 10
113.9260000000213
 20
24.15400000000045
 42
0.0
 10
116.3020000000106
 20
24.36187306453758
 42
0.0
 10
116.3020000000106
 20
30.88600000000042
 42
-1.0
 10
119.4700000000157
 20
30.88600000000042
 42
0.0
 10
119.4700000000157
 20
24.15400000000045
 42
0.0
 10
121.846000000005
 20
24.36187306453758
 42
0.0
 10
121.846000000005
 20
31.6780000000017
 42
0.7745966692414762
 10
115.9060000000027
 20
33.21170140509821
 42
0.5185464877096924
 10
110.7580000000162
 20
33.77343503836346
 42
0.0
 10
110.7580000000162
 20
34.84599999999955
 42
0.0
 10
108.3820000000269
 20
34.63812693546242
 42
0.0
 97
        0
 75
     0
 76
     1
 47
0.0407585876075802
 98
        1
 10
109.4809501451527
 20
27.19072908702401
450
        0
451
        0
460
0.0
461
0.0
452
        0
462
0.0
453
        0
470

1001
ACAD
1010
0.0
1020
0.0
1030
0.0
  0
HATCH
  5
2BD
330
70
100
AcDbEntity
  8
title
100
AcDbHatch
 10
0.0
 20
0.0
 30
0.0
210
0.0
220
0.0
230
1.0
  2
SOLID
 70
     1
 71
     0
 91
        1
 92
        7
 72
     1
 73
     1
 93
        8
 10
91.35400000000663
 20
33.26200000000063
 42
0.0
 10
91.35400000000663
 20
34.64799999999923
 42
0.0
 10
88.97800000001735
 20
34.4401269354621
 42
0.0
 10
88.97800000001735
 20
24.15400000000045
 42
0.0
 10
91.35400000000663
 20
24.36187306453758
 42
0.0
 10
91.35400000000663
 20
29.10400000000118
 42
-0.4091883002397951
 10
94.46755188899988
 20
32.27153206822004
 42
0.0
 10
94.91800000001967
 20
34.8261502509431
 42
0.2626681772803663
 97
        0
 75
     0
 76
     1
 47
0.0407585876075802
 98
        1
 10
89.05442035272427
 20
28.88547166063109
450
        0
451
        0
460
0.0
461
0.0
452
        0
462
0.0
453
        0
470

1001
ACAD
1010
0.0
1020
0.0
1030
0.0
  0
HATCH
  5
2BE
330
70
100
AcDbEntity
  8
title
100
AcDbHatch
 10
0.0
 20
0.0
 30
0.0
210
0.0
220
0.0
230
1.0
  2
SOLID
 70
     1
 71
     0
 91
        1
 92
        7
 72
     1
 73
     1
 93
       11
 10
96.7000000000262
 20
27.32200000000194
 42
0.4142135623730939
 10
99.86800000000222
 20
24.15400000000045
 42
0.1844830881382527
 10
103.0360000000073
 20
25.36406832364264
 42
0.0
 10
103.0360000000073
 20
24.15400000000045
 42
0.0
 10
105.4120000000257
 20
24.36187306453758
 42
0.0
 10
105.4120000000257
 20
34.84599999999955
 42
0.0
 10
103.0360000000073
 20
34.63812693546242
 42
0.0
 10
103.0360000000073
 20
28.3119999999999
 42
-1.0
 10
99.07600000001549
 20
28.3119999999999
 42
0.0
 10
99.07600000001549
 20
34.84599999999955
 42
0.0
 10
96.7000000000262
 20
34.63812693546242
 42
0.0
 97
        0
 75
     0
 76
     1
 47
0.0407585876075802
 98
        1
 10
97.45109683343617
 20
28.23985548546807
450
        0
451
        0
460
0.0
461
0.0
452
        0
462
0.0
453
        0
470

1001
ACAD
1010
0.0
1020
0.0
1030
0.0
  0
LWPOLYLINE
  5
2BF
330
70
100
AcDbEntity
  8
title
100
AcDbPolyline
 90
        8
 70
     1
 43
0.0
 10
48.78399999999965
 20
24.15400000000045
 42
-0.2416525696711377
 10
46.2100000000064
 20
25.47517894748853
 10
46.2100000000064
 20
21.18399999999929
 10
43.83400000001711
 20
20.97612693546216
 10
43.83400000001711
 20
34.63812693546242
 10
46.2100000000064
 20
34.84599999999955
 10
46.2100000000064
 20
33.52482105251147
 42
-0.2416525696711376
 10
48.78399999999965
 20
34.84599999999955
 42
-0.9999999999999998
  0
LWPOLYLINE
  5
2C0
330
70
100
AcDbEntity
  8
title
 62
     8
100
AcDbPolyline
 90
        8
 70
     1
 43
0.0
 10
28.78600000000734
 20
34.84599999999955
 42
-0.4142135623730951
 10
30.76600000001781
 20
32.86599999999999
 10
30.76600000001781
 20
26.13400000000002
 42
-0.4142135623730951
 10
28.78600000000734
 20
24.15400000000045
 10
22.05400000001828
 20
24.15400000000045
 42
-0.4142135623730951
 10
20.0740000000078
 20
26.13400000000002
 10
20.0740000000078
 20
32.86599999999999
 42
-0.4142135623730951
 10
22.05400000001828
 20
34.84599999999955
  0
LWPOLYLINE
  5
2C1
330
70
100
AcDbEntity
  8
title
100
AcDbPolyline
 90
        2
 70
     1
 43
0.0
 10
17.50000000001455
 20
34.84599999999955
 42
0.9999999999999998
 10
17.50000000001455
 20
24.15400000000045
  0
LWPOLYLINE
  5
2C2
330
70
100
AcDbEntity
  8
title
100
AcDbPolyline
 90
       20
 70
     1
 43
0.0
 10
41.03417541283124
 20
25.9247798277047
 42
0.3326569577304226
 10
41.03417541283124
 20
28.71922017229918
 42
0.1735965709070816
 10
38.55193656381743
 20
30.36239387457135
 10
36.96384954494715
 20
30.75267264948525
 42
-0.0722414400542184
 10
36.36759628810978
 20
30.99443393964794
 42
-0.5734605933816416
 10
36.36759628810978
 20
32.36156606035184
 42
-0.3012846663385096
 10
38.83660458344093
 20
32.2235857932119
 10
39.84607478593535
 20
31.4702686868568
 10
41.43261801190965
 20
32.80153652260378
 10
40.50526894479117
 20
33.66385790987806
 42
0.4458507091054321
 10
33.96182458718249
 20
33.07522017229894
 42
0.3326569577304224
 10
33.96182458718249
 20
30.28077982770446
 42
0.1735965709070817
 10
36.44406343619631
 20
28.63760612543229
 10
38.03215045509569
 20
28.24732735051839
 42
-0.0722414400542175
 10
38.62840371190396
 20
28.00556606035207
 42
-0.5734605933816429
 10
38.62840371190396
 20
26.63843393964817
 42
-0.3012846663385095
 10
36.15939541660191
 20
26.7764142067881
 10
35.14992521407839
 20
27.52973131314684
 10
33.56338198813319
 20
26.19846347739986
 10
34.49073105522257
 20
25.33614209012194
 42
0.4458507091054351
  0
LWPOLYLINE
  5
2C3
330
70
100
AcDbEntity
  8
title
100
AcDbPolyline
 90
        4
 70
     1
 43
0.0
 10
76.00343964919739
 20
31.70834461081722
 10
77.26592913740024
 20
33.51136645694169
 42
2.213691826143604
 10
77.26592913740024
 20
25.48863354306195
 10
76.00343964919739
 20
27.29165538918278
 42
-2.463129903974627
  0
LWPOLYLINE
  5
2C4
330
70
100
AcDbEntity
  8
title
100
AcDbPolyline
 90
        6
 70
     1
 43
0.0
 10
61.6540000000241
 20
26.33200000000034
 42
-0.2063556810793417
 10
59.35074576425541
 20
27.32485772295149
 10
66.48738223592227
 20
31.78432312983023
 42
1.817188575814202
 10
61.6540000000241
 20
24.15400000000045
 42
0.1736979194000479
 10
65.92840120497567
 20
25.68510408303882
 10
64.96244437199493
 20
27.756605196284
 42
-0.2061487455951671
  0
LWPOLYLINE
  5
2C5
330
70
100
AcDbEntity
  8
title
100
AcDbPolyline
 90
       16
 70
     1
 43
0.0
 10
83.6320000000269
 20
34.44999999999891
 10
83.6320000000269
 20
37.22199999999975
 10
81.05800000000455
 20
36.28514061699934
 10
81.05800000000455
 20
34.44999999999891
 10
79.85804016400653
 20
34.44999999999891
 10
79.47400000000198
 20
32.27199999999903
 10
81.05800000000455
 20
32.27199999999903
 10
81.05800000000455
 20
27.32200000000194
 42
0.4142135623730951
 10
84.22600000000967
 20
24.15400000000045
 10
85.82040665890962
 20
24.15400000000045
 10
86.4040000000241
 20
26.33200000000034
 10
85.21600000000034
 20
26.33200000000034
 42
-0.4142135623730951
 10
83.6320000000269
 20
27.91599999999926
 10
83.6320000000269
 20
32.27199999999903
 10
85.81000000001223
 20
32.27199999999903
 10
85.81000000001223
 20
34.44999999999891
  0
ELLIPSE
  5
2C6
330
70
100
AcDbEntity
  8
title
100
AcDbEllipse
 10
48.98200000000361
 20
29.50000000000182
 30
0.0
 11
0.0
 21
3.168
 31
0.0
210
0.0
220
0.0
230
1.0
 40
0.8432858722721602
 41
0.0
 42
6.283185307179586
  0
LWPOLYLINE
  5
2C7
330
70
100
AcDbEntity
  8
title
100
AcDbPolyline
 90
        2
 70
     1
 43
0.0
 10
58.50737238772854
 20
29.13263278640625
 10
63.36357821930142
 20
32.16712697712683
 42
0.632895943934007
  0
LWPOLYLINE
  5
2C8
330
70
100
AcDbEntity
  8
title
100
AcDbPolyline
 90
        9
 70
     0
 43
0.0
 10
94.92150004634458
 20
34.84599999999955
 10
94.46755188899988
 20
32.27153206822004
 42
0.4091883002397918
 10
91.35400000000663
 20
29.10400000000118
 10
91.35400000000663
 20
24.36187306453758
 10
88.97800000001735
 20
24.15400000000045
 10
88.97800000001735
 20
34.4401269354621
 10
91.35400000000663
 20
34.64799999999923
 10
91.35400000000663
 20
33.26200000000063
 42
-0.262668177280371
 10
94.91800000001967
 20
34.8261502509431
  0
LWPOLYLINE
  5
2C9
330
70
100
AcDbEntity
  8
title
100
AcDbPolyline
 90
       11
 70
     1
 43
0.0
 10
103.0360000000073
 20
28.3119999999999
 42
-0.9999999999999998
 10
99.07600000001549
 20
28.3119999999999
 10
99.07600000001549
 20
34.84599999999955
 10
96.7000000000262
 20
34.63812693546242
 10
96.7000000000262
 20
27.32200000000194
 42
0.4142135623730951
 10
99.86800000000222
 20
24.15400000000045
 42
0.184483088138253
 10
103.0360000000073
 20
25.36406832364264
 10
103.0360000000073
 20
24.15400000000045
 10
105.4120000000257
 20
24.36187306453758
 10
105.4120000000257
 20
34.84599999999955
 10
103.0360000000073
 20
34.63812693546242
  0
LINE
  5
2CA
330
70
100
AcDbEntity
  8
title
100
AcDbLine
 10
116.3020000000106
 20
30.88600000000042
 30
0.0
 11
116.3020000000106
 21
24.36187306453758
 31
0.0
  0
LINE
  5
2CB
330
70
100
AcDbEntity
  8
title
100
AcDbLine
 10
116.3020000000106
 20
24.36187306453758
 30
0.0
 11
113.9260000000213
 21
24.15400000000045
 31
0.0
  0
LINE
  5
2CC
330
70
100
AcDbEntity
  8
title
100
AcDbLine
 10
113.9260000000213
 20
24.15400000000045
 30
0.0
 11
113.9260000000213
 21
30.88600000000042
 31
0.0
  0
LINE
  5
2CD
330
70
100
AcDbEntity
  8
title
100
AcDbLine
 10
110.7580000000162
 20
30.88600000000042
 30
0.0
 11
110.7580000000162
 21
24.36187306453758
 31
0.0
  0
LINE
  5
2CE
330
70
100
AcDbEntity
  8
title
100
AcDbLine
 10
110.7580000000162
 20
24.36187306453758
 30
0.0
 11
108.3820000000269
 21
24.15400000000045
 31
0.0
  0
LINE
  5
2CF
330
70
100
AcDbEntity
  8
title
100
AcDbLine
 10
108.3820000000269
 20
24.15400000000045
 30
0.0
 11
108.3820000000269
 21
34.63812693546242
 31
0.0
  0
LINE
  5
2D0
330
70
100
AcDbEntity
  8
title
100
AcDbLine
 10
121.846000000005
 20
24.36187306453758
 30
0.0
 11
119.4700000000157
 21
24.15400000000045
 31
0.0
  0
LINE
  5
2D1
330
70
100
AcDbEntity
  8
title
100
AcDbLine
 10
119.4700000000157
 20
24.15400000000045
 30
0.0
 11
119.4700000000157
 21
30.88600000000042
 31
0.0
  0
MTEXT
  5
2D3
330
70
100
AcDbEntity
  8
0
100
AcDbMText
 10
391.0
 20
34.49393306291313
 30
0.0
 40
10.0
 41
69.3415025044867
 46
0.0
 71
     6
 72
     5
  1
{\fArial|b0|i0|c0|p34;BL.3.1.3}
  7
Arial Narrow
 73
     1
 44
1.0
  0
MTEXT
  5
2D4
102
{ACAD_XDICTIONARY
360
2D5
102
}
330
70
100
AcDbEntity
  8
0
100
AcDbMText
 10
391.1160196939018
 20
19.89854106251005
 30
0.0
 40
4.0
 41
42.1548074414593
 46
11.36832070896309
 71
     6
 72
     5
  1
Rev:B 2.11.21
  7
Arial Narrow
 73
     1
 44
0.8333333333333335
1001
ACAD
1000
ACAD_MTEXT_DEFINED_HEIGHT_BEGIN
1070
    46
1040
35.50427969761552
1000
ACAD_MTEXT_DEFINED_HEIGHT_END
  0
MTEXT
  5
2D6
330
70
100
AcDbEntity
  8
0
100
AcDbMText
 10
200.0
 20
29.5
 30
0.0
 40
5.5
 41
126.0
 46
0.0
 71
     5
 72
     5
  1
0800 355 366\Pinfo@spectrum.co.nz\Pwww.spectrum.co.nz
  7
Calibri
 73
     1
 44
1.0
1001
ACAD
1000
ACAD_MTEXT_COLUMN_INFO_BEGIN
1070
    75
1070
     2
1070
    79
1070
     0
1070
    76
1070
     1
1070
    78
1070
     0
1070
    48
1040
126.0
1070
    49
1040
75.0
1070
    50
1070
     1
1040
35.00000000000146
1000
ACAD_MTEXT_COLUMN_INFO_END
  0
LINE
  5
2D7
330
70
100
AcDbEntity
  8
dim
100
AcDbLine
 10
208.9999999999718
 20
88.40710731416317
 30
0.0
 11
208.9999999999863
 21
142.4071073141577
 31
0.0
  0
LINE
  5
2D8
330
70
100
AcDbEntity
  8
dim
100
AcDbLine
 10
208.9999999999863
 20
144.407107314154
 30
0.0
 11
209.0000000000009
 21
156.4071073141559
 31
0.0
  0
LWPOLYLINE
  5
2D9
330
70
100
AcDbEntity
  8
dim
370
    20
100
AcDbPolyline
 90
        4
 70
     1
 43
0.0
 10
384.0000000000009
 20
174.4071073141468
 10
159.0000000000154
 20
174.4071073141559
 10
159.0000000000009
 20
144.4071073141595
 10
384.0000000000009
 20
144.4071073141504
  0
LINE
  5
2DA
330
70
100
AcDbEntity
  8
dim
100
AcDbLine
 10
158.9999999999863
 20
142.4071073141595
 30
0.0
 11
158.9999999999863
 21
88.40710731416498
 31
0.0
  0
LINE
  5
2DB
330
70
100
AcDbEntity
  8
dim
100
AcDbLine
 10
384.0000000000009
 20
124.4071073141504
 30
0.0
 11
158.9999999999863
 21
124.4071073141595
 31
0.0
  0
LINE
  5
2DC
330
70
100
AcDbEntity
  8
dim
100
AcDbLine
 10
147.0000000000009
 20
124.4071073141595
 30
0.0
 11
96.00000000000092
 21
124.4071073141613
 31
0.0
  0
LINE
  5
2DD
330
70
100
AcDbEntity
  8
dim
100
AcDbLine
 10
184.0000000000009
 20
156.4071073141577
 30
0.0
 11
183.9999999999863
 21
144.4071073141577
 31
0.0
  0
LINE
  5
2DE
330
70
100
AcDbEntity
  8
dim
100
AcDbLine
 10
183.9999999999863
 20
142.4071073141577
 30
0.0
 11
183.9999999999863
 21
88.40710731416498
 31
0.0
  0
LINE
  5
2DF
330
70
100
AcDbEntity
  8
dim
100
AcDbLine
 10
384.0000000000009
 20
156.4071073141486
 30
0.0
 11
159.0000000000154
 21
156.4071073141577
 31
0.0
  0
MTEXT
  5
2E0
330
70
100
AcDbEntity
  8
dim
100
AcDbMText
 10
153.9999999999863
 20
115.4071073141631
 30
0.0
 40
4.0
 41
53.99999999999636
 46
9.999999999998653
 71
     5
 72
     5
  1
Maximum post ctrs
  7
Calibri
 11
0.0000000000000001
 21
1.0
 31
0.0
 73
     1
 44
1.0
1001
ACAD
1000
ACAD_MTEXT_DEFINED_HEIGHT_BEGIN
1070
    46
1040
15.00000000000001
1000
ACAD_MTEXT_DEFINED_HEIGHT_END
  0
MTEXT
  5
2E1
330
70
100
AcDbEntity
  8
dim
100
AcDbMText
 10
196.5000000000009
 20
150.4071073141577
 30
0.0
 40
4.5
 41
25.0
 46
12.00000000000002
 71
     5
 72
     5
  1
1.00m
  7
Calibri
 73
     1
 44
1.0
1001
ACAD
1000
ACAD_MTEXT_DEFINED_HEIGHT_BEGIN
1070
    46
1040
10.00000000000001
1000
ACAD_MTEXT_DEFINED_HEIGHT_END
  0
MTEXT
  5
2E2
330
70
100
AcDbEntity
  8
dim
100
AcDbMText
 10
221.5000000000009
 20
150.4071073141577
 30
0.0
 40
4.5
 41
25.0
 46
11.9999999999999
 71
     5
 72
     5
  1
1.05m
  7
Calibri
 73
     1
 44
1.0
1001
ACAD
1000
ACAD_MTEXT_DEFINED_HEIGHT_BEGIN
1070
    46
1040
10.00000000000013
1000
ACAD_MTEXT_DEFINED_HEIGHT_END
  0
MTEXT
  5
2E3
330
70
100
AcDbEntity
  8
dim
100
AcDbMText
 10
246.5000000000009
 20
150.407107314154
 30
0.0
 40
4.5
 41
25.0
 46
12.00000000000184
 71
     5
 72
     5
  1
1.10m
  7
Calibri
 73
     1
 44
1.0
1001
ACAD
1000
ACAD_MTEXT_DEFINED_HEIGHT_BEGIN
1070
    46
1040
10.00000000000001
1000
ACAD_MTEXT_DEFINED_HEIGHT_END
  0
MTEXT
  5
2E4
330
70
100
AcDbEntity
  8
dim
100
AcDbMText
 10
196.4999999999863
 20
133.4071073141577
 30
0.0
 40
4.5
 41
24.9999999999709
 46
18.00000000000024
 71
     5
 72
     5
  1
1.40m
  7
Calibri
 73
     1
 44
1.0
1001
ACAD
1000
ACAD_MTEXT_DEFINED_HEIGHT_BEGIN
1070
    46
1040
10.00000000000001
1000
ACAD_MTEXT_DEFINED_HEIGHT_END
  0
MTEXT
  5
2E5
330
70
100
AcDbEntity
  8
dim
100
AcDbMText
 10
221.4999999999863
 20
133.4071073141541
 30
0.0
 40
4.5
 41
24.99999999998545
 46
17.9999999999966
 71
     5
 72
     5
  1
1.35m
  7
Calibri
 73
     1
 44
1.0
1001
ACAD
1000
ACAD_MTEXT_DEFINED_HEIGHT_BEGIN
1070
    46
1040
10.00000000000001
1000
ACAD_MTEXT_DEFINED_HEIGHT_END
  0
MTEXT
  5
2E6
330
70
100
AcDbEntity
  8
dim
100
AcDbMText
 10
246.5000000000009
 20
133.4071073141541
 30
0.0
 40
4.5
 41
25.00000000001455
 46
17.9999999999982
 71
     5
 72
     5
  1
1.30m
  7
Calibri
 73
     1
 44
1.0
1001
ACAD
1000
ACAD_MTEXT_DEFINED_HEIGHT_BEGIN
1070
    46
1040
10.00000000000001
1000
ACAD_MTEXT_DEFINED_HEIGHT_END
  0
MTEXT
  5
2E7
330
70
100
AcDbEntity
  8
dim
100
AcDbMText
 10
271.5000000000009
 20
150.407107314154
 30
0.0
 40
4.5
 41
25.0
 46
12.00000000000184
 71
     5
 72
     5
  1
1.15m
  7
Calibri
 73
     1
 44
1.0
1001
ACAD
1000
ACAD_MTEXT_DEFINED_HEIGHT_BEGIN
1070
    46
1040
10.00000000000001
1000
ACAD_MTEXT_DEFINED_HEIGHT_END
  0
MTEXT
  5
2E8
330
70
100
AcDbEntity
  8
dim
100
AcDbMText
 10
271.5000000000009
 20
133.4071073141522
 30
0.0
 40
4.5
 41
25.0
 46
17.9999999999982
 71
     5
 72
     5
  1
1.20m
  7
Calibri
 73
     1
 44
1.0
1001
ACAD
1000
ACAD_MTEXT_DEFINED_HEIGHT_BEGIN
1070
    46
1040
10.00000000000001
1000
ACAD_MTEXT_DEFINED_HEIGHT_END
  0
MTEXT
  5
2E9
330
70
100
AcDbEntity
  8
dim
100
AcDbMText
 10
296.5000000000009
 20
150.4071073141504
 30
0.0
 40
4.5
 41
25.0
 46
12.00000000000184
 71
     5
 72
     5
  1
1.20m
  7
Calibri
 73
     1
 44
1.0
1001
ACAD
1000
ACAD_MTEXT_DEFINED_HEIGHT_BEGIN
1070
    46
1040
10.00000000000001
1000
ACAD_MTEXT_DEFINED_HEIGHT_END
  0
MTEXT
  5
2EA
330
70
100
AcDbEntity
  8
dim
100
AcDbMText
 10
296.5000000000009
 20
133.4071073141504
 30
0.0
 40
4.5
 41
25.0
 46
17.99999999999456
 71
     5
 72
     5
  1
1.15m
  7
Calibri
 73
     1
 44
1.0
1001
ACAD
1000
ACAD_MTEXT_DEFINED_HEIGHT_BEGIN
1070
    46
1040
10.00000000000001
1000
ACAD_MTEXT_DEFINED_HEIGHT_END
  0
MTEXT
  5
2EB
330
70
100
AcDbEntity
  8
dim
100
AcDbMText
 10
171.5000000000009
 20
150.4071073141595
 30
0.0
 40
4.5
 41
25.0
 46
12.00000000000002
 71
     5
 72
     5
  1
0.95m
  7
Calibri
 73
     1
 44
1.0
1001
ACAD
1000
ACAD_MTEXT_DEFINED_HEIGHT_BEGIN
1070
    46
1040
10.00000000000001
1000
ACAD_MTEXT_DEFINED_HEIGHT_END
  0
MTEXT
  5
2EC
330
70
100
AcDbEntity
  8
dim
100
AcDbMText
 10
171.4999999999863
 20
133.4071073141577
 30
0.0
 40
4.5
 41
24.99999999998545
 46
18.00000000000206
 71
     5
 72
     5
  1
1.40m
  7
Calibri
 73
     1
 44
1.0
1001
ACAD
1000
ACAD_MTEXT_DEFINED_HEIGHT_BEGIN
1070
    46
1040
10.00000000000001
1000
ACAD_MTEXT_DEFINED_HEIGHT_END
  0
MTEXT
  5
2ED
330
70
100
AcDbEntity
  8
dim
100
AcDbMText
 10
321.5000000000009
 20
150.4071073141504
 30
0.0
 40
4.5
 41
25.00000000001455
 46
12.00000000000184
 71
     5
 72
     5
  1
1.25m
  7
Calibri
 73
     1
 44
1.0
1001
ACAD
1000
ACAD_MTEXT_DEFINED_HEIGHT_BEGIN
1070
    46
1040
10.00000000000001
1000
ACAD_MTEXT_DEFINED_HEIGHT_END
  0
MTEXT
  5
2EE
330
70
100
AcDbEntity
  8
dim
100
AcDbMText
 10
321.5000000000155
 20
133.4071073141504
 30
0.0
 40
4.5
 41
25.00000000002911
 46
17.99999999999638
 71
     5
 72
     5
  1
1.05m
  7
Calibri
 73
     1
 44
1.0
1001
ACAD
1000
ACAD_MTEXT_DEFINED_HEIGHT_BEGIN
1070
    46
1040
10.00000000000001
1000
ACAD_MTEXT_DEFINED_HEIGHT_END
  0
MTEXT
  5
2EF
330
70
100
AcDbEntity
  8
dim
100
AcDbMText
 10
346.5000000000009
 20
150.4071073141504
 30
0.0
 40
4.5
 41
25.0
 46
12.00000000000002
 71
     5
 72
     5
  1
1.30m
  7
Calibri
 73
     1
 44
1.0
1001
ACAD
1000
ACAD_MTEXT_DEFINED_HEIGHT_BEGIN
1070
    46
1040
10.00000000000001
1000
ACAD_MTEXT_DEFINED_HEIGHT_END
  0
MTEXT
  5
2F0
330
70
100
AcDbEntity
  8
dim
100
AcDbMText
 10
346.5000000000009
 20
133.4071073141504
 30
0.0
 40
4.5
 41
24.9999999999709
 46
17.9999999999982
 71
     5
 72
     5
  1
0.95m
  7
Calibri
 73
     1
 44
1.0
1001
ACAD
1000
ACAD_MTEXT_DEFINED_HEIGHT_BEGIN
1070
    46
1040
10.00000000000001
1000
ACAD_MTEXT_DEFINED_HEIGHT_END
  0
MTEXT
  5
2F1
330
70
100
AcDbEntity
  8
dim
100
AcDbMText
 10
371.5000000000009
 20
150.4071073141504
 30
0.0
 40
4.5
 41
25.0
 46
12.00000000000002
 71
     5
 72
     5
  1
1.35m
  7
Calibri
 73
     1
 44
1.0
1001
ACAD
1000
ACAD_MTEXT_DEFINED_HEIGHT_BEGIN
1070
    46
1040
10.00000000000001
1000
ACAD_MTEXT_DEFINED_HEIGHT_END
  0
MTEXT
  5
2F2
330
70
100
AcDbEntity
  8
dim
100
AcDbMText
 10
371.5000000000009
 20
133.4071073141504
 30
0.0
 40
4.5
 41
24.99999999998545
 46
18.00000000000002
 71
     5
 72
     5
  1
0.85m
  7
Calibri
 73
     1
 44
1.0
1001
ACAD
1000
ACAD_MTEXT_DEFINED_HEIGHT_BEGIN
1070
    46
1040
10.00000000000001
1000
ACAD_MTEXT_DEFINED_HEIGHT_END
  0
LINE
  5
2F3
330
70
100
AcDbEntity
  8
dim
100
AcDbLine
 10
96.00000000000092
 20
142.4071073141631
 30
0.0
 11
96.00000000000092
 21
88.40710731416681
 31
0.0
  0
LINE
  5
2F4
330
70
100
AcDbEntity
  8
dim
100
AcDbLine
 10
233.9999999999718
 20
88.40710731416317
 30
0.0
 11
233.9999999999863
 21
142.4071073141559
 31
0.0
  0
LINE
  5
2F5
330
70
100
AcDbEntity
  8
dim
100
AcDbLine
 10
233.9999999999863
 20
144.407107314154
 30
0.0
 11
234.0000000000009
 21
156.4071073141541
 31
0.0
  0
LINE
  5
2F6
330
70
100
AcDbEntity
  8
dim
100
AcDbLine
 10
259.0000000000009
 20
88.40710731415953
 30
0.0
 11
259.0000000000009
 21
142.407107314154
 31
0.0
  0
LINE
  5
2F7
330
70
100
AcDbEntity
  8
dim
100
AcDbLine
 10
259.0000000000009
 20
144.407107314154
 30
0.0
 11
259.0000000000009
 21
156.4071073141522
 31
0.0
  0
LINE
  5
2F8
330
70
100
AcDbEntity
  8
dim
100
AcDbLine
 10
284.0000000000155
 20
88.40710731416136
 30
0.0
 11
284.0000000000155
 21
142.407107314154
 31
0.0
  0
LINE
  5
2F9
330
70
100
AcDbEntity
  8
dim
100
AcDbLine
 10
284.0000000000155
 20
144.4071073141522
 30
0.0
 11
284.0000000000009
 21
156.4071073141522
 31
0.0
  0
LINE
  5
2FA
330
70
100
AcDbEntity
  8
dim
100
AcDbLine
 10
309.0000000000009
 20
88.40710731415953
 30
0.0
 11
309.0000000000009
 21
142.407107314154
 31
0.0
  0
LINE
  5
2FB
330
70
100
AcDbEntity
  8
dim
100
AcDbLine
 10
309.0000000000009
 20
144.4071073141522
 30
0.0
 11
309.0000000000009
 21
156.4071073141504
 31
0.0
  0
LINE
  5
2FC
330
70
100
AcDbEntity
  8
dim
100
AcDbLine
 10
334.0000000000446
 20
88.40710731415772
 30
0.0
 11
334.0000000000155
 21
142.4071073141522
 31
0.0
  0
LINE
  5
2FD
330
70
100
AcDbEntity
  8
dim
100
AcDbLine
 10
334.0000000000155
 20
144.4071073141522
 30
0.0
 11
334.0000000000009
 21
156.4071073141504
 31
0.0
  0
LINE
  5
2FE
330
70
100
AcDbEntity
  8
dim
100
AcDbLine
 10
359.0000000000446
 20
88.40710731415772
 30
0.0
 11
359.0000000000155
 21
142.4071073141504
 31
0.0
  0
LINE
  5
2FF
330
70
100
AcDbEntity
  8
dim
100
AcDbLine
 10
359.0000000000009
 20
144.4071073141504
 30
0.0
 11
359.0000000000009
 21
156.4071073141486
 31
0.0
  0
LWPOLYLINE
  5
300
330
70
100
AcDbEntity
  8
dim
370
    20
100
AcDbPolyline
 90
        4
 70
     1
 43
0.0
 10
148.9999999999863
 20
88.40710731416317
 10
383.9999999999863
 20
88.40710731415589
 10
384.0000000000009
 20
142.4071073141504
 10
148.9999999999863
 20
142.4071073141613
  0
LINE
  5
301
330
70
100
AcDbEntity
  8
dim
100
AcDbLine
 10
384.0000000000009
 20
106.4071073141522
 30
0.0
 11
158.9999999999863
 21
106.4071073141613
 31
0.0
  0
LINE
  5
302
330
70
100
AcDbEntity
  8
dim
100
AcDbLine
 10
146.9999999999863
 20
106.4071073141613
 30
0.0
 11
16.00000000001546
 21
106.407107314165
 31
0.0
  0
MTEXT
  5
303
330
70
100
AcDbEntity
  8
dim
100
AcDbMText
 10
121.5000000000009
 20
133.4071073141595
 30
0.0
 40
4.0
 41
50.99999999999273
 46
18.00000000000183
 71
     5
 72
     5
  1
Up to very high wind zone (50m/s)
  7
Calibri
 73
     1
 44
1.0
1001
ACAD
1000
ACAD_MTEXT_DEFINED_HEIGHT_BEGIN
1070
    46
1040
10.00000000000001
1000
ACAD_MTEXT_DEFINED_HEIGHT_END
  0
MTEXT
  5
304
330
70
100
AcDbEntity
  8
dim
100
AcDbMText
 10
121.5000000000009
 20
115.4071073141613
 30
0.0
 40
4.0
 41
50.99999999999273
 46
17.9999999999982
 71
     5
 72
     5
  1
Extra high wind\Pzone (55m/s)
  7
Calibri
 73
     1
 44
1.0
1001
ACAD
1000
ACAD_MTEXT_DEFINED_HEIGHT_BEGIN
1070
    46
1040
10.00000000000001
1000
ACAD_MTEXT_DEFINED_HEIGHT_END
  0
MTEXT
  5
305
330
70
100
AcDbEntity
  8
dim
100
AcDbMText
 10
121.5000000000009
 20
97.40710731416317
 30
0.0
 40
4.0
 41
50.99999999999273
 46
17.9999999999982
 71
     5
 72
     5
  1
All wind zones\P(up to 55m/s)
  7
Calibri
 73
     1
 44
1.0
1001
ACAD
1000
ACAD_MTEXT_DEFINED_HEIGHT_BEGIN
1070
    46
1040
10.00000000000001
1000
ACAD_MTEXT_DEFINED_HEIGHT_END
  0
MTEXT
  5
306
330
70
100
AcDbEntity
  8
dim
100
AcDbMText
 10
56.00000000000091
 20
124.4071073141627
 30
0.0
 40
4.0
 41
80.0
 46
36.00000000000092
 71
     5
 72
     5
  1
Glass or Solid infill (Vista, Classic, Clearview)
  7
Calibri
 73
     1
 44
1.0
1001
ACAD
1000
ACAD_MTEXT_DEFINED_HEIGHT_BEGIN
1070
    46
1040
15.00000000000001
1000
ACAD_MTEXT_DEFINED_HEIGHT_END
  0
MTEXT
  5
307
330
70
100
AcDbEntity
  8
dim
100
AcDbMText
 10
56.00000000000091
 20
97.40710731416681
 30
0.0
 40
4.0
 41
79.99999999999272
 46
18.00000000000183
 71
     5
 72
     5
  1
35% max closed area (Settler, Heritage, Face hung fin)
  7
Calibri
 73
     1
 44
1.0
1001
ACAD
1000
ACAD_MTEXT_DEFINED_HEIGHT_BEGIN
1070
    46
1040
15.00000000000001
1000
ACAD_MTEXT_DEFINED_HEIGHT_END
  0
LWPOLYLINE
  5
308
330
70
100
AcDbEntity
  8
dim
370
    20
100
AcDbPolyline
 90
        4
 70
     1
 43
0.0
 10
146.9999999999863
 20
142.4071073141595
 10
16.00000000000091
 20
142.4071073141631
 10
16.00000000000091
 20
88.40710731416681
 10
146.9999999999863
 20
88.40710731416317
  0
MTEXT
  5
309
330
70
100
AcDbEntity
  8
dim
100
AcDbMText
 10
196.4999999999863
 20
115.4071073141577
 30
0.0
 40
4.5
 41
24.9999999999709
 46
18.00000000000024
 71
     5
 72
     5
  1
1.40m
  7
Calibri
 73
     1
 44
1.0
1001
ACAD
1000
ACAD_MTEXT_DEFINED_HEIGHT_BEGIN
1070
    46
1040
10.00000000000001
1000
ACAD_MTEXT_DEFINED_HEIGHT_END
  0
MTEXT
  5
30A
330
70
100
AcDbEntity
  8
dim
100
AcDbMText
 10
221.4999999999863
 20
115.407107314154
 30
0.0
 40
4.5
 41
24.99999999998545
 46
17.9999999999966
 71
     5
 72
     5
  1
1.33m
  7
Calibri
 73
     1
 44
1.0
1001
ACAD
1000
ACAD_MTEXT_DEFINED_HEIGHT_BEGIN
1070
    46
1040
10.00000000000001
1000
ACAD_MTEXT_DEFINED_HEIGHT_END
  0
MTEXT
  5
30B
330
70
100
AcDbEntity
  8
dim
100
AcDbMText
 10
246.5000000000009
 20
115.407107314154
 30
0.0
 40
4.5
 41
25.00000000001455
 46
17.9999999999982
 71
     5
 72
     5
  1
1.21m
  7
Calibri
 73
     1
 44
1.0
1001
ACAD
1000
ACAD_MTEXT_DEFINED_HEIGHT_BEGIN
1070
    46
1040
10.00000000000001
1000
ACAD_MTEXT_DEFINED_HEIGHT_END
  0
MTEXT
  5
30C
330
70
100
AcDbEntity
  8
dim
100
AcDbMText
 10
271.5000000000009
 20
115.4071073141522
 30
0.0
 40
4.5
 41
25.0
 46
17.9999999999982
 71
     5
 72
     5
  1
1.11m
  7
Calibri
 73
     1
 44
1.0
1001
ACAD
1000
ACAD_MTEXT_DEFINED_HEIGHT_BEGIN
1070
    46
1040
10.00000000000001
1000
ACAD_MTEXT_DEFINED_HEIGHT_END
  0
MTEXT
  5
30D
330
70
100
AcDbEntity
  8
dim
100
AcDbMText
 10
296.5000000000009
 20
115.4071073141504
 30
0.0
 40
4.5
 41
25.0
 46
17.99999999999456
 71
     5
 72
     5
  1
1.02m
  7
Calibri
 73
     1
 44
1.0
1001
ACAD
1000
ACAD_MTEXT_DEFINED_HEIGHT_BEGIN
1070
    46
1040
10.00000000000001
1000
ACAD_MTEXT_DEFINED_HEIGHT_END
  0
MTEXT
  5
30E
330
70
100
AcDbEntity
  8
dim
100
AcDbMText
 10
171.4999999999863
 20
115.4071073141577
 30
0.0
 40
4.5
 41
24.99999999998545
 46
18.00000000000206
 71
     5
 72
     5
  1
1.40m
  7
Calibri
 73
     1
 44
1.0
1001
ACAD
1000
ACAD_MTEXT_DEFINED_HEIGHT_BEGIN
1070
    46
1040
10.00000000000001
1000
ACAD_MTEXT_DEFINED_HEIGHT_END
  0
MTEXT
  5
30F
330
70
100
AcDbEntity
  8
dim
100
AcDbMText
 10
321.5000000000155
 20
115.4071073141504
 30
0.0
 40
4.5
 41
25.00000000002911
 46
17.99999999999638
 71
     5
 72
     5
  1
0.90m
  7
Calibri
 73
     1
 44
1.0
1001
ACAD
1000
ACAD_MTEXT_DEFINED_HEIGHT_BEGIN
1070
    46
1040
10.00000000000001
1000
ACAD_MTEXT_DEFINED_HEIGHT_END
  0
MTEXT
  5
310
330
70
100
AcDbEntity
  8
dim
100
AcDbMText
 10
346.5000000000009
 20
115.4071073141504
 30
0.0
 40
4.5
 41
24.9999999999709
 46
18.80477416989563
 71
     5
 72
     5
  1
0.78m
  7
Calibri
 73
     1
 44
1.0
1001
ACAD
1000
ACAD_MTEXT_DEFINED_HEIGHT_BEGIN
1070
    46
1040
10.00000000000001
1000
ACAD_MTEXT_DEFINED_HEIGHT_END
  0
MTEXT
  5
311
330
70
100
AcDbEntity
  8
dim
100
AcDbMText
 10
371.5000000000009
 20
115.4071073141504
 30
0.0
 40
4.5
 41
24.99999999998545
 46
18.00000000000002
 71
     5
 72
     5
  1
0.68m
  7
Calibri
 73
     1
 44
1.0
1001
ACAD
1000
ACAD_MTEXT_DEFINED_HEIGHT_BEGIN
1070
    46
1040
10.00000000000001
1000
ACAD_MTEXT_DEFINED_HEIGHT_END
  0
MTEXT
  5
312
330
70
100
AcDbEntity
  8
dim
100
AcDbMText
 10
196.4999999999718
 20
97.40710731415953
 30
0.0
 40
4.5
 41
24.9999999999709
 46
18.00000000000024
 71
     5
 72
     5
  1
1.40m
  7
Calibri
 73
     1
 44
1.0
1001
ACAD
1000
ACAD_MTEXT_DEFINED_HEIGHT_BEGIN
1070
    46
1040
10.00000000000001
1000
ACAD_MTEXT_DEFINED_HEIGHT_END
  0
MTEXT
  5
313
330
70
100
AcDbEntity
  8
dim
100
AcDbMText
 10
221.4999999999718
 20
97.40710731415589
 30
0.0
 40
4.5
 41
24.99999999998545
 46
17.9999999999966
 71
     5
 72
     5
  1
1.35m
  7
Calibri
 73
     1
 44
1.0
1001
ACAD
1000
ACAD_MTEXT_DEFINED_HEIGHT_BEGIN
1070
    46
1040
10.00000000000001
1000
ACAD_MTEXT_DEFINED_HEIGHT_END
  0
MTEXT
  5
314
330
70
100
AcDbEntity
  8
dim
100
AcDbMText
 10
246.4999999999863
 20
97.40710731415589
 30
0.0
 40
4.5
 41
25.00000000001455
 46
17.9999999999982
 71
     5
 72
     5
  1
1.30m
  7
Calibri
 73
     1
 44
1.0
1001
ACAD
1000
ACAD_MTEXT_DEFINED_HEIGHT_BEGIN
1070
    46
1040
10.00000000000001
1000
ACAD_MTEXT_DEFINED_HEIGHT_END
  0
MTEXT
  5
315
330
70
100
AcDbEntity
  8
dim
100
AcDbMText
 10
271.4999999999863
 20
97.40710731415408
 30
0.0
 40
4.5
 41
25.0
 46
17.9999999999982
 71
     5
 72
     5
  1
1.20m
  7
Calibri
 73
     1
 44
1.0
1001
ACAD
1000
ACAD_MTEXT_DEFINED_HEIGHT_BEGIN
1070
    46
1040
10.00000000000001
1000
ACAD_MTEXT_DEFINED_HEIGHT_END
  0
MTEXT
  5
316
330
70
100
AcDbEntity
  8
dim
100
AcDbMText
 10
296.4999999999863
 20
97.40710731415227
 30
0.0
 40
4.5
 41
25.0
 46
17.99999999999456
 71
     5
 72
     5
  1
1.15m
  7
Calibri
 73
     1
 44
1.0
1001
ACAD
1000
ACAD_MTEXT_DEFINED_HEIGHT_BEGIN
1070
    46
1040
10.00000000000001
1000
ACAD_MTEXT_DEFINED_HEIGHT_END
  0
MTEXT
  5
317
330
70
100
AcDbEntity
  8
dim
100
AcDbMText
 10
171.4999999999718
 20
97.40710731415953
 30
0.0
 40
4.5
 41
24.99999999998545
 46
18.00000000000206
 71
     5
 72
     5
  1
1.40m
  7
Calibri
 73
     1
 44
1.0
1001
ACAD
1000
ACAD_MTEXT_DEFINED_HEIGHT_BEGIN
1070
    46
1040
10.00000000000001
1000
ACAD_MTEXT_DEFINED_HEIGHT_END
  0
MTEXT
  5
318
330
70
100
AcDbEntity
  8
dim
100
AcDbMText
 10
321.5000000000009
 20
97.40710731415227
 30
0.0
 40
4.5
 41
25.00000000002911
 46
17.99999999999638
 71
     5
 72
     5
  1
1.05m
  7
Calibri
 73
     1
 44
1.0
1001
ACAD
1000
ACAD_MTEXT_DEFINED_HEIGHT_BEGIN
1070
    46
1040
10.00000000000001
1000
ACAD_MTEXT_DEFINED_HEIGHT_END
  0
MTEXT
  5
319
330
70
100
AcDbEntity
  8
dim
100
AcDbMText
 10
346.4999999999863
 20
97.40710731415227
 30
0.0
 40
4.5
 41
24.9999999999709
 46
17.9999999999982
 71
     5
 72
     5
  1
0.95m
  7
Calibri
 73
     1
 44
1.0
1001
ACAD
1000
ACAD_MTEXT_DEFINED_HEIGHT_BEGIN
1070
    46
1040
10.00000000000001
1000
ACAD_MTEXT_DEFINED_HEIGHT_END
  0
MTEXT
  5
31A
330
70
100
AcDbEntity
  8
dim
100
AcDbMText
 10
371.4999999999863
 20
97.40710731415227
 30
0.0
 40
4.5
 41
24.99999999998545
 46
18.00000000000002
 71
     5
 72
     5
  1
0.85m
  7
Calibri
 73
     1
 44
1.0
1001
ACAD
1000
ACAD_MTEXT_DEFINED_HEIGHT_BEGIN
1070
    46
1040
10.00000000000001
1000
ACAD_MTEXT_DEFINED_HEIGHT_END
  0
MTEXT
  5
31B
330
70
100
AcDbEntity
  8
dim
100
AcDbMText
 10
271.5000000000009
 20
165.4071073141504
 30
0.0
 40
4.0
 41
225.0
 46
17.9999999999891
 71
     5
 72
     5
  1
Leverage height {\Lmax} (distance from top of handrail to centreline of the upper fixing)
  7
Calibri
 73
     1
 44
1.0
1001
ACAD
1000
ACAD_MTEXT_DEFINED_HEIGHT_BEGIN
1070
    46
1040
15.00000000000001
1000
ACAD_MTEXT_DEFINED_HEIGHT_END
  0
MTEXT
  5
31C
102
{ACAD_XDICTIONARY
360
31D
102
}
330
70
100
AcDbEntity
  8
0
100
AcDbMText
 10
274.1927834194503
 20
29.5
 30
0.0
 40
3.25
 41
77.51234181714244
 46
0.0
 71
     4
 72
     5
  1
Balustrade.\Psubject to change\Pwithout notice.
  7
Calibri
 73
     1
 44
1.0
1001
ACAD
1000
ACAD_MTEXT_COLUMN_INFO_BEGIN
1070
    75
1070
     2
1070
    79
1070
     0
1070
    76
1070
     1
1070
    78
1070
     0
1070
    48
1040
77.51234181714244
1070
    49
1040
75.0
1070
    50
1070
     1
1040
0.0
1000
ACAD_MTEXT_COLUMN_INFO_END
  0
MTEXT
  5
31E
102
{ACAD_XDICTIONARY
360
31F
102
}
330
70
100
AcDbEntity
  8
dim
100
AcDbMText
 10
4.417494721783441
 20
82.61743007319092
 30
0.0
 40
4.5
 41
403.3596694944862
 46
79.5676245593404
 71
     1
 72
     5
  3
\pi-13.5,l18,t18;-       Applicable to occupancy types A, B, C3 & E.\P-^IThis fixing detail PS1 should be used in conjunction with the appropriate system PS1.\P-^IThis is a balustrade connection detail. Deck design, construction and  water-proofing is 
  1
the responsibility of others. For all other applications or non-standard or site specific connections not covered under the standard detail manual please contact Spectrum.
  7
Calibri
 73
     1
 44
0.9333333333333333
1001
ACAD
1000
ACAD_MTEXT_DEFINED_HEIGHT_BEGIN
1070
    46
1040
75.2852101506287
1000
ACAD_MTEXT_DEFINED_HEIGHT_END
  0
MTEXT
  5
320
330
70
100
AcDbEntity
  8
0
100
AcDbMText
 10
8.290334991863346
 20
75.38153642329053
 30
0.0
 40
4.5
 41
329.6444955504266
 46
85.60397865527193
 71
     1
 72
     5
  1
{\fArial|b0|i0|c0|p34;■}
  7
Arial Narrow
 73
     1
 44
0.9333333333333333
1001
ACAD
1000
ACAD_MTEXT_DEFINED_HEIGHT_BEGIN
1070
    46
1040
85.60397865527193
1000
ACAD_MTEXT_DEFINED_HEIGHT_END
  0
MTEXT
  5
321
330
70
100
AcDbEntity
  8
0
100
AcDbMText
 10
8.290334991863346
 20
68.026918904583
 30
0.0
 40
4.5
 41
329.6444955504266
 46
85.60397865527193
 71
     1
 72
     5
  1
{\fArial|b0|i0|c0|p34;■}
  7
Arial Narrow
 73
     1
 44
0.9333333333333333
1001
ACAD
1000
ACAD_MTEXT_DEFINED_HEIGHT_BEGIN
1070
    46
1040
85.60397865527193
1000
ACAD_MTEXT_DEFINED_HEIGHT_END
  0
MTEXT
  5
322
330
70
100
AcDbEntity
  8
0
100
AcDbMText
 10
8.290334991863346
 20
82.841239761623
 30
0.0
 40
4.5
 41
329.6444955504266
 46
85.60397865527193
 71
     1
 72
     5
  1
{\fArial|b0|i0|c0|p34;■}
  7
Arial Narrow
 73
     1
 44
0.9333333333333333
1001
ACAD
1000
ACAD_MTEXT_DEFINED_HEIGHT_BEGIN
1070
    46
1040
85.60397865527193
1000
ACAD_MTEXT_DEFINED_HEIGHT_END
  0
LINE
  5
323
330
70
100
AcDbEntity
  8
dim
100
AcDbLine
 10
195.732326588055
 20
400.1566519237894
 30
0.0
 11
195.732326588055
 21
447.1103286950911
 31
0.0
  0
LINE
  5
324
330
70
100
AcDbEntity
  8
dim
100
AcDbLine
 10
189.732326588055
 20
443.1103286950911
 30
0.0
 11
69.28537704149494
 21
443.1103286950911
 31
0.0
  0
SOLID
  5
325
330
70
100
AcDbEntity
  8
dim
100
AcDbTrace
 10
189.732326588055
 20
444.1103286950911
 30
0.0
 11
189.732326588055
 21
442.110328695091
 31
0.0
 12
195.732326588055
 22
443.1103286950911
 32
0.0
 13
195.732326588055
 23
443.1103286950911
 33
0.0
  0
SOLID
  5
326
330
70
100
AcDbEntity
  8
dim
100
AcDbTrace
 10
69.28537704149494
 20
444.1103286950911
 30
0.0
 11
69.28537704149494
 21
442.110328695091
 31
0.0
 12
63.28537704149494
 22
443.1103286950911
 32
0.0
 13
63.28537704149494
 23
443.1103286950911
 33
0.0
  0
MTEXT
  5
327
330
70
100
AcDbEntity
  8
dim
100
AcDbMText
 10
129.508851814775
 20
448.1512902335525
 30
0.0
 40
4.5
 41
0.0
 46
0.0
 71
     5
 72
     1
  1
130 min concrete depth
  7
Calibri
 73
     1
 44
1.0
  0
ENDSEC
  0
SECTION
  2
OBJECTS
  0
DICTIONARY
  5
C
330
0
100
AcDbDictionary
281
     1
  3
ACAD_CIP_PREVIOUS_PRODUCT_INFO
350
7E
  3
ACAD_COLOR
350
63
  3
ACAD_DETAILVIEWSTYLE
350
6A
  3
ACAD_GROUP
350
D
  3
ACAD_LAYOUT
350
62
  3
ACAD_MATERIAL
350
10
  3
ACAD_MLEADERSTYLE
350
66
  3
ACAD_MLINESTYLE
350
5F
  3
ACAD_PLOTSETTINGS
350
61
  3
ACAD_PLOTSTYLENAME
350
E
  3
ACAD_SCALELIST
350
42
  3
ACAD_SECTIONVIEWSTYLE
350
68
  3
ACAD_TABLESTYLE
350
64
  3
ACAD_VISUALSTYLE
350
29
  3
ACDB_RECOMPOSE_DATA
350
439
  3
AcDbVariableDictionary
350
78
  3
AcDsDecomposeData
350
43F
  3
AEC_PROPERTY_SET_DEFS
350
204
  0
DICTIONARY
  5
E2
330
2
100
AcDbDictionary
280
     1
281
     1
  3
ACAD_LAYERSTATES
360
E3
  0
DICTIONARY
  5
C0
330
BF
100
AcDbDictionary
280
     1
281
     1
  0
DICTIONARY
  5
C2
330
C1
100
AcDbDictionary
280
     1
281
     1
  0
DICTIONARY
  5
C5
330
C4
100
AcDbDictionary
280
     1
281
     1
  0
DICTIONARY
  5
C7
330
C6
100
AcDbDictionary
280
     1
281
     1
  0
DICTIONARY
  5
C9
330
C8
100
AcDbDictionary
280
     1
281
     1
  0
DICTIONARY
  5
CB
330
CA
100
AcDbDictionary
280
     1
281
     1
  0
DICTIONARY
  5
CF
330
CE
100
AcDbDictionary
280
     1
281
     1
  0
DICTIONARY
  5
D1
330
D0
100
AcDbDictionary
280
     1
281
     1
  0
DICTIONARY
  5
293
330
292
100
AcDbDictionary
280
     1
281
     1
  3
ACAD_DIMASSOC
360
294
  0
DICTIONARY
  5
2D5
330
2D4
100
AcDbDictionary
280
     1
281
     1
  3
ACAD_MTEXT_2008_RT
360
436
  0
DICTIONARY
  5
31D
330
31C
100
AcDbDictionary
280
     1
281
     1
  3
ACAD_MTEXT_2008_RT
360
437
  0
DICTIONARY
  5
31F
330
31E
100
AcDbDictionary
280
     1
281
     1
  3
ACAD_MTEXT_2008_RT
360
438
  0
XRECORD
  5
7E
102
{ACAD_REACTORS
330
C
102
}
330
C
100
AcDbXrecord
280
     1
300
ACDLT
300
2022
300

  0
DICTIONARY
  5
63
102
{ACAD_REACTORS
330
C
102
}
330
C
100
AcDbDictionary
281
     1
  0
DICTIONARY
  5
6A
102
{ACAD_REACTORS
330
C
102
}
330
C
100
AcDbDictionary
281
     1
  3
Metric50
350
6B
  0
DICTIONARY
  5
D
102
{ACAD_REACTORS
330
C
102
}
330
C
100
AcDbDictionary
281
     1
  0
DICTIONARY
  5
62
102
{ACAD_REACTORS
330
C
102
}
330
C
100
AcDbDictionary
281
     1
  3
Layout1
350
6F
  3
Layout2
350
77
  3
Model
350
73
  0
DICTIONARY
  5
10
102
{ACAD_REACTORS
330
C
102
}
330
C
100
AcDbDictionary
281
     1
  3
ByBlock
350
19
  3
ByLayer
350
11
  3
Global
350
21
  0
DICTIONARY
  5
66
102
{ACAD_REACTORS
330
C
102
}
330
C
100
AcDbDictionary
281
     1
  3
Standard
350
67
  0
DICTIONARY
  5
5F
102
{ACAD_REACTORS
330
C
102
}
330
C
100
AcDbDictionary
281
     1
  3
Standard
350
60
  0
DICTIONARY
  5
61
102
{ACAD_REACTORS
330
C
102
}
330
C
100
AcDbDictionary
281
     1
  0
ACDBDICTIONARYWDFLT
  5
E
102
{ACAD_REACTORS
330
C
102
}
330
C
100
AcDbDictionary
281
     1
  3
Normal
350
F
100
AcDbDictionaryWithDefault
340
F
  0
DICTIONARY
  5
42
102
{ACAD_REACTORS
330
C
102
}
330
C
100
AcDbDictionary
281
     1
  3
A0
350
43
  3
A1
350
44
  3
A2
350
45
  3
A3
350
46
  3
A4
350
47
  3
A5
350
48
  3
A6
350
49
  3
A7
350
4A
  3
A8
350
4B
  3
A9
350
4C
  3
B0
350
4D
  3
B1
350
4E
  3
B2
350
4F
  3
B3
350
50
  3
B4
350
51
  3
B5
350
52
  3
B6
350
53
  0
DICTIONARY
  5
68
102
{ACAD_REACTORS
330
C
102
}
330
C
100
AcDbDictionary
281
     1
  3
Metric50
350
69
  0
DICTIONARY
  5
64
102
{ACAD_REACTORS
330
C
102
}
330
C
100
AcDbDictionary
281
     1
  3
Standard
350
65
  0
DICTIONARY
  5
29
102
{ACAD_REACTORS
330
C
102
}
330
C
100
AcDbDictionary
281
     1
  3
2dWireframe
350
2F
  3
Basic
350
2E
  3
Brighten
350
35
  3
ColorChange
350
39
  3
Conceptual
350
32
  3
Dim
350
34
  3
EdgeColorOff
350
41
  3
Facepattern
350
38
  3
Flat
350
2A
  3
FlatWithEdges
350
2B
  3
Gouraud
350
2C
  3
GouraudWithEdges
350
2D
  3
Hidden
350
31
  3
JitterOff
350
3F
  3
Linepattern
350
37
  3
OverhangOff
350
40
  3
Realistic
350
33
  3
Shaded
350
3E
  3
Shaded with edges
350
3D
  3
Shades of Gray
350
3A
  3
Sketchy
350
3B
  3
Thicken
350
36
  3
Wireframe
350
30
  3
X-Ray
350
3C
  0
XRECORD
  5
439
102
{ACAD_REACTORS
330
C
102
}
330
C
100
AcDbXrecord
280
     1
 90
        1
330
65
330
2D4
330
2D6
330
31C
330
31E
  0
DICTIONARY
  5
78
102
{ACAD_REACTORS
330
C
102
}
330
C
100
AcDbDictionary
281
     1
  3
CANNOSCALE
350
432
  3
CENTEREXE
350
79
  3
CENTERLTYPEFILE
350
7A
  3
CMLEADERSTYLE
350
42F
  3
CTABLESTYLE
350
42E
  3
CVIEWDETAILSTYLE
350
430
  3
CVIEWSECTIONSTYLE
350
431
  3
XCLIPFRAME
350
433
  0
DICTIONARY
  5
43F
102
{ACAD_REACTORS
330
C
102
}
330
C
100
AcDbDictionary
281
     1
  3
AcDsRecords
350
441
  3
AcDsSchemas
350
440
1001
ACAD
1070
     2
  0
DICTIONARY
  5
204
102
{ACAD_REACTORS
330
C
102
}
330
C
100
AcDbDictionary
281
     1
  0
DICTIONARY
  5
E3
102
{ACAD_REACTORS
330
E2
102
}
330
E2
100
AcDbDictionary
281
     1
  0
DIMASSOC
  5
294
102
{ACAD_REACTORS
330
293
102
}
330
293
100
AcDbDimAssoc
330
292
 90
        1
 70
     0
 71
     0
  1
AcDbOsnapPointRef
 72
    13
331
26E
 73
     2
 91
        0
 40
0.0
 10
0.0
 20
0.0
 30
2.000000000000000E+50
 75
     0
  0
XRECORD
  5
436
102
{ACAD_REACTORS
330
2D5
102
}
330
2D5
100
AcDbXrecord
280
     1
 40
4784.0
  1
\pxqr;Rev:B 2.11.21
  0
XRECORD
  5
437
102
{ACAD_REACTORS
330
31D
102
}
330
31D
100
AcDbXrecord
280
     1
 40
109764.0
  1
\pxql;Balustrade.\Psubject to change\Pwithout notice.
  0
XRECORD
  5
438
102
{ACAD_REACTORS
330
31F
102
}
330
31F
100
AcDbXrecord
280
     1
 40
8360855.0
  1
\pxi-3,l4,ql,t4;-       Applicable to occupancy types A, B, C3 & E.\P-^IThis fixing detail PS1 should be used in conjunction with the appropriate system PS1.\P-^IThis is a balustrade connection detail. Deck design, construction and  water-proofing is t
  1
he responsibility of others. For all other applications or non-standard or site specific connections not covered under the standard detail manual please contact Spectrum.
  0
ACDBDETAILVIEWSTYLE
  5
6B
102
{ACAD_XDICTIONARY
360
477
102
}
102
{ACAD_REACTORS
330
6A
102
}
330
6A
100
AcDbModelDocViewStyle
 70
     0
  3
Metric50
290
     0
100
AcDbDetailViewStyle
 70
     0
 71
     0
 90
        3
 71
     1
340
55
 62
   256
 40
5.0
340
0
 62
   256
 40
5.0
300

 40
0.36
280
     1
 71
     2
340
5D
 90
       25
 62
   256
 71
     3
340
55
 62
   256
 40
5.0
 90
        0
 40
15.0
 90
        1
300
%<\AcVar ViewDetailId>% (%<\AcVar ViewScale \f "%sn">%)
 71
     4
340
5D
 90
       25
 62
   256
340
5D
 90
       25
 62
   256
280
     0
  0
LAYOUT
  5
6F
102
{ACAD_REACTORS
330
62
102
}
330
62
100
AcDbPlotSettings
  1

  2
C:\Users\leeh\AppData\Roaming\Autodesk\AutoCAD LT 2022\R28\enu\plotters\AutoCAD PDF.pc3
  4

  6

 40
0.0
 41
0.0
 42
0.0
 43
0.0
 44
0.0
 45
0.0
 46
0.0
 47
0.0
 48
0.0
 49
0.0
140
0.0
141
0.0
142
1.0
143
1.0
 70
   688
 72
     0
 73
     0
 74
     5
  7

 75
    16
147
1.0
 76
     0
 77
     2
 78
   300
148
0.0
149
0.0
100
AcDbLayout
  1
Layout1
 70
     1
 71
     1
 10
0.0
 20
0.0
 11
420.0
 21
297.0
 12
0.0
 22
0.0
 32
0.0
 14
1.000000000000000E+20
 24
1.000000000000000E+20
 34
1.000000000000000E+20
 15
-1.000000000000000E+20
 25
-1.000000000000000E+20
 35
-1.000000000000000E+20
146
0.0
 13
0.0
 23
0.0
 33
0.0
 16
1.0
 26
0.0
 36
0.0
 17
0.0
 27
1.0
 37
0.0
 76
     0
330
6C
  0
LAYOUT
  5
77
102
{ACAD_REACTORS
330
62
102
}
330
62
100
AcDbPlotSettings
  1

  2
C:\Users\leeh\AppData\Roaming\Autodesk\AutoCAD LT 2022\R28\enu\plotters\AutoCAD PDF.pc3
  4

  6

 40
0.0
 41
0.0
 42
0.0
 43
0.0
 44
0.0
 45
0.0
 46
0.0
 47
0.0
 48
0.0
 49
0.0
140
0.0
141
0.0
142
1.0
143
1.0
 70
   688
 72
     0
 73
     0
 74
     5
  7

 75
    16
147
1.0
 76
     0
 77
     2
 78
   300
148
0.0
149
0.0
100
AcDbLayout
  1
Layout2
 70
     1
 71
     2
 10
0.0
 20
0.0
 11
12.0
 21
9.0
 12
0.0
 22
0.0
 32
0.0
 14
0.0
 24
0.0
 34
0.0
 15
0.0
 25
0.0
 35
0.0
146
0.0
 13
0.0
 23
0.0
 33
0.0
 16
1.0
 26
0.0
 36
0.0
 17
0.0
 27
1.0
 37
0.0
 76
     0
330
74
  0
LAYOUT
  5
73
102
{ACAD_REACTORS
330
62
102
}
330
62
100
AcDbPlotSettings
  1

  2
C:\Users\leeh\AppData\Roaming\Autodesk\AutoCAD LT 2022\R28\enu\plotters\AutoCAD PDF.pc3
  4

  6

 40
0.0
 41
0.0
 42
0.0
 43
0.0
 44
0.0
 45
0.0
 46
0.0
 47
0.0
 48
0.0
 49
0.0
140
0.0
141
0.0
142
1.0
143
1.0
 70
  1712
 72
     0
 73
     0
 74
     0
  7

 75
     0
147
1.0
 76
     0
 77
     2
 78
   300
148
0.0
149
0.0
100
AcDbLayout
  1
Model
 70
     1
 71
     0
 10
0.0
 20
0.0
 11
12.0
 21
9.0
 12
0.0
 22
0.0
 32
0.0
 14
0.0
 24
0.0
 34
0.0
 15
0.0
 25
0.0
 35
0.0
146
0.0
 13
0.0
 23
0.0
 33
0.0
 16
1.0
 26
0.0
 36
0.0
 17
0.0
 27
1.0
 37
0.0
 76
     0
330
70
331
57
  0
MATERIAL
  5
19
102
{ACAD_XDICTIONARY
360
1A
102
}
102
{ACAD_REACTORS
330
10
102
}
330
10
100
AcDbMaterial
  1
ByBlock
 72
     0
 43
0.0208333333333333
 43
0.0
 43
0.0
 43
0.0
 43
0.0
 43
0.0208333333333333
 43
0.0
 43
0.0
 43
0.0
 43
0.0
 43
1.0
 43
0.0
 43
0.0
 43
0.0
 43
0.0
 43
1.0
 77
     0
 47
0.0208333333333333
 47
0.0
 47
0.0
 47
0.0
 47
0.0
 47
0.0208333333333333
 47
0.0
 47
0.0
 47
0.0
 47
0.0
 47
1.0
 47
0.0
 47
0.0
 47
0.0
 47
0.0
 47
1.0
171
     0
 49
0.0208333333333333
 49
0.0
 49
0.0
 49
0.0
 49
0.0
 49
0.0208333333333333
 49
0.0
 49
0.0
 49
0.0
 49
0.0
 49
1.0
 49
0.0
 49
0.0
 49
0.0
 49
0.0
 49
1.0
175
     0
142
0.0208333333333333
142
0.0
142
0.0
142
0.0
142
0.0
142
0.0208333333333333
142
0.0
142
0.0
142
0.0
142
0.0
142
1.0
142
0.0
142
0.0
142
0.0
142
0.0
142
1.0
179
     0
144
0.0208333333333333
144
0.0
144
0.0
144
0.0
144
0.0
144
0.0208333333333333
144
0.0
144
0.0
144
0.0
144
0.0
144
1.0
144
0.0
144
0.0
144
0.0
144
0.0
144
1.0
147
0.0208333333333333
147
0.0
147
0.0
147
0.0
147
0.0
147
0.0208333333333333
147
0.0
147
0.0
147
0.0
147
0.0
147
1.0
147
0.0
147
0.0
147
0.0
147
0.0
147
1.0
  0
MATERIAL
  5
11
102
{ACAD_XDICTIONARY
360
12
102
}
102
{ACAD_REACTORS
330
10
102
}
330
10
100
AcDbMaterial
  1
ByLayer
 72
     0
 43
0.0208333333333333
 43
0.0
 43
0.0
 43
0.0
 43
0.0
 43
0.0208333333333333
 43
0.0
 43
0.0
 43
0.0
 43
0.0
 43
1.0
 43
0.0
 43
0.0
 43
0.0
 43
0.0
 43
1.0
 77
     0
 47
0.0208333333333333
 47
0.0
 47
0.0
 47
0.0
 47
0.0
 47
0.0208333333333333
 47
0.0
 47
0.0
 47
0.0
 47
0.0
 47
1.0
 47
0.0
 47
0.0
 47
0.0
 47
0.0
 47
1.0
171
     0
 49
0.0208333333333333
 49
0.0
 49
0.0
 49
0.0
 49
0.0
 49
0.0208333333333333
 49
0.0
 49
0.0
 49
0.0
 49
0.0
 49
1.0
 49
0.0
 49
0.0
 49
0.0
 49
0.0
 49
1.0
175
     0
142
0.0208333333333333
142
0.0
142
0.0
142
0.0
142
0.0
142
0.0208333333333333
142
0.0
142
0.0
142
0.0
142
0.0
142
1.0
142
0.0
142
0.0
142
0.0
142
0.0
142
1.0
179
     0
144
0.0208333333333333
144
0.0
144
0.0
144
0.0
144
0.0
144
0.0208333333333333
144
0.0
144
0.0
144
0.0
144
0.0
144
1.0
144
0.0
144
0.0
144
0.0
144
0.0
144
1.0
147
0.0208333333333333
147
0.0
147
0.0
147
0.0
147
0.0
147
0.0208333333333333
147
0.0
147
0.0
147
0.0
147
0.0
147
1.0
147
0.0
147
0.0
147
0.0
147
0.0
147
1.0
  0
MATERIAL
  5
21
102
{ACAD_XDICTIONARY
360
22
102
}
102
{ACAD_REACTORS
330
10
102
}
330
10
100
AcDbMaterial
  1
Global
 72
     0
 43
0.0208333333333333
 43
0.0
 43
0.0
 43
0.0
 43
0.0
 43
0.0208333333333333
 43
0.0
 43
0.0
 43
0.0
 43
0.0
 43
1.0
 43
0.0
 43
0.0
 43
0.0
 43
0.0
 43
1.0
 77
     0
 47
0.0208333333333333
 47
0.0
 47
0.0
 47
0.0
 47
0.0
 47
0.0208333333333333
 47
0.0
 47
0.0
 47
0.0
 47
0.0
 47
1.0
 47
0.0
 47
0.0
 47
0.0
 47
0.0
 47
1.0
171
     0
 49
0.0208333333333333
 49
0.0
 49
0.0
 49
0.0
 49
0.0
 49
0.0208333333333333
 49
0.0
 49
0.0
 49
0.0
 49
0.0
 49
1.0
 49
0.0
 49
0.0
 49
0.0
 49
0.0
 49
1.0
175
     0
142
0.0208333333333333
142
0.0
142
0.0
142
0.0
142
0.0
142
0.0208333333333333
142
0.0
142
0.0
142
0.0
142
0.0
142
1.0
142
0.0
142
0.0
142
0.0
142
0.0
142
1.0
179
     0
144
0.0208333333333333
144
0.0
144
0.0
144
0.0
144
0.0
144
0.0208333333333333
144
0.0
144
0.0
144
0.0
144
0.0
144
1.0
144
0.0
144
0.0
144
0.0
144
0.0
144
1.0
147
0.0208333333333333
147
0.0
147
0.0
147
0.0
147
0.0
147
0.0208333333333333
147
0.0
147
0.0
147
0.0
147
0.0
147
1.0
147
0.0
147
0.0
147
0.0
147
0.0
147
1.0
  0
MLEADERSTYLE
  5
67
102
{ACAD_XDICTIONARY
360
473
102
}
102
{ACAD_REACTORS
330
66
102
}
330
66
100
AcDbMLeaderStyle
170
     2
171
     1
172
     0
 90
        2
 40
0.0
 41
0.0
173
     1
 91
-1056964608
340
5B
 92
       -2
290
     1
 42
0.09
291
     1
 43
0.36
  3
Standard
 44
0.18
300

342
55
174
     1
178
     6
175
     1
176
     0
 93
-1056964608
 45
0.18
292
     0
297
     0
 46
0.18
 94
-1056964608
 47
1.0
 49
1.0
140
1.0
293
     1
141
0.0
294
     1
177
     0
142
1.0
295
     0
296
     0
143
0.125
1001
ACAD_MLEADERVER
1070
     2
  0
MLINESTYLE
  5
60
102
{ACAD_REACTORS
330
5F
102
}
330
5F
100
AcDbMlineStyle
  2
STANDARD
 70
     0
  3

 62
   256
 51
90.0
 52
90.0
 71
     2
 49
0.5
 62
   256
  6
BYLAYER
 49
-0.5
 62
   256
  6
BYLAYER
  0
ACDBPLACEHOLDER
  5
F
102
{ACAD_REACTORS
330
E
102
}
330
E
  0
SCALE
  5
43
102
{ACAD_REACTORS
330
42
102
}
330
42
100
AcDbScale
 70
     0
300
1:1
140
1.0
141
1.0
290
     1
  0
SCALE
  5
44
102
{ACAD_REACTORS
330
42
102
}
330
42
100
AcDbScale
 70
     0
300
1:2
140
1.0
141
2.0
290
     0
  0
SCALE
  5
45
102
{ACAD_REACTORS
330
42
102
}
330
42
100
AcDbScale
 70
     0
300
1:4
140
1.0
141
4.0
290
     0
  0
SCALE
  5
46
102
{ACAD_REACTORS
330
42
102
}
330
42
100
AcDbScale
 70
     0
300
1:5
140
1.0
141
5.0
290
     0
  0
SCALE
  5
47
102
{ACAD_REACTORS
330
42
102
}
330
42
100
AcDbScale
 70
     0
300
1:8
140
1.0
141
8.0
290
     0
  0
SCALE
  5
48
102
{ACAD_REACTORS
330
42
102
}
330
42
100
AcDbScale
 70
     0
300
1:10
140
1.0
141
10.0
290
     0
  0
SCALE
  5
49
102
{ACAD_REACTORS
330
42
102
}
330
42
100
AcDbScale
 70
     0
300
1:16
140
1.0
141
16.0
290
     0
  0
SCALE
  5
4A
102
{ACAD_REACTORS
330
42
102
}
330
42
100
AcDbScale
 70
     0
300
1:20
140
1.0
141
20.0
290
     0
  0
SCALE
  5
4B
102
{ACAD_REACTORS
330
42
102
}
330
42
100
AcDbScale
 70
     0
300
1:30
140
1.0
141
30.0
290
     0
  0
SCALE
  5
4C
102
{ACAD_REACTORS
330
42
102
}
330
42
100
AcDbScale
 70
     0
300
1:40
140
1.0
141
40.0
290
     0
  0
SCALE
  5
4D
102
{ACAD_REACTORS
330
42
102
}
330
42
100
AcDbScale
 70
     0
300
1:50
140
1.0
141
50.0
290
     0
  0
SCALE
  5
4E
102
{ACAD_REACTORS
330
42
102
}
330
42
100
AcDbScale
 70
     0
300
1:100
140
1.0
141
100.0
290
     0
  0
SCALE
  5
4F
102
{ACAD_REACTORS
330
42
102
}
330
42
100
AcDbScale
 70
     0
300
2:1
140
2.0
141
1.0
290
     0
  0
SCALE
  5
50
102
{ACAD_REACTORS
330
42
102
}
330
42
100
AcDbScale
 70
     0
300
4:1
140
4.0
141
1.0
290
     0
  0
SCALE
  5
51
102
{ACAD_REACTORS
330
42
102
}
330
42
100
AcDbScale
 70
     0
300
8:1
140
8.0
141
1.0
290
     0
  0
SCALE
  5
52
102
{ACAD_REACTORS
330
42
102
}
330
42
100
AcDbScale
 70
     0
300
10:1
140
10.0
141
1.0
290
     0
  0
SCALE
  5
53
102
{ACAD_REACTORS
330
42
102
}
330
42
100
AcDbScale
 70
     0
300
100:1
140
100.0
141
1.0
290
     0
  0
ACDBSECTIONVIEWSTYLE
  5
69
102
{ACAD_XDICTIONARY
360
475
102
}
102
{ACAD_REACTORS
330
68
102
}
330
68
100
AcDbModelDocViewStyle
 70
     0
  3
Metric50
290
     0
100
AcDbSectionViewStyle
 70
     0
 71
     0
 90
      102
 71
     1
340
55
 62
   256
 40
5.0
340
0
340
0
 62
   256
 40
5.0
300
I, O, Q, S, X, Z
 40
10.0
 90
        0
 40
2.5
 90
        0
 71
     2
340
5D
 90
       25
 62
   256
340
5D
 90
       50
 62
   256
 40
5.0
 40
2.5
 40
5.0
 71
     3
340
55
 62
   256
 40
5.0
 90
        0
 40
15.0
 90
        1
300
%<\AcVar ViewSectionStartId>%-%<\AcVar ViewSectionEndId>% (%<\AcVar ViewScale \f "%sn">%)
 71
     4
 62
   256
 62
   257
300
ANSI31
 40
1.0
 90
        0
290
     0
290
     0
 90
        6
 40
0.0
 40
1.570796326794896
 40
0.2617993877991494
 40
1.308996938995747
 40
-0.2617993877991494
 40
1.832595714594046
  0
TABLESTYLE
  5
65
102
{ACAD_XDICTIONARY
360
434
102
}
102
{ACAD_REACTORS
330
64
102
}
330
64
100
AcDbTableStyle
  3
Standard
 70
     0
 71
     0
 40
1.5
 41
1.5
280
     0
281
     0
  7
Standard
140
4.5
170
     2
 62
     0
 63
     7
283
     0
 90
      512
 91
        0
  1

274
    -2
284
     1
 64
     0
275
    -2
285
     1
 65
     0
276
    -2
286
     1
 66
     0
277
    -2
287
     1
 67
     0
278
    -2
288
     1
 68
     0
279
    -2
289
     1
 69
     0
  7
Standard
140
6.0
170
     5
 62
     0
 63
     7
283
     0
 90
      512
 91
        0
  1

274
    -2
284
     1
 64
     0
275
    -2
285
     1
 65
     0
276
    -2
286
     1
 66
     0
277
    -2
287
     1
 67
     0
278
    -2
288
     1
 68
     0
279
    -2
289
     1
 69
     0
  7
Standard
140
4.5
170
     5
 62
     0
 63
     7
283
     0
 90
      512
 91
        0
  1

274
    -2
284
     1
 64
     0
275
    -2
285
     1
 65
     0
276
    -2
286
     1
 66
     0
277
    -2
287
     1
 67
     0
278
    -2
288
     1
 68
     0
279
    -2
289
     1
 69
     0
  0
VISUALSTYLE
  5
2F
102
{ACAD_XDICTIONARY
360
44C
102
}
102
{ACAD_REACTORS
330
29
102
}
330
29
100
AcDbVisualStyle
  2
2dWireframe
 70
     4
 71
     0
 72
     2
 73
     0
 90
        0
 40
-0.6
 41
-30.0
 62
     5
 63
     7
421
 16777215
 74
     1
 91
        4
 64
     7
 65
   257
 75
     1
175
     1
 42
1.0
 92
        0
 66
   257
 43
1.0
 76
     1
 77
     6
 78
     2
 67
     7
 79
     5
170
     0
171
     0
290
     0
174
     0
 93
        1
 44
0.0
173
     0
291
     0
 45
0.0
1001
ACAD
1000
AcDbSavedByObjectVersion
1070
     0
  0
VISUALSTYLE
  5
2E
102
{ACAD_XDICTIONARY
360
44A
102
}
102
{ACAD_REACTORS
330
29
102
}
330
29
100
AcDbVisualStyle
  2
Basic
 70
     7
 71
     1
 72
     0
 73
     1
 90
        0
 40
-0.6
 41
-30.0
 62
     5
 63
     7
421
 16777215
 74
     0
 91
        4
 64
     7
 65
   257
 75
     1
175
     1
 42
1.0
 92
        8
 66
     7
 43
1.0
 76
     1
 77
     6
 78
     2
 67
     7
 79
     5
170
     0
171
     0
290
     0
174
     0
 93
        1
 44
0.0
173
     0
291
     1
 45
0.0
1001
ACAD
1000
AcDbSavedByObjectVersion
1070
     0
  0
VISUALSTYLE
  5
35
102
{ACAD_XDICTIONARY
360
458
102
}
102
{ACAD_REACTORS
330
29
102
}
330
29
100
AcDbVisualStyle
  2
Brighten
 70
    12
 71
     2
 72
     2
 73
     0
 90
        0
 40
-0.6
 41
-30.0
 62
     5
 63
     7
421
 16777215
 74
     1
 91
        4
 64
     7
 65
   257
 75
     1
175
     1
 42
1.0
 92
        8
 66
     7
 43
1.0
 76
     1
 77
     6
 78
     2
 67
     7
 79
     5
170
     0
171
     0
290
     0
174
     0
 93
        1
 44
50.0
173
     0
291
     1
 45
0.0
1001
ACAD
1000
AcDbSavedByObjectVersion
1070
     0
  0
VISUALSTYLE
  5
39
102
{ACAD_XDICTIONARY
360
460
102
}
102
{ACAD_REACTORS
330
29
102
}
330
29
100
AcDbVisualStyle
  2
ColorChange
 70
    16
 71
     2
 72
     2
 73
     3
 90
        0
 40
-0.6
 41
-30.0
 62
     5
 63
     8
421
  8421504
 74
     1
 91
        4
 64
     7
 65
   257
 75
     1
175
     1
 42
1.0
 92
        8
 66
     8
424
  8421504
 43
1.0
 76
     1
 77
     6
 78
     2
 67
     7
 79
     5
170
     0
171
     0
290
     0
174
     0
 93
        1
 44
0.0
173
     0
291
     1
 45
0.0
1001
ACAD
1000
AcDbSavedByObjectVersion
1070
     0
  0
VISUALSTYLE
  5
32
102
{ACAD_XDICTIONARY
360
452
102
}
102
{ACAD_REACTORS
330
29
102
}
330
29
100
AcDbVisualStyle
  2
Conceptual
 70
     9
 71
     3
 72
     2
 73
     0
 90
        0
 40
-0.6
 41
-30.0
 62
     5
 63
     7
421
 16777215
 74
     2
 91
        2
 64
     7
 65
   257
 75
     1
175
     1
 42
179.0
 92
        8
 66
     7
 43
1.0
 76
     1
 77
     6
 78
     2
 67
     7
 79
     3
170
     0
171
     0
290
     0
174
     0
 93
        1
 44
0.0
173
     0
291
     0
 45
0.0
1001
ACAD
1000
AcDbSavedByObjectVersion
1070
     0
  0
VISUALSTYLE
  5
34
102
{ACAD_XDICTIONARY
360
456
102
}
102
{ACAD_REACTORS
330
29
102
}
330
29
100
AcDbVisualStyle
  2
Dim
 70
    11
 71
     2
 72
     2
 73
     0
 90
        0
 40
-0.6
 41
-30.0
 62
     5
 63
     7
421
 16777215
 74
     1
 91
        4
 64
     7
 65
   257
 75
     1
175
     1
 42
1.0
 92
        8
 66
     7
 43
1.0
 76
     1
 77
     6
 78
     2
 67
     7
 79
     5
170
     0
171
     0
290
     0
174
     0
 93
        1
 44
-50.0
173
     0
291
     1
 45
0.0
1001
ACAD
1000
AcDbSavedByObjectVersion
1070
     0
  0
VISUALSTYLE
  5
41
102
{ACAD_XDICTIONARY
360
470
102
}
102
{ACAD_REACTORS
330
29
102
}
330
29
100
AcDbVisualStyle
  2
EdgeColorOff
 70
    22
 71
     2
 72
     2
 73
     0
 90
        0
 40
-0.6
 41
-30.0
 62
     5
 63
     7
421
 16777215
 74
     1
 91
        4
 64
     7
 65
   257
 75
     1
175
     1
 42
1.0
 92
        8
 66
     7
 43
1.0
 76
     1
 77
     6
 78
     2
 67
     7
 79
     5
170
     0
171
     0
290
     0
174
     0
 93
        1
 44
0.0
173
     0
291
     1
 45
0.0
1001
ACAD
1000
AcDbSavedByObjectVersion
1070
     0
  0
VISUALSTYLE
  5
38
102
{ACAD_XDICTIONARY
360
45E
102
}
102
{ACAD_REACTORS
330
29
102
}
330
29
100
AcDbVisualStyle
  2
Facepattern
 70
    15
 71
     2
 72
     2
 73
     0
 90
        0
 40
-0.6
 41
-30.0
 62
     5
 63
     7
421
 16777215
 74
     1
 91
        4
 64
     7
 65
   257
 75
     1
175
     1
 42
1.0
 92
        8
 66
     7
 43
1.0
 76
     1
 77
     6
 78
     2
 67
     7
 79
     5
170
     0
171
     0
290
     0
174
     0
 93
        1
 44
0.0
173
     0
291
     1
 45
0.0
1001
ACAD
1000
AcDbSavedByObjectVersion
1070
     0
  0
VISUALSTYLE
  5
2A
102
{ACAD_XDICTIONARY
360
442
102
}
102
{ACAD_REACTORS
330
29
102
}
330
29
100
AcDbVisualStyle
  2
Flat
 70
     0
 71
     2
 72
     1
 73
     1
 90
        2
 40
-0.6
 41
30.0
 62
     5
 63
     7
421
 16777215
 74
     0
 91
        0
 64
     7
 65
   257
 75
     1
175
     1
 42
1.0
 92
        8
 66
     7
 43
1.0
 76
     1
 77
     6
 78
     2
 67
     7
 79
     5
170
     0
171
     0
290
     0
174
     0
 93
       13
 44
0.0
173
     0
291
     1
 45
0.0
1001
ACAD
1000
AcDbSavedByObjectVersion
1070
     0
  0
VISUALSTYLE
  5
2B
102
{ACAD_XDICTIONARY
360
444
102
}
102
{ACAD_REACTORS
330
29
102
}
330
29
100
AcDbVisualStyle
  2
FlatWithEdges
 70
     1
 71
     2
 72
     1
 73
     1
 90
        2
 40
-0.6
 41
30.0
 62
     5
 63
     7
421
 16777215
 74
     1
 91
        0
 64
     7
 65
   257
 75
     1
175
     1
 42
1.0
 92
        0
 66
   257
 43
1.0
 76
     1
 77
     6
 78
     2
 67
     7
 79
     5
170
     0
171
     0
290
     0
174
     0
 93
       13
 44
0.0
173
     0
291
     1
 45
0.0
1001
ACAD
1000
AcDbSavedByObjectVersion
1070
     0
  0
VISUALSTYLE
  5
2C
102
{ACAD_XDICTIONARY
360
446
102
}
102
{ACAD_REACTORS
330
29
102
}
330
29
100
AcDbVisualStyle
  2
Gouraud
 70
     2
 71
     2
 72
     2
 73
     1
 90
        2
 40
-0.6
 41
30.0
 62
     5
 63
     7
421
 16777215
 74
     0
 91
        0
 64
     7
 65
   257
 75
     1
175
     1
 42
1.0
 92
        0
 66
     7
 43
1.0
 76
     1
 77
     6
 78
     2
 67
     7
 79
     5
170
     0
171
     0
290
     0
174
     0
 93
       13
 44
0.0
173
     0
291
     1
 45
0.0
1001
ACAD
1000
AcDbSavedByObjectVersion
1070
     0
  0
VISUALSTYLE
  5
2D
102
{ACAD_XDICTIONARY
360
448
102
}
102
{ACAD_REACTORS
330
29
102
}
330
29
100
AcDbVisualStyle
  2
GouraudWithEdges
 70
     3
 71
     2
 72
     2
 73
     1
 90
        2
 40
-0.6
 41
30.0
 62
     5
 63
     7
421
 16777215
 74
     1
 91
        0
 64
     7
 65
   257
 75
     1
175
     1
 42
1.0
 92
        0
 66
   257
 43
1.0
 76
     1
 77
     6
 78
     2
 67
     7
 79
     5
170
     0
171
     0
290
     0
174
     0
 93
       13
 44
0.0
173
     0
291
     1
 45
0.0
1001
ACAD
1000
AcDbSavedByObjectVersion
1070
     0
  0
VISUALSTYLE
  5
31
102
{ACAD_XDICTIONARY
360
450
102
}
102
{ACAD_REACTORS
330
29
102
}
330
29
100
AcDbVisualStyle
  2
Hidden
 70
     6
 71
     1
 72
     2
 73
     2
 90
        0
 40
-0.6
 41
-30.0
 62
     5
 63
     7
421
 16777215
 74
     2
 91
        2
 64
     7
 65
   257
 75
     2
175
     1
 42
40.0
 92
        0
 66
   257
 43
1.0
 76
     1
 77
     6
 78
     2
 67
     7
 79
     3
170
     0
171
     0
290
     0
174
     0
 93
        1
 44
0.0
173
     0
291
     0
 45
0.0
1001
ACAD
1000
AcDbSavedByObjectVersion
1070
     0
  0
VISUALSTYLE
  5
3F
102
{ACAD_XDICTIONARY
360
46C
102
}
102
{ACAD_REACTORS
330
29
102
}
330
29
100
AcDbVisualStyle
  2
JitterOff
 70
    20
 71
     2
 72
     2
 73
     0
 90
        0
 40
-0.6
 41
-30.0
 62
     5
 63
     7
421
 16777215
 74
     1
 91
        4
 64
     7
 65
   257
 75
     1
175
     1
 42
1.0
 92
       10
 66
     7
 43
1.0
 76
     1
 77
     6
 78
     2
 67
     7
 79
     5
170
     0
171
     0
290
     0
174
     0
 93
        1
 44
0.0
173
     0
291
     1
 45
0.0
1001
ACAD
1000
AcDbSavedByObjectVersion
1070
     0
  0
VISUALSTYLE
  5
37
102
{ACAD_XDICTIONARY
360
45C
102
}
102
{ACAD_REACTORS
330
29
102
}
330
29
100
AcDbVisualStyle
  2
Linepattern
 70
    14
 71
     2
 72
     2
 73
     0
 90
        0
 40
-0.6
 41
-30.0
 62
     5
 63
     7
421
 16777215
 74
     1
 91
        4
 64
     7
 65
   257
 75
     7
175
     7
 42
1.0
 92
        8
 66
     7
 43
1.0
 76
     1
 77
     6
 78
     2
 67
     7
 79
     5
170
     0
171
     0
290
     0
174
     0
 93
        1
 44
0.0
173
     0
291
     1
 45
0.0
1001
ACAD
1000
AcDbSavedByObjectVersion
1070
     0
  0
VISUALSTYLE
  5
40
102
{ACAD_XDICTIONARY
360
46E
102
}
102
{ACAD_REACTORS
330
29
102
}
330
29
100
AcDbVisualStyle
  2
OverhangOff
 70
    21
 71
     2
 72
     2
 73
     0
 90
        0
 40
-0.6
 41
-30.0
 62
     5
 63
     7
421
 16777215
 74
     1
 91
        4
 64
     7
 65
   257
 75
     1
175
     1
 42
1.0
 92
        9
 66
     7
 43
1.0
 76
     1
 77
     6
 78
     2
 67
     7
 79
     5
170
     0
171
     0
290
     0
174
     0
 93
        1
 44
0.0
173
     0
291
     1
 45
0.0
1001
ACAD
1000
AcDbSavedByObjectVersion
1070
     0
  0
VISUALSTYLE
  5
33
102
{ACAD_XDICTIONARY
360
454
102
}
102
{ACAD_REACTORS
330
29
102
}
330
29
100
AcDbVisualStyle
  2
Realistic
 70
     8
 71
     2
 72
     3
 73
     0
 90
        2
 40
-0.6
 41
30.0
 62
     5
 63
     7
421
 16777215
 74
     0
 91
        0
 64
     7
 65
   257
 75
     1
175
     1
 42
1.0
 92
        8
 66
   257
 43
1.0
 76
     1
 77
     6
 78
     2
 67
     7
 79
     3
170
     0
171
     0
290
     0
174
     0
 93
       13
 44
0.0
173
     0
291
     0
 45
0.0
1001
ACAD
1000
AcDbSavedByObjectVersion
1070
     0
  0
VISUALSTYLE
  5
3E
102
{ACAD_XDICTIONARY
360
46A
102
}
102
{ACAD_REACTORS
330
29
102
}
330
29
100
AcDbVisualStyle
  2
Shaded
 70
    27
 71
     2
 72
     2
 73
     1
 90
        2
 40
-0.6
 41
30.0
 62
     5
 63
     7
421
 16777215
 74
     0
 91
        4
 64
     7
 65
   257
 75
     1
175
     1
 42
1.0
 92
        8
 66
   257
 43
1.0
 76
     1
 77
     6
 78
     2
 67
     8
425
  7895160
 79
     3
170
     0
171
     0
290
     0
174
     0
 93
        5
 44
0.0
173
     0
291
     0
 45
0.0
1001
ACAD
1000
AcDbSavedByObjectVersion
1070
     0
  0
VISUALSTYLE
  5
3D
102
{ACAD_XDICTIONARY
360
468
102
}
102
{ACAD_REACTORS
330
29
102
}
330
29
100
AcDbVisualStyle
  2
Shaded with edges
 70
    26
 71
     2
 72
     2
 73
     1
 90
        2
 40
-0.6
 41
30.0
 62
     5
 63
     7
421
 16777215
 74
     1
 91
        2
 64
     7
 65
   257
 75
     2
175
     1
 42
1.0
 92
        8
 66
   257
 43
1.0
 76
     1
 77
     6
 78
     2
 67
     7
 79
     3
170
     0
171
     0
290
     0
174
     0
 93
        5
 44
0.0
173
     0
291
     0
 45
0.0
1001
ACAD
1000
AcDbSavedByObjectVersion
1070
     0
  0
VISUALSTYLE
  5
3A
102
{ACAD_XDICTIONARY
360
462
102
}
102
{ACAD_REACTORS
330
29
102
}
330
29
100
AcDbVisualStyle
  2
Shades of Gray
 70
    23
 71
     2
 72
     2
 73
     3
 90
        0
 40
-0.6
 41
-30.0
 62
     5
 63
     7
421
 16777215
 74
     2
 91
        2
 64
     7
 65
     7
 75
     1
175
     1
 42
40.0
 92
        8
 66
     7
 43
1.0
 76
     1
 77
     6
 78
     2
 67
     7
 79
     3
170
     0
171
     0
290
     0
174
     0
 93
        1
 44
0.0
173
     0
291
     0
 45
0.0
1001
ACAD
1000
AcDbSavedByObjectVersion
1070
     0
  0
VISUALSTYLE
  5
3B
102
{ACAD_XDICTIONARY
360
464
102
}
102
{ACAD_REACTORS
330
29
102
}
330
29
100
AcDbVisualStyle
  2
Sketchy
 70
    24
 71
     1
 72
     2
 73
     2
 90
        0
 40
-0.6
 41
-30.0
 62
     5
 63
     7
421
 16777215
 74
     2
 91
        2
 64
     7
 65
     7
 75
     1
175
     1
 42
40.0
 92
       11
 66
     7
 43
1.0
 76
     1
 77
     6
 78
     2
 67
     7
 79
     6
170
     0
171
     0
290
     0
174
     0
 93
        1
 44
0.0
173
     0
291
     0
 45
0.0
1001
ACAD
1000
AcDbSavedByObjectVersion
1070
     0
  0
VISUALSTYLE
  5
36
102
{ACAD_XDICTIONARY
360
45A
102
}
102
{ACAD_REACTORS
330
29
102
}
330
29
100
AcDbVisualStyle
  2
Thicken
 70
    13
 71
     2
 72
     2
 73
     0
 90
        0
 40
-0.6
 41
-30.0
 62
     5
 63
     7
421
 16777215
 74
     1
 91
        4
 64
     7
 65
   257
 75
     1
175
     1
 42
1.0
 92
       12
 66
     7
 43
1.0
 76
     1
 77
     6
 78
     2
 67
     7
 79
     5
170
     0
171
     0
290
     0
174
     0
 93
        1
 44
0.0
173
     0
291
     1
 45
0.0
1001
ACAD
1000
AcDbSavedByObjectVersion
1070
     0
  0
VISUALSTYLE
  5
30
102
{ACAD_XDICTIONARY
360
44E
102
}
102
{ACAD_REACTORS
330
29
102
}
330
29
100
AcDbVisualStyle
  2
Wireframe
 70
     5
 71
     0
 72
     2
 73
     0
 90
        0
 40
-0.6
 41
-30.0
 62
     5
 63
     7
421
 16777215
 74
     1
 91
        4
 64
     7
 65
   257
 75
     1
175
     1
 42
1.0
 92
        0
 66
   257
 43
1.0
 76
     1
 77
     6
 78
     2
 67
     7
 79
     3
170
     0
171
     0
290
     0
174
     0
 93
        1
 44
0.0
173
     0
291
     0
 45
0.0
1001
ACAD
1000
AcDbSavedByObjectVersion
1070
     0
  0
VISUALSTYLE
  5
3C
102
{ACAD_XDICTIONARY
360
466
102
}
102
{ACAD_REACTORS
330
29
102
}
330
29
100
AcDbVisualStyle
  2
X-Ray
 70
    25
 71
     2
 72
     2
 73
     1
 90
        1
 40
0.5
 41
-30.0
 62
     5
 63
     7
421
 16777215
 74
     1
 91
        0
 64
     7
 65
   257
 75
     1
175
     1
 42
1.0
 92
        8
 66
     7
 43
1.0
 76
     1
 77
     6
 78
     2
 67
     7
 79
     3
170
     0
171
     0
290
     0
174
     0
 93
       13
 44
0.0
173
     0
291
     0
 45
0.0
1001
ACAD
1000
AcDbSavedByObjectVersion
1070
     0
  0
DICTIONARYVAR
  5
432
102
{ACAD_REACTORS
330
78
102
}
330
78
100
DictionaryVariables
280
     0
  1
1:1
  0
DICTIONARYVAR
  5
79
102
{ACAD_REACTORS
330
78
102
}
330
78
100
DictionaryVariables
280
     0
  1
3.500000
  0
DICTIONARYVAR
  5
7A
102
{ACAD_REACTORS
330
78
102
}
330
78
100
DictionaryVariables
280
     0
  1
acadiso.lin
  0
DICTIONARYVAR
  5
42F
102
{ACAD_REACTORS
330
78
102
}
330
78
100
DictionaryVariables
280
     0
  1
STANDARD
  0
DICTIONARYVAR
  5
42E
102
{ACAD_REACTORS
330
78
102
}
330
78
100
DictionaryVariables
280
     0
  1
STANDARD
  0
DICTIONARYVAR
  5
430
102
{ACAD_REACTORS
330
78
102
}
330
78
100
DictionaryVariables
280
     0
  1
Metric50
  0
DICTIONARYVAR
  5
431
102
{ACAD_REACTORS
330
78
102
}
330
78
100
DictionaryVariables
280
     0
  1
Metric50
  0
DICTIONARYVAR
  5
433
102
{ACAD_REACTORS
330
78
102
}
330
78
100
DictionaryVariables
280
     0
  1
2
  0
DICTIONARY
  5
441
102
{ACAD_REACTORS
330
43F
102
}
330
43F
100
AcDbDictionary
281
     1
  0
DICTIONARY
  5
440
102
{ACAD_REACTORS
330
43F
102
}
330
43F
100
AcDbDictionary
281
     1
  3
2447613911072
350
43A
  3
2447613911088
350
43B
  3
2447613911104
350
43C
  3
2447613911120
350
43D
  3
2447613911136
350
43E
  0
DICTIONARY
  5
477
330
6B
100
AcDbDictionary
280
     1
281
     1
  3
ACAD_XREC_ROUNDTRIP
360
478
  0
DICTIONARY
  5
1A
330
19
100
AcDbDictionary
280
     1
281
     1
  3
BUMPTILE
360
1C
  3
DIFFUSETILE
360
1B
  3
OPACITYTILE
360
1F
  3
REFLECTIONTILE
360
1E
  3
REFRACTIONTILE
360
20
  3
SPECULARTILE
360
1D
  0
DICTIONARY
  5
12
330
11
100
AcDbDictionary
280
     1
281
     1
  3
BUMPTILE
360
14
  3
DIFFUSETILE
360
13
  3
OPACITYTILE
360
17
  3
REFLECTIONTILE
360
16
  3
REFRACTIONTILE
360
18
  3
SPECULARTILE
360
15
  0
DICTIONARY
  5
22
330
21
100
AcDbDictionary
280
     1
281
     1
  3
BUMPTILE
360
24
  3
DIFFUSETILE
360
23
  3
OPACITYTILE
360
27
  3
REFLECTIONTILE
360
26
  3
REFRACTIONTILE
360
28
  3
SPECULARTILE
360
25
  0
DICTIONARY
  5
473
330
67
100
AcDbDictionary
280
     1
281
     1
  3
ACAD_XREC_ROUNDTRIP
360
474
  0
DICTIONARY
  5
475
330
69
100
AcDbDictionary
280
     1
281
     1
  3
ACAD_XREC_ROUNDTRIP
360
476
  0
DICTIONARY
  5
434
330
65
100
AcDbDictionary
280
     1
281
     1
  3
ACAD_ROUNDTRIP_2008_TABLESTYLE_CELLSTYLEMAP
360
435
  0
DICTIONARY
  5
44C
330
2F
100
AcDbDictionary
280
     1
281
     1
  3
ACAD_XREC_ROUNDTRIP
360
44D
  0
DICTIONARY
  5
44A
330
2E
100
AcDbDictionary
280
     1
281
     1
  3
ACAD_XREC_ROUNDTRIP
360
44B
  0
DICTIONARY
  5
458
330
35
100
AcDbDictionary
280
     1
281
     1
  3
ACAD_XREC_ROUNDTRIP
360
459
  0
DICTIONARY
  5
460
330
39
100
AcDbDictionary
280
     1
281
     1
  3
ACAD_XREC_ROUNDTRIP
360
461
  0
DICTIONARY
  5
452
330
32
100
AcDbDictionary
280
     1
281
     1
  3
ACAD_XREC_ROUNDTRIP
360
453
  0
DICTIONARY
  5
456
330
34
100
AcDbDictionary
280
     1
281
     1
  3
ACAD_XREC_ROUNDTRIP
360
457
  0
DICTIONARY
  5
470
330
41
100
AcDbDictionary
280
     1
281
     1
  3
ACAD_XREC_ROUNDTRIP
360
471
  0
DICTIONARY
  5
45E
330
38
100
AcDbDictionary
280
     1
281
     1
  3
ACAD_XREC_ROUNDTRIP
360
45F
  0
DICTIONARY
  5
442
330
2A
100
AcDbDictionary
280
     1
281
     1
  3
ACAD_XREC_ROUNDTRIP
360
443
  0
DICTIONARY
  5
444
330
2B
100
AcDbDictionary
280
     1
281
     1
  3
ACAD_XREC_ROUNDTRIP
360
445
  0
DICTIONARY
  5
446
330
2C
100
AcDbDictionary
280
     1
281
     1
  3
ACAD_XREC_ROUNDTRIP
360
447
  0
DICTIONARY
  5
448
330
2D
100
AcDbDictionary
280
     1
281
     1
  3
ACAD_XREC_ROUNDTRIP
360
449
  0
DICTIONARY
  5
450
330
31
100
AcDbDictionary
280
     1
281
     1
  3
ACAD_XREC_ROUNDTRIP
360
451
  0
DICTIONARY
  5
46C
330
3F
100
AcDbDictionary
280
     1
281
     1
  3
ACAD_XREC_ROUNDTRIP
360
46D
  0
DICTIONARY
  5
45C
330
37
100
AcDbDictionary
280
     1
281
     1
  3
ACAD_XREC_ROUNDTRIP
360
45D
  0
DICTIONARY
  5
46E
330
40
100
AcDbDictionary
280
     1
281
     1
  3
ACAD_XREC_ROUNDTRIP
360
46F
  0
DICTIONARY
  5
454
330
33
100
AcDbDictionary
280
     1
281
     1
  3
ACAD_XREC_ROUNDTRIP
360
455
  0
DICTIONARY
  5
46A
330
3E
100
AcDbDictionary
280
     1
281
     1
  3
ACAD_XREC_ROUNDTRIP
360
46B
  0
DICTIONARY
  5
468
330
3D
100
AcDbDictionary
280
     1
281
     1
  3
ACAD_XREC_ROUNDTRIP
360
469
  0
DICTIONARY
  5
462
330
3A
100
AcDbDictionary
280
     1
281
     1
  3
ACAD_XREC_ROUNDTRIP
360
463
  0
DICTIONARY
  5
464
330
3B
100
AcDbDictionary
280
     1
281
     1
  3
ACAD_XREC_ROUNDTRIP
360
465
  0
DICTIONARY
  5
45A
330
36
100
AcDbDictionary
280
     1
281
     1
  3
ACAD_XREC_ROUNDTRIP
360
45B
  0
DICTIONARY
  5
44E
330
30
100
AcDbDictionary
280
     1
281
     1
  3
ACAD_XREC_ROUNDTRIP
360
44F
  0
DICTIONARY
  5
466
330
3C
100
AcDbDictionary
280
     1
281
     1
  3
ACAD_XREC_ROUNDTRIP
360
467
  0
XRECORD
  5
43A
102
{ACAD_REACTORS
330
440
102
}
330
440
100
AcDbXrecord
280
     1
  1
AcDb_Thumbnail_Schema
102
{ATTRRECORD
341
43B
  2
AcDbDs::TreatedAsObjectData
280
     1
291
     1
102
ATTRRECORD}
102
{ATTRRECORD
341
43C
  2
AcDbDs::Legacy
280
     1
291
     1
102
ATTRRECORD}
  2
AcDbDs::ID
280
    10
 91
        8
102
{ATTRRECORD
341
43D
  2
AcDs:Indexable
280
     1
291
     1
102
ATTRRECORD}
102
{ATTRRECORD
341
43E
  2
AcDbDs::HandleAttribute
280
     7
282
     1
102
ATTRRECORD}
  2
Thumbnail_Data
280
    15
 91
        0
  0
XRECORD
  5
43B
102
{ACAD_REACTORS
330
440
102
}
330
440
100
AcDbXrecord
280
     1
  1
AcDbDs::TreatedAsObjectDataSchema
  2
AcDbDs::TreatedAsObjectData
280
     1
 91
        0
  0
XRECORD
  5
43C
102
{ACAD_REACTORS
330
440
102
}
330
440
100
AcDbXrecord
280
     1
  1
AcDbDs::LegacySchema
  2
AcDbDs::Legacy
280
     1
 91
        0
  0
XRECORD
  5
43D
102
{ACAD_REACTORS
330
440
102
}
330
440
100
AcDbXrecord
280
     1
  1
AcDbDs::IndexedPropertySchema
  2
AcDs:Indexable
280
     1
 91
        0
  0
XRECORD
  5
43E
102
{ACAD_REACTORS
330
440
102
}
330
440
100
AcDbXrecord
280
     1
  1
AcDbDs::HandleAttributeSchema
  2
AcDbDs::HandleAttribute
280
     7
 91
        1
284
     1
  0
XRECORD
  5
478
102
{ACAD_REACTORS
330
477
102
}
330
477
100
AcDbXrecord
280
     1
102
DISPLAYNAME
  1
Metric50
102
FLAGS
 90
        0
  0
XRECORD
  5
1C
102
{ACAD_REACTORS
330
1A
102
}
330
1A
100
AcDbXrecord
280
     1
270
     1
271
     1
  0
XRECORD
  5
1B
102
{ACAD_REACTORS
330
1A
102
}
330
1A
100
AcDbXrecord
280
     1
270
     1
271
     1
  0
XRECORD
  5
1F
102
{ACAD_REACTORS
330
1A
102
}
330
1A
100
AcDbXrecord
280
     1
270
     1
271
     1
  0
XRECORD
  5
1E
102
{ACAD_REACTORS
330
1A
102
}
330
1A
100
AcDbXrecord
280
     1
270
     1
271
     1
  0
XRECORD
  5
20
102
{ACAD_REACTORS
330
1A
102
}
330
1A
100
AcDbXrecord
280
     1
270
     1
271
     1
  0
XRECORD
  5
1D
102
{ACAD_REACTORS
330
1A
102
}
330
1A
100
AcDbXrecord
280
     1
270
     1
271
     1
  0
XRECORD
  5
14
102
{ACAD_REACTORS
330
12
102
}
330
12
100
AcDbXrecord
280
     1
270
     1
271
     1
  0
XRECORD
  5
13
102
{ACAD_REACTORS
330
12
102
}
330
12
100
AcDbXrecord
280
     1
270
     1
271
     1
  0
XRECORD
  5
17
102
{ACAD_REACTORS
330
12
102
}
330
12
100
AcDbXrecord
280
     1
270
     1
271
     1
  0
XRECORD
  5
16
102
{ACAD_REACTORS
330
12
102
}
330
12
100
AcDbXrecord
280
     1
270
     1
271
     1
  0
XRECORD
  5
18
102
{ACAD_REACTORS
330
12
102
}
330
12
100
AcDbXrecord
280
     1
270
     1
271
     1
  0
XRECORD
  5
15
102
{ACAD_REACTORS
330
12
102
}
330
12
100
AcDbXrecord
280
     1
270
     1
271
     1
  0
XRECORD
  5
24
102
{ACAD_REACTORS
330
22
102
}
330
22
100
AcDbXrecord
280
     1
270
     1
271
     1
  0
XRECORD
  5
23
102
{ACAD_REACTORS
330
22
102
}
330
22
100
AcDbXrecord
280
     1
270
     1
271
     1
  0
XRECORD
  5
27
102
{ACAD_REACTORS
330
22
102
}
330
22
100
AcDbXrecord
280
     1
270
     1
271
     1
  0
XRECORD
  5
26
102
{ACAD_REACTORS
330
22
102
}
330
22
100
AcDbXrecord
280
     1
270
     1
271
     1
  0
XRECORD
  5
28
102
{ACAD_REACTORS
330
22
102
}
330
22
100
AcDbXrecord
280
     1
270
     1
271
     1
  0
XRECORD
  5
25
102
{ACAD_REACTORS
330
22
102
}
330
22
100
AcDbXrecord
280
     1
270
     1
271
     1
  0
XRECORD
  5
474
102
{ACAD_REACTORS
330
473
102
}
330
473
100
AcDbXrecord
280
     1
102
ACAD_ROUNDTRIP_2012_MLEADER_STYLE
298
     1
  0
XRECORD
  5
476
102
{ACAD_REACTORS
330
475
102
}
330
475
100
AcDbXrecord
280
     1
102
DISPLAYNAME
  1
Metric50
102
FLAGS
 90
        0
  0
CELLSTYLEMAP
  5
435
102
{ACAD_REACTORS
330
434
102
}
330
434
100
AcDbCellStyleMap
 90
        3
300
CELLSTYLE
  1
TABLEFORMAT_BEGIN
 90
        5
170
     1
 91
        0
 92
    32768
 62
   257
 93
        1
300
CONTENTFORMAT
  1
CONTENTFORMAT_BEGIN
 90
        0
 91
        0
 92
      512
 93
        0
300

 40
0.0
140
1.0
 94
        5
 62
     0
340
55
144
6.0
309
CONTENTFORMAT_END
171
     1
301
MARGIN
  1
CELLMARGIN_BEGIN
 40
1.5
 40
1.5
 40
1.5
 40
1.5
 40
4.5
 40
4.5
309
CELLMARGIN_END
 94
        6
 95
        1
302
GRIDFORMAT
  1
GRIDFORMAT_BEGIN
 90
        0
 91
        1
 62
     0
 92
       -2
340
0
 93
        0
 40
1.125
309
GRIDFORMAT_END
 95
        2
302
GRIDFORMAT
  1
GRIDFORMAT_BEGIN
 90
        0
 91
        1
 62
     0
 92
       -2
340
0
 93
        0
 40
1.125
309
GRIDFORMAT_END
 95
        4
302
GRIDFORMAT
  1
GRIDFORMAT_BEGIN
 90
        0
 91
        1
 62
     0
 92
       -2
340
0
 93
        0
 40
1.125
309
GRIDFORMAT_END
 95
        8
302
GRIDFORMAT
  1
GRIDFORMAT_BEGIN
 90
        0
 91
        1
 62
     0
 92
       -2
340
0
 93
        0
 40
1.125
309
GRIDFORMAT_END
 95
       16
302
GRIDFORMAT
  1
GRIDFORMAT_BEGIN
 90
        0
 91
        1
 62
     0
 92
       -2
340
0
 93
        0
 40
1.125
309
GRIDFORMAT_END
 95
       32
302
GRIDFORMAT
  1
GRIDFORMAT_BEGIN
 90
        0
 91
        1
 62
     0
 92
       -2
340
0
 93
        0
 40
1.125
309
GRIDFORMAT_END
309
TABLEFORMAT_END
  1
CELLSTYLE_BEGIN
 90
        1
 91
        1
300
_TITLE
309
CELLSTYLE_END
300
CELLSTYLE
  1
TABLEFORMAT_BEGIN
 90
        5
170
     1
 91
        0
 92
        0
 62
   257
 93
        1
300
CONTENTFORMAT
  1
CONTENTFORMAT_BEGIN
 90
        0
 91
        0
 92
      512
 93
        0
300

 40
0.0
140
1.0
 94
        5
 62
     0
340
55
144
4.5
309
CONTENTFORMAT_END
171
     1
301
MARGIN
  1
CELLMARGIN_BEGIN
 40
1.5
 40
1.5
 40
1.5
 40
1.5
 40
4.5
 40
4.5
309
CELLMARGIN_END
 94
        6
 95
        1
302
GRIDFORMAT
  1
GRIDFORMAT_BEGIN
 90
        0
 91
        1
 62
     0
 92
       -2
340
0
 93
        0
 40
1.125
309
GRIDFORMAT_END
 95
        2
302
GRIDFORMAT
  1
GRIDFORMAT_BEGIN
 90
        0
 91
        1
 62
     0
 92
       -2
340
0
 93
        0
 40
1.125
309
GRIDFORMAT_END
 95
        4
302
GRIDFORMAT
  1
GRIDFORMAT_BEGIN
 90
        0
 91
        1
 62
     0
 92
       -2
340
0
 93
        0
 40
1.125
309
GRIDFORMAT_END
 95
        8
302
GRIDFORMAT
  1
GRIDFORMAT_BEGIN
 90
        0
 91
        1
 62
     0
 92
       -2
340
0
 93
        0
 40
1.125
309
GRIDFORMAT_END
 95
       16
302
GRIDFORMAT
  1
GRIDFORMAT_BEGIN
 90
        0
 91
        1
 62
     0
 92
       -2
340
0
 93
        0
 40
1.125
309
GRIDFORMAT_END
 95
       32
302
GRIDFORMAT
  1
GRIDFORMAT_BEGIN
 90
        0
 91
        1
 62
     0
 92
       -2
340
0
 93
        0
 40
1.125
309
GRIDFORMAT_END
309
TABLEFORMAT_END
  1
CELLSTYLE_BEGIN
 90
        2
 91
        1
300
_HEADER
309
CELLSTYLE_END
300
CELLSTYLE
  1
TABLEFORMAT_BEGIN
 90
        5
170
     1
 91
        0
 92
        0
 62
   257
 93
        1
300
CONTENTFORMAT
  1
CONTENTFORMAT_BEGIN
 90
        0
 91
        0
 92
      512
 93
        0
300

 40
0.0
140
1.0
 94
        2
 62
     0
340
55
144
4.5
309
CONTENTFORMAT_END
171
     1
301
MARGIN
  1
CELLMARGIN_BEGIN
 40
1.5
 40
1.5
 40
1.5
 40
1.5
 40
4.5
 40
4.5
309
CELLMARGIN_END
 94
        6
 95
        1
302
GRIDFORMAT
  1
GRIDFORMAT_BEGIN
 90
        0
 91
        1
 62
     0
 92
       -2
340
0
 93
        0
 40
1.125
309
GRIDFORMAT_END
 95
        2
302
GRIDFORMAT
  1
GRIDFORMAT_BEGIN
 90
        0
 91
        1
 62
     0
 92
       -2
340
0
 93
        0
 40
1.125
309
GRIDFORMAT_END
 95
        4
302
GRIDFORMAT
  1
GRIDFORMAT_BEGIN
 90
        0
 91
        1
 62
     0
 92
       -2
340
0
 93
        0
 40
1.125
309
GRIDFORMAT_END
 95
        8
302
GRIDFORMAT
  1
GRIDFORMAT_BEGIN
 90
        0
 91
        1
 62
     0
 92
       -2
340
0
 93
        0
 40
1.125
309
GRIDFORMAT_END
 95
       16
302
GRIDFORMAT
  1
GRIDFORMAT_BEGIN
 90
        0
 91
        1
 62
     0
 92
       -2
340
0
 93
        0
 40
1.125
309
GRIDFORMAT_END
 95
       32
302
GRIDFORMAT
  1
GRIDFORMAT_BEGIN
 90
        0
 91
        1
 62
     0
 92
       -2
340
0
 93
        0
 40
1.125
309
GRIDFORMAT_END
309
TABLEFORMAT_END
  1
CELLSTYLE_BEGIN
 90
        3
 91
        2
300
_DATA
309
CELLSTYLE_END
  0
XRECORD
  5
44D
102
{ACAD_REACTORS
330
44C
102
}
330
44C
100
AcDbXrecord
280
     1
102
RTVSPost2010Prop28
280
     1
102
RTVSPost2010PropOp28
 70
     1
102
RTVSPost2010Prop29
280
     1
102
RTVSPost2010PropOp29
 70
     1
102
RTVSPost2010Prop30
280
     0
102
RTVSPost2010PropOp30
 70
     1
102
RTVSPost2010Prop31
280
     0
102
RTVSPost2010PropOp31
 70
     1
102
RTVSPost2010Prop32
280
     0
102
RTVSPost2010PropOp32
 70
     1
102
RTVSPost2010Prop33
280
     0
102
RTVSPost2010PropOp33
 70
     1
102
RTVSPost2010Prop34
280
     0
102
RTVSPost2010PropOp34
 70
     1
102
RTVSPost2010Prop35
280
     0
102
RTVSPost2010PropOp35
 70
     1
102
RTVSPost2010Prop36
280
     0
102
RTVSPost2010PropOp36
 70
     1
102
RTVSPost2010Prop37
 90
       50
102
RTVSPost2010PropOp37
 70
     1
102
RTVSPost2010Prop38
140
0.0
102
RTVSPost2010PropOp38
 70
     1
102
RTVSPost2010Prop39
140
1.0
102
RTVSPost2010PropOp39
 70
     1
102
RTVSPost2010Prop40
 90
        0
102
RTVSPost2010PropOp40
 70
     1
102
RTVSPost2010Prop41ColorIndex
 90
       18
102
RTVSPost2010Prop41ColorRGB
 90
        0
102
RTVSPost2010PropOp41
 70
     1
102
RTVSPost2010Prop42
 90
       50
102
RTVSPost2010PropOp42
 70
     1
102
RTVSPost2010Prop43
 90
        3
102
RTVSPost2010PropOp43
 70
     1
102
RTVSPost2010Prop44ColorIndex
 90
        5
102
RTVSPost2010Prop44ColorRGB
 90
      255
102
RTVSPost2010PropOp44
 70
     1
102
RTVSPost2010Prop45
280
     0
102
RTVSPost2010PropOp45
 70
     1
102
RTVSPost2010Prop46
 90
       50
102
RTVSPost2010PropOp46
 70
     1
102
RTVSPost2010Prop47
 90
       50
102
RTVSPost2010PropOp47
 70
     1
102
RTVSPost2010Prop48
 90
       50
102
RTVSPost2010PropOp48
 70
     1
102
RTVSPost2010Prop49
280
     0
102
RTVSPost2010PropOp49
 70
     1
102
RTVSPost2010Prop50
 90
       50
102
RTVSPost2010PropOp50
 70
     1
102
RTVSPost2010Prop51ColorIndex
 90
      256
102
RTVSPost2010Prop51ColorRGB
 90
-16777216
102
RTVSPost2010PropOp51
 70
     0
102
RTVSPost2010Prop52
140
1.0
102
RTVSPost2010PropOp52
 70
     0
102
RTVSPost2010Prop53
 90
        2
102
RTVSPost2010PropOp53
 70
     1
102
RTVSPost2010Prop54
  1
strokes_ogs.tif
102
RTVSPost2010PropOp54
 70
     1
102
RTVSPost2010Prop55
280
     0
102
RTVSPost2010PropOp55
 70
     1
102
RTVSPost2010Prop56
140
1.0
102
RTVSPost2010PropOp56
 70
     1
102
RTVSPost2010Prop57
140
1.0
102
RTVSPost2010PropOp57
 70
     1
102
RTVSPropertyOp0
 70
     1
102
RTVSPropertyOp1
 70
     1
102
RTVSPropertyOp2
 70
     1
102
RTVSPropertyOp3
 70
     1
102
RTVSPropertyOp4
 70
     1
102
RTVSPropertyOp5
 70
     1
102
RTVSPropertyOp6
 70
     1
102
RTVSPropertyOp7
 70
     1
102
RTVSPropertyOp8
 70
     1
102
RTVSPropertyOp9
 70
     1
102
RTVSPropertyOp10
 70
     1
102
RTVSPropertyOp11
 70
     1
102
RTVSPropertyOp12
 70
     1
102
RTVSPropertyOp13
 70
     1
102
RTVSPropertyOp14
 70
     1
102
RTVSPropertyOp15
 70
     1
102
RTVSPropertyOp16
 70
     1
102
RTVSPropertyOp17
 70
     1
102
RTVSPropertyOp18
 70
     1
102
RTVSPropertyOp19
 70
     1
102
RTVSPropertyOp20
 70
     1
102
RTVSPropertyOp21
 70
     1
102
RTVSPropertyOp22
 70
     1
102
RTVSPropertyOp23
 70
     1
102
RTVSPropertyOp24
 70
     1
102
RTVSPropertyOp25
 70
     1
102
RTVSPropertyOp26
 70
     1
102
RTVSPropertyOp27
 70
     1
102
RTVSPropertyOp28
 70
     1
102
RTVSPropertyOp29
 70
     1
102
RTVSPropertyOp30
 70
     1
102
RTVSPropertyOp31
 70
     1
102
RTVSPropertyOp32
 70
     1
102
RTVSPropertyOp33
 70
     1
102
RTVSPropertyOp34
 70
     1
102
RTVSPropertyOp35
 70
     1
102
RTVSPropertyOp36
 70
     1
102
RTVSPropertyOp37
 70
     1
102
RTVSPropertyOp38
 70
     1
102
RTVSPropertyOp39
 70
     1
102
RTVSPropertyOp40
 70
     1
102
RTVSPropertyOp41
 70
     1
102
RTVSPropertyOp42
 70
     1
102
RTVSPropertyOp43
 70
     1
102
RTVSPropertyOp44
 70
     1
102
RTVSPropertyOp45
 70
     1
102
RTVSPropertyOp46
 70
     1
102
RTVSPropertyOp47
 70
     1
102
RTVSPropertyOp48
 70
     1
102
RTVSPropertyOp49
 70
     1
102
RTVSPropertyOp50
 70
     1
102
RTVSPropertyOp51
 70
     0
102
RTVSPropertyOp52
 70
     0
102
RTVSPropertyOp53
 70
     1
102
RTVSPropertyOp54
 70
     1
102
RTVSPropertyOp55
 70
     1
102
RTVSPropertyOp56
 70
     1
102
RTVSPropertyOp57
 70
     1
102
RTVSPropertyOp58
 70
     1
102
RTVSPropertyOp59
 70
     1
102
RTVSPropertyOp60
 70
     1
102
RTVSPropertyOp61
 70
     1
102
RTVSPropertyOp62
 70
     1
  0
XRECORD
  5
44B
102
{ACAD_REACTORS
330
44A
102
}
330
44A
100
AcDbXrecord
280
     1
102
RTVSPost2010Prop28
280
     0
102
RTVSPost2010PropOp28
 70
     1
102
RTVSPost2010Prop29
280
     1
102
RTVSPost2010PropOp29
 70
     1
102
RTVSPost2010Prop30
280
     1
102
RTVSPost2010PropOp30
 70
     1
102
RTVSPost2010Prop31
280
     0
102
RTVSPost2010PropOp31
 70
     1
102
RTVSPost2010Prop32
280
     0
102
RTVSPost2010PropOp32
 70
     1
102
RTVSPost2010Prop33
280
     0
102
RTVSPost2010PropOp33
 70
     1
102
RTVSPost2010Prop34
280
     0
102
RTVSPost2010PropOp34
 70
     1
102
RTVSPost2010Prop35
280
     0
102
RTVSPost2010PropOp35
 70
     1
102
RTVSPost2010Prop36
280
     0
102
RTVSPost2010PropOp36
 70
     1
102
RTVSPost2010Prop37
 90
       50
102
RTVSPost2010PropOp37
 70
     1
102
RTVSPost2010Prop38
140
0.0
102
RTVSPost2010PropOp38
 70
     1
102
RTVSPost2010Prop39
140
1.0
102
RTVSPost2010PropOp39
 70
     1
102
RTVSPost2010Prop40
 90
        0
102
RTVSPost2010PropOp40
 70
     1
102
RTVSPost2010Prop41ColorIndex
 90
       18
102
RTVSPost2010Prop41ColorRGB
 90
        0
102
RTVSPost2010PropOp41
 70
     1
102
RTVSPost2010Prop42
 90
       50
102
RTVSPost2010PropOp42
 70
     1
102
RTVSPost2010Prop43
 90
        3
102
RTVSPost2010PropOp43
 70
     1
102
RTVSPost2010Prop44ColorIndex
 90
        5
102
RTVSPost2010Prop44ColorRGB
 90
      255
102
RTVSPost2010PropOp44
 70
     1
102
RTVSPost2010Prop45
280
     0
102
RTVSPost2010PropOp45
 70
     1
102
RTVSPost2010Prop46
 90
       50
102
RTVSPost2010PropOp46
 70
     1
102
RTVSPost2010Prop47
 90
       50
102
RTVSPost2010PropOp47
 70
     1
102
RTVSPost2010Prop48
 90
       50
102
RTVSPost2010PropOp48
 70
     1
102
RTVSPost2010Prop49
280
     0
102
RTVSPost2010PropOp49
 70
     1
102
RTVSPost2010Prop50
 90
       50
102
RTVSPost2010PropOp50
 70
     1
102
RTVSPost2010Prop51ColorIndex
 90
      256
102
RTVSPost2010Prop51ColorRGB
 90
-16777216
102
RTVSPost2010PropOp51
 70
     0
102
RTVSPost2010Prop52
140
1.0
102
RTVSPost2010PropOp52
 70
     0
102
RTVSPost2010Prop53
 90
        2
102
RTVSPost2010PropOp53
 70
     1
102
RTVSPost2010Prop54
  1
strokes_ogs.tif
102
RTVSPost2010PropOp54
 70
     1
102
RTVSPost2010Prop55
280
     0
102
RTVSPost2010PropOp55
 70
     1
102
RTVSPost2010Prop56
140
1.0
102
RTVSPost2010PropOp56
 70
     1
102
RTVSPost2010Prop57
140
1.0
102
RTVSPost2010PropOp57
 70
     1
102
RTVSPropertyOp0
 70
     1
102
RTVSPropertyOp1
 70
     1
102
RTVSPropertyOp2
 70
     1
102
RTVSPropertyOp3
 70
     1
102
RTVSPropertyOp4
 70
     1
102
RTVSPropertyOp5
 70
     1
102
RTVSPropertyOp6
 70
     1
102
RTVSPropertyOp7
 70
     1
102
RTVSPropertyOp8
 70
     1
102
RTVSPropertyOp9
 70
     1
102
RTVSPropertyOp10
 70
     1
102
RTVSPropertyOp11
 70
     1
102
RTVSPropertyOp12
 70
     1
102
RTVSPropertyOp13
 70
     1
102
RTVSPropertyOp14
 70
     1
102
RTVSPropertyOp15
 70
     1
102
RTVSPropertyOp16
 70
     1
102
RTVSPropertyOp17
 70
     1
102
RTVSPropertyOp18
 70
     1
102
RTVSPropertyOp19
 70
     1
102
RTVSPropertyOp20
 70
     1
102
RTVSPropertyOp21
 70
     1
102
RTVSPropertyOp22
 70
     1
102
RTVSPropertyOp23
 70
     1
102
RTVSPropertyOp24
 70
     1
102
RTVSPropertyOp25
 70
     1
102
RTVSPropertyOp26
 70
     1
102
RTVSPropertyOp27
 70
     1
102
RTVSPropertyOp28
 70
     1
102
RTVSPropertyOp29
 70
     1
102
RTVSPropertyOp30
 70
     1
102
RTVSPropertyOp31
 70
     1
102
RTVSPropertyOp32
 70
     1
102
RTVSPropertyOp33
 70
     1
102
RTVSPropertyOp34
 70
     1
102
RTVSPropertyOp35
 70
     1
102
RTVSPropertyOp36
 70
     1
102
RTVSPropertyOp37
 70
     1
102
RTVSPropertyOp38
 70
     1
102
RTVSPropertyOp39
 70
     1
102
RTVSPropertyOp40
 70
     1
102
RTVSPropertyOp41
 70
     1
102
RTVSPropertyOp42
 70
     1
102
RTVSPropertyOp43
 70
     1
102
RTVSPropertyOp44
 70
     1
102
RTVSPropertyOp45
 70
     1
102
RTVSPropertyOp46
 70
     1
102
RTVSPropertyOp47
 70
     1
102
RTVSPropertyOp48
 70
     1
102
RTVSPropertyOp49
 70
     1
102
RTVSPropertyOp50
 70
     1
102
RTVSPropertyOp51
 70
     0
102
RTVSPropertyOp52
 70
     0
102
RTVSPropertyOp53
 70
     1
102
RTVSPropertyOp54
 70
     1
102
RTVSPropertyOp55
 70
     1
102
RTVSPropertyOp56
 70
     1
102
RTVSPropertyOp57
 70
     1
102
RTVSPropertyOp58
 70
     1
102
RTVSPropertyOp59
 70
     1
102
RTVSPropertyOp60
 70
     1
102
RTVSPropertyOp61
 70
     1
102
RTVSPropertyOp62
 70
     1
  0
XRECORD
  5
459
102
{ACAD_REACTORS
330
458
102
}
330
458
100
AcDbXrecord
280
     1
102
RTVSPost2010Prop28
280
     0
102
RTVSPost2010PropOp28
 70
     1
102
RTVSPost2010Prop29
280
     1
102
RTVSPost2010PropOp29
 70
     1
102
RTVSPost2010Prop30
280
     1
102
RTVSPost2010PropOp30
 70
     1
102
RTVSPost2010Prop31
280
     0
102
RTVSPost2010PropOp31
 70
     1
102
RTVSPost2010Prop32
280
     0
102
RTVSPost2010PropOp32
 70
     1
102
RTVSPost2010Prop33
280
     0
102
RTVSPost2010PropOp33
 70
     1
102
RTVSPost2010Prop34
280
     0
102
RTVSPost2010PropOp34
 70
     1
102
RTVSPost2010Prop35
280
     0
102
RTVSPost2010PropOp35
 70
     1
102
RTVSPost2010Prop36
280
     0
102
RTVSPost2010PropOp36
 70
     1
102
RTVSPost2010Prop37
 90
       50
102
RTVSPost2010PropOp37
 70
     1
102
RTVSPost2010Prop38
140
0.0
102
RTVSPost2010PropOp38
 70
     1
102
RTVSPost2010Prop39
140
1.0
102
RTVSPost2010PropOp39
 70
     1
102
RTVSPost2010Prop40
 90
        0
102
RTVSPost2010PropOp40
 70
     1
102
RTVSPost2010Prop41ColorIndex
 90
       18
102
RTVSPost2010Prop41ColorRGB
 90
        0
102
RTVSPost2010PropOp41
 70
     1
102
RTVSPost2010Prop42
 90
       50
102
RTVSPost2010PropOp42
 70
     1
102
RTVSPost2010Prop43
 90
        3
102
RTVSPost2010PropOp43
 70
     1
102
RTVSPost2010Prop44ColorIndex
 90
        5
102
RTVSPost2010Prop44ColorRGB
 90
      255
102
RTVSPost2010PropOp44
 70
     1
102
RTVSPost2010Prop45
280
     0
102
RTVSPost2010PropOp45
 70
     1
102
RTVSPost2010Prop46
 90
       50
102
RTVSPost2010PropOp46
 70
     1
102
RTVSPost2010Prop47
 90
       50
102
RTVSPost2010PropOp47
 70
     1
102
RTVSPost2010Prop48
 90
       50
102
RTVSPost2010PropOp48
 70
     1
102
RTVSPost2010Prop49
280
     0
102
RTVSPost2010PropOp49
 70
     1
102
RTVSPost2010Prop50
 90
       50
102
RTVSPost2010PropOp50
 70
     1
102
RTVSPost2010Prop51ColorIndex
 90
      256
102
RTVSPost2010Prop51ColorRGB
 90
-16777216
102
RTVSPost2010PropOp51
 70
     0
102
RTVSPost2010Prop52
140
1.0
102
RTVSPost2010PropOp52
 70
     0
102
RTVSPost2010Prop53
 90
        2
102
RTVSPost2010PropOp53
 70
     1
102
RTVSPost2010Prop54
  1
strokes_ogs.tif
102
RTVSPost2010PropOp54
 70
     1
102
RTVSPost2010Prop55
280
     0
102
RTVSPost2010PropOp55
 70
     1
102
RTVSPost2010Prop56
140
1.0
102
RTVSPost2010PropOp56
 70
     1
102
RTVSPost2010Prop57
140
1.0
102
RTVSPost2010PropOp57
 70
     1
102
RTVSPropertyOp0
 70
     1
102
RTVSPropertyOp1
 70
     1
102
RTVSPropertyOp2
 70
     1
102
RTVSPropertyOp3
 70
     1
102
RTVSPropertyOp4
 70
     1
102
RTVSPropertyOp5
 70
     1
102
RTVSPropertyOp6
 70
     1
102
RTVSPropertyOp7
 70
     1
102
RTVSPropertyOp8
 70
     1
102
RTVSPropertyOp9
 70
     1
102
RTVSPropertyOp10
 70
     1
102
RTVSPropertyOp11
 70
     1
102
RTVSPropertyOp12
 70
     1
102
RTVSPropertyOp13
 70
     1
102
RTVSPropertyOp14
 70
     1
102
RTVSPropertyOp15
 70
     1
102
RTVSPropertyOp16
 70
     1
102
RTVSPropertyOp17
 70
     1
102
RTVSPropertyOp18
 70
     1
102
RTVSPropertyOp19
 70
     1
102
RTVSPropertyOp20
 70
     1
102
RTVSPropertyOp21
 70
     1
102
RTVSPropertyOp22
 70
     1
102
RTVSPropertyOp23
 70
     1
102
RTVSPropertyOp24
 70
     1
102
RTVSPropertyOp25
 70
     1
102
RTVSPropertyOp26
 70
     1
102
RTVSPropertyOp27
 70
     1
102
RTVSPropertyOp28
 70
     1
102
RTVSPropertyOp29
 70
     1
102
RTVSPropertyOp30
 70
     1
102
RTVSPropertyOp31
 70
     1
102
RTVSPropertyOp32
 70
     1
102
RTVSPropertyOp33
 70
     1
102
RTVSPropertyOp34
 70
     1
102
RTVSPropertyOp35
 70
     1
102
RTVSPropertyOp36
 70
     1
102
RTVSPropertyOp37
 70
     1
102
RTVSPropertyOp38
 70
     1
102
RTVSPropertyOp39
 70
     1
102
RTVSPropertyOp40
 70
     1
102
RTVSPropertyOp41
 70
     1
102
RTVSPropertyOp42
 70
     1
102
RTVSPropertyOp43
 70
     1
102
RTVSPropertyOp44
 70
     1
102
RTVSPropertyOp45
 70
     1
102
RTVSPropertyOp46
 70
     1
102
RTVSPropertyOp47
 70
     1
102
RTVSPropertyOp48
 70
     1
102
RTVSPropertyOp49
 70
     1
102
RTVSPropertyOp50
 70
     1
102
RTVSPropertyOp51
 70
     0
102
RTVSPropertyOp52
 70
     0
102
RTVSPropertyOp53
 70
     1
102
RTVSPropertyOp54
 70
     1
102
RTVSPropertyOp55
 70
     1
102
RTVSPropertyOp56
 70
     1
102
RTVSPropertyOp57
 70
     1
102
RTVSPropertyOp58
 70
     1
102
RTVSPropertyOp59
 70
     1
102
RTVSPropertyOp60
 70
     1
102
RTVSPropertyOp61
 70
     1
102
RTVSPropertyOp62
 70
     1
  0
XRECORD
  5
461
102
{ACAD_REACTORS
330
460
102
}
330
460
100
AcDbXrecord
280
     1
102
RTVSPost2010Prop28
280
     0
102
RTVSPost2010PropOp28
 70
     1
102
RTVSPost2010Prop29
280
     1
102
RTVSPost2010PropOp29
 70
     1
102
RTVSPost2010Prop30
280
     1
102
RTVSPost2010PropOp30
 70
     1
102
RTVSPost2010Prop31
280
     0
102
RTVSPost2010PropOp31
 70
     1
102
RTVSPost2010Prop32
280
     0
102
RTVSPost2010PropOp32
 70
     1
102
RTVSPost2010Prop33
280
     0
102
RTVSPost2010PropOp33
 70
     1
102
RTVSPost2010Prop34
280
     0
102
RTVSPost2010PropOp34
 70
     1
102
RTVSPost2010Prop35
280
     0
102
RTVSPost2010PropOp35
 70
     1
102
RTVSPost2010Prop36
280
     0
102
RTVSPost2010PropOp36
 70
     1
102
RTVSPost2010Prop37
 90
       50
102
RTVSPost2010PropOp37
 70
     1
102
RTVSPost2010Prop38
140
0.0
102
RTVSPost2010PropOp38
 70
     1
102
RTVSPost2010Prop39
140
1.0
102
RTVSPost2010PropOp39
 70
     1
102
RTVSPost2010Prop40
 90
        0
102
RTVSPost2010PropOp40
 70
     1
102
RTVSPost2010Prop41ColorIndex
 90
       18
102
RTVSPost2010Prop41ColorRGB
 90
        0
102
RTVSPost2010PropOp41
 70
     1
102
RTVSPost2010Prop42
 90
       50
102
RTVSPost2010PropOp42
 70
     1
102
RTVSPost2010Prop43
 90
        3
102
RTVSPost2010PropOp43
 70
     1
102
RTVSPost2010Prop44ColorIndex
 90
        5
102
RTVSPost2010Prop44ColorRGB
 90
      255
102
RTVSPost2010PropOp44
 70
     1
102
RTVSPost2010Prop45
280
     0
102
RTVSPost2010PropOp45
 70
     1
102
RTVSPost2010Prop46
 90
       50
102
RTVSPost2010PropOp46
 70
     1
102
RTVSPost2010Prop47
 90
       50
102
RTVSPost2010PropOp47
 70
     1
102
RTVSPost2010Prop48
 90
       50
102
RTVSPost2010PropOp48
 70
     1
102
RTVSPost2010Prop49
280
     0
102
RTVSPost2010PropOp49
 70
     1
102
RTVSPost2010Prop50
 90
       50
102
RTVSPost2010PropOp50
 70
     1
102
RTVSPost2010Prop51ColorIndex
 90
      256
102
RTVSPost2010Prop51ColorRGB
 90
-16777216
102
RTVSPost2010PropOp51
 70
     0
102
RTVSPost2010Prop52
140
1.0
102
RTVSPost2010PropOp52
 70
     0
102
RTVSPost2010Prop53
 90
        2
102
RTVSPost2010PropOp53
 70
     1
102
RTVSPost2010Prop54
  1
strokes_ogs.tif
102
RTVSPost2010PropOp54
 70
     1
102
RTVSPost2010Prop55
280
     0
102
RTVSPost2010PropOp55
 70
     1
102
RTVSPost2010Prop56
140
1.0
102
RTVSPost2010PropOp56
 70
     1
102
RTVSPost2010Prop57
140
1.0
102
RTVSPost2010PropOp57
 70
     1
102
RTVSPropertyOp0
 70
     1
102
RTVSPropertyOp1
 70
     1
102
RTVSPropertyOp2
 70
     1
102
RTVSPropertyOp3
 70
     1
102
RTVSPropertyOp4
 70
     1
102
RTVSPropertyOp5
 70
     1
102
RTVSPropertyOp6
 70
     1
102
RTVSPropertyOp7
 70
     1
102
RTVSPropertyOp8
 70
     1
102
RTVSPropertyOp9
 70
     1
102
RTVSPropertyOp10
 70
     1
102
RTVSPropertyOp11
 70
     1
102
RTVSPropertyOp12
 70
     1
102
RTVSPropertyOp13
 70
     1
102
RTVSPropertyOp14
 70
     1
102
RTVSPropertyOp15
 70
     1
102
RTVSPropertyOp16
 70
     1
102
RTVSPropertyOp17
 70
     1
102
RTVSPropertyOp18
 70
     1
102
RTVSPropertyOp19
 70
     1
102
RTVSPropertyOp20
 70
     1
102
RTVSPropertyOp21
 70
     1
102
RTVSPropertyOp22
 70
     1
102
RTVSPropertyOp23
 70
     1
102
RTVSPropertyOp24
 70
     1
102
RTVSPropertyOp25
 70
     1
102
RTVSPropertyOp26
 70
     1
102
RTVSPropertyOp27
 70
     1
102
RTVSPropertyOp28
 70
     1
102
RTVSPropertyOp29
 70
     1
102
RTVSPropertyOp30
 70
     1
102
RTVSPropertyOp31
 70
     1
102
RTVSPropertyOp32
 70
     1
102
RTVSPropertyOp33
 70
     1
102
RTVSPropertyOp34
 70
     1
102
RTVSPropertyOp35
 70
     1
102
RTVSPropertyOp36
 70
     1
102
RTVSPropertyOp37
 70
     1
102
RTVSPropertyOp38
 70
     1
102
RTVSPropertyOp39
 70
     1
102
RTVSPropertyOp40
 70
     1
102
RTVSPropertyOp41
 70
     1
102
RTVSPropertyOp42
 70
     1
102
RTVSPropertyOp43
 70
     1
102
RTVSPropertyOp44
 70
     1
102
RTVSPropertyOp45
 70
     1
102
RTVSPropertyOp46
 70
     1
102
RTVSPropertyOp47
 70
     1
102
RTVSPropertyOp48
 70
     1
102
RTVSPropertyOp49
 70
     1
102
RTVSPropertyOp50
 70
     1
102
RTVSPropertyOp51
 70
     0
102
RTVSPropertyOp52
 70
     0
102
RTVSPropertyOp53
 70
     1
102
RTVSPropertyOp54
 70
     1
102
RTVSPropertyOp55
 70
     1
102
RTVSPropertyOp56
 70
     1
102
RTVSPropertyOp57
 70
     1
102
RTVSPropertyOp58
 70
     1
102
RTVSPropertyOp59
 70
     1
102
RTVSPropertyOp60
 70
     1
102
RTVSPropertyOp61
 70
     1
102
RTVSPropertyOp62
 70
     1
  0
XRECORD
  5
453
102
{ACAD_REACTORS
330
452
102
}
330
452
100
AcDbXrecord
280
     1
102
RTVSPost2010Prop28
280
     0
102
RTVSPost2010PropOp28
 70
     1
102
RTVSPost2010Prop29
280
     1
102
RTVSPost2010PropOp29
 70
     1
102
RTVSPost2010Prop30
280
     1
102
RTVSPost2010PropOp30
 70
     1
102
RTVSPost2010Prop31
280
     0
102
RTVSPost2010PropOp31
 70
     1
102
RTVSPost2010Prop32
280
     0
102
RTVSPost2010PropOp32
 70
     1
102
RTVSPost2010Prop33
280
     0
102
RTVSPost2010PropOp33
 70
     1
102
RTVSPost2010Prop34
280
     0
102
RTVSPost2010PropOp34
 70
     1
102
RTVSPost2010Prop35
280
     0
102
RTVSPost2010PropOp35
 70
     1
102
RTVSPost2010Prop36
280
     0
102
RTVSPost2010PropOp36
 70
     1
102
RTVSPost2010Prop37
 90
       50
102
RTVSPost2010PropOp37
 70
     1
102
RTVSPost2010Prop38
140
0.0
102
RTVSPost2010PropOp38
 70
     1
102
RTVSPost2010Prop39
140
1.0
102
RTVSPost2010PropOp39
 70
     1
102
RTVSPost2010Prop40
 90
        0
102
RTVSPost2010PropOp40
 70
     1
102
RTVSPost2010Prop41ColorIndex
 90
       18
102
RTVSPost2010Prop41ColorRGB
 90
        0
102
RTVSPost2010PropOp41
 70
     1
102
RTVSPost2010Prop42
 90
       50
102
RTVSPost2010PropOp42
 70
     1
102
RTVSPost2010Prop43
 90
        3
102
RTVSPost2010PropOp43
 70
     1
102
RTVSPost2010Prop44ColorIndex
 90
        5
102
RTVSPost2010Prop44ColorRGB
 90
      255
102
RTVSPost2010PropOp44
 70
     1
102
RTVSPost2010Prop45
280
     0
102
RTVSPost2010PropOp45
 70
     1
102
RTVSPost2010Prop46
 90
       50
102
RTVSPost2010PropOp46
 70
     1
102
RTVSPost2010Prop47
 90
       50
102
RTVSPost2010PropOp47
 70
     1
102
RTVSPost2010Prop48
 90
       50
102
RTVSPost2010PropOp48
 70
     1
102
RTVSPost2010Prop49
280
     0
102
RTVSPost2010PropOp49
 70
     1
102
RTVSPost2010Prop50
 90
       50
102
RTVSPost2010PropOp50
 70
     1
102
RTVSPost2010Prop51ColorIndex
 90
      256
102
RTVSPost2010Prop51ColorRGB
 90
-16777216
102
RTVSPost2010PropOp51
 70
     0
102
RTVSPost2010Prop52
140
1.0
102
RTVSPost2010PropOp52
 70
     0
102
RTVSPost2010Prop53
 90
        2
102
RTVSPost2010PropOp53
 70
     1
102
RTVSPost2010Prop54
  1
strokes_ogs.tif
102
RTVSPost2010PropOp54
 70
     1
102
RTVSPost2010Prop55
280
     0
102
RTVSPost2010PropOp55
 70
     1
102
RTVSPost2010Prop56
140
1.0
102
RTVSPost2010PropOp56
 70
     1
102
RTVSPost2010Prop57
140
1.0
102
RTVSPost2010PropOp57
 70
     1
102
RTVSPropertyOp0
 70
     1
102
RTVSPropertyOp1
 70
     1
102
RTVSPropertyOp2
 70
     1
102
RTVSPropertyOp3
 70
     1
102
RTVSPropertyOp4
 70
     1
102
RTVSPropertyOp5
 70
     1
102
RTVSPropertyOp6
 70
     1
102
RTVSPropertyOp7
 70
     1
102
RTVSPropertyOp8
 70
     1
102
RTVSPropertyOp9
 70
     1
102
RTVSPropertyOp10
 70
     1
102
RTVSPropertyOp11
 70
     1
102
RTVSPropertyOp12
 70
     1
102
RTVSPropertyOp13
 70
     1
102
RTVSPropertyOp14
 70
     1
102
RTVSPropertyOp15
 70
     1
102
RTVSPropertyOp16
 70
     1
102
RTVSPropertyOp17
 70
     1
102
RTVSPropertyOp18
 70
     1
102
RTVSPropertyOp19
 70
     1
102
RTVSPropertyOp20
 70
     1
102
RTVSPropertyOp21
 70
     1
102
RTVSPropertyOp22
 70
     1
102
RTVSPropertyOp23
 70
     1
102
RTVSPropertyOp24
 70
     1
102
RTVSPropertyOp25
 70
     1
102
RTVSPropertyOp26
 70
     1
102
RTVSPropertyOp27
 70
     1
102
RTVSPropertyOp28
 70
     1
102
RTVSPropertyOp29
 70
     1
102
RTVSPropertyOp30
 70
     1
102
RTVSPropertyOp31
 70
     1
102
RTVSPropertyOp32
 70
     1
102
RTVSPropertyOp33
 70
     1
102
RTVSPropertyOp34
 70
     1
102
RTVSPropertyOp35
 70
     1
102
RTVSPropertyOp36
 70
     1
102
RTVSPropertyOp37
 70
     1
102
RTVSPropertyOp38
 70
     1
102
RTVSPropertyOp39
 70
     1
102
RTVSPropertyOp40
 70
     1
102
RTVSPropertyOp41
 70
     1
102
RTVSPropertyOp42
 70
     1
102
RTVSPropertyOp43
 70
     1
102
RTVSPropertyOp44
 70
     1
102
RTVSPropertyOp45
 70
     1
102
RTVSPropertyOp46
 70
     1
102
RTVSPropertyOp47
 70
     1
102
RTVSPropertyOp48
 70
     1
102
RTVSPropertyOp49
 70
     1
102
RTVSPropertyOp50
 70
     1
102
RTVSPropertyOp51
 70
     0
102
RTVSPropertyOp52
 70
     0
102
RTVSPropertyOp53
 70
     1
102
RTVSPropertyOp54
 70
     1
102
RTVSPropertyOp55
 70
     1
102
RTVSPropertyOp56
 70
     1
102
RTVSPropertyOp57
 70
     1
102
RTVSPropertyOp58
 70
     1
102
RTVSPropertyOp59
 70
     1
102
RTVSPropertyOp60
 70
     1
102
RTVSPropertyOp61
 70
     1
102
RTVSPropertyOp62
 70
     1
  0
XRECORD
  5
457
102
{ACAD_REACTORS
330
456
102
}
330
456
100
AcDbXrecord
280
     1
102
RTVSPost2010Prop28
280
     0
102
RTVSPost2010PropOp28
 70
     1
102
RTVSPost2010Prop29
280
     1
102
RTVSPost2010PropOp29
 70
     1
102
RTVSPost2010Prop30
280
     1
102
RTVSPost2010PropOp30
 70
     1
102
RTVSPost2010Prop31
280
     0
102
RTVSPost2010PropOp31
 70
     1
102
RTVSPost2010Prop32
280
     0
102
RTVSPost2010PropOp32
 70
     1
102
RTVSPost2010Prop33
280
     0
102
RTVSPost2010PropOp33
 70
     1
102
RTVSPost2010Prop34
280
     0
102
RTVSPost2010PropOp34
 70
     1
102
RTVSPost2010Prop35
280
     0
102
RTVSPost2010PropOp35
 70
     1
102
RTVSPost2010Prop36
280
     0
102
RTVSPost2010PropOp36
 70
     1
102
RTVSPost2010Prop37
 90
       50
102
RTVSPost2010PropOp37
 70
     1
102
RTVSPost2010Prop38
140
0.0
102
RTVSPost2010PropOp38
 70
     1
102
RTVSPost2010Prop39
140
1.0
102
RTVSPost2010PropOp39
 70
     1
102
RTVSPost2010Prop40
 90
        0
102
RTVSPost2010PropOp40
 70
     1
102
RTVSPost2010Prop41ColorIndex
 90
       18
102
RTVSPost2010Prop41ColorRGB
 90
        0
102
RTVSPost2010PropOp41
 70
     1
102
RTVSPost2010Prop42
 90
       50
102
RTVSPost2010PropOp42
 70
     1
102
RTVSPost2010Prop43
 90
        3
102
RTVSPost2010PropOp43
 70
     1
102
RTVSPost2010Prop44ColorIndex
 90
        5
102
RTVSPost2010Prop44ColorRGB
 90
      255
102
RTVSPost2010PropOp44
 70
     1
102
RTVSPost2010Prop45
280
     0
102
RTVSPost2010PropOp45
 70
     1
102
RTVSPost2010Prop46
 90
       50
102
RTVSPost2010PropOp46
 70
     1
102
RTVSPost2010Prop47
 90
       50
102
RTVSPost2010PropOp47
 70
     1
102
RTVSPost2010Prop48
 90
       50
102
RTVSPost2010PropOp48
 70
     1
102
RTVSPost2010Prop49
280
     0
102
RTVSPost2010PropOp49
 70
     1
102
RTVSPost2010Prop50
 90
       50
102
RTVSPost2010PropOp50
 70
     1
102
RTVSPost2010Prop51ColorIndex
 90
      256
102
RTVSPost2010Prop51ColorRGB
 90
-16777216
102
RTVSPost2010PropOp51
 70
     0
102
RTVSPost2010Prop52
140
1.0
102
RTVSPost2010PropOp52
 70
     0
102
RTVSPost2010Prop53
 90
        2
102
RTVSPost2010PropOp53
 70
     1
102
RTVSPost2010Prop54
  1
strokes_ogs.tif
102
RTVSPost2010PropOp54
 70
     1
102
RTVSPost2010Prop55
280
     0
102
RTVSPost2010PropOp55
 70
     1
102
RTVSPost2010Prop56
140
1.0
102
RTVSPost2010PropOp56
 70
     1
102
RTVSPost2010Prop57
140
1.0
102
RTVSPost2010PropOp57
 70
     1
102
RTVSPropertyOp0
 70
     1
102
RTVSPropertyOp1
 70
     1
102
RTVSPropertyOp2
 70
     1
102
RTVSPropertyOp3
 70
     1
102
RTVSPropertyOp4
 70
     1
102
RTVSPropertyOp5
 70
     1
102
RTVSPropertyOp6
 70
     1
102
RTVSPropertyOp7
 70
     1
102
RTVSPropertyOp8
 70
     1
102
RTVSPropertyOp9
 70
     1
102
RTVSPropertyOp10
 70
     1
102
RTVSPropertyOp11
 70
     1
102
RTVSPropertyOp12
 70
     1
102
RTVSPropertyOp13
 70
     1
102
RTVSPropertyOp14
 70
     1
102
RTVSPropertyOp15
 70
     1
102
RTVSPropertyOp16
 70
     1
102
RTVSPropertyOp17
 70
     1
102
RTVSPropertyOp18
 70
     1
102
RTVSPropertyOp19
 70
     1
102
RTVSPropertyOp20
 70
     1
102
RTVSPropertyOp21
 70
     1
102
RTVSPropertyOp22
 70
     1
102
RTVSPropertyOp23
 70
     1
102
RTVSPropertyOp24
 70
     1
102
RTVSPropertyOp25
 70
     1
102
RTVSPropertyOp26
 70
     1
102
RTVSPropertyOp27
 70
     1
102
RTVSPropertyOp28
 70
     1
102
RTVSPropertyOp29
 70
     1
102
RTVSPropertyOp30
 70
     1
102
RTVSPropertyOp31
 70
     1
102
RTVSPropertyOp32
 70
     1
102
RTVSPropertyOp33
 70
     1
102
RTVSPropertyOp34
 70
     1
102
RTVSPropertyOp35
 70
     1
102
RTVSPropertyOp36
 70
     1
102
RTVSPropertyOp37
 70
     1
102
RTVSPropertyOp38
 70
     1
102
RTVSPropertyOp39
 70
     1
102
RTVSPropertyOp40
 70
     1
102
RTVSPropertyOp41
 70
     1
102
RTVSPropertyOp42
 70
     1
102
RTVSPropertyOp43
 70
     1
102
RTVSPropertyOp44
 70
     1
102
RTVSPropertyOp45
 70
     1
102
RTVSPropertyOp46
 70
     1
102
RTVSPropertyOp47
 70
     1
102
RTVSPropertyOp48
 70
     1
102
RTVSPropertyOp49
 70
     1
102
RTVSPropertyOp50
 70
     1
102
RTVSPropertyOp51
 70
     0
102
RTVSPropertyOp52
 70
     0
102
RTVSPropertyOp53
 70
     1
102
RTVSPropertyOp54
 70
     1
102
RTVSPropertyOp55
 70
     1
102
RTVSPropertyOp56
 70
     1
102
RTVSPropertyOp57
 70
     1
102
RTVSPropertyOp58
 70
     1
102
RTVSPropertyOp59
 70
     1
102
RTVSPropertyOp60
 70
     1
102
RTVSPropertyOp61
 70
     1
102
RTVSPropertyOp62
 70
     1
  0
XRECORD
  5
471
102
{ACAD_REACTORS
330
470
102
}
330
470
100
AcDbXrecord
280
     1
102
RTVSPost2010Prop28
280
     0
102
RTVSPost2010PropOp28
 70
     0
102
RTVSPost2010Prop29
280
     1
102
RTVSPost2010PropOp29
 70
     0
102
RTVSPost2010Prop30
280
     1
102
RTVSPost2010PropOp30
 70
     0
102
RTVSPost2010Prop31
280
     0
102
RTVSPost2010PropOp31
 70
     0
102
RTVSPost2010Prop32
280
     0
102
RTVSPost2010PropOp32
 70
     0
102
RTVSPost2010Prop33
280
     0
102
RTVSPost2010PropOp33
 70
     0
102
RTVSPost2010Prop34
280
     0
102
RTVSPost2010PropOp34
 70
     0
102
RTVSPost2010Prop35
280
     0
102
RTVSPost2010PropOp35
 70
     0
102
RTVSPost2010Prop36
280
     0
102
RTVSPost2010PropOp36
 70
     0
102
RTVSPost2010Prop37
 90
       50
102
RTVSPost2010PropOp37
 70
     0
102
RTVSPost2010Prop38
140
0.0
102
RTVSPost2010PropOp38
 70
     0
102
RTVSPost2010Prop39
140
1.0
102
RTVSPost2010PropOp39
 70
     0
102
RTVSPost2010Prop40
 90
        0
102
RTVSPost2010PropOp40
 70
     0
102
RTVSPost2010Prop41ColorIndex
 90
       18
102
RTVSPost2010Prop41ColorRGB
 90
        0
102
RTVSPost2010PropOp41
 70
     0
102
RTVSPost2010Prop42
 90
       50
102
RTVSPost2010PropOp42
 70
     0
102
RTVSPost2010Prop43
 90
        3
102
RTVSPost2010PropOp43
 70
     0
102
RTVSPost2010Prop44ColorIndex
 90
        5
102
RTVSPost2010Prop44ColorRGB
 90
      255
102
RTVSPost2010PropOp44
 70
     0
102
RTVSPost2010Prop45
280
     0
102
RTVSPost2010PropOp45
 70
     0
102
RTVSPost2010Prop46
 90
       50
102
RTVSPost2010PropOp46
 70
     0
102
RTVSPost2010Prop47
 90
       50
102
RTVSPost2010PropOp47
 70
     0
102
RTVSPost2010Prop48
 90
       50
102
RTVSPost2010PropOp48
 70
     0
102
RTVSPost2010Prop49
280
     0
102
RTVSPost2010PropOp49
 70
     0
102
RTVSPost2010Prop50
 90
       50
102
RTVSPost2010PropOp50
 70
     0
102
RTVSPost2010Prop51ColorIndex
 90
      256
102
RTVSPost2010Prop51ColorRGB
 90
-16777216
102
RTVSPost2010PropOp51
 70
     0
102
RTVSPost2010Prop52
140
1.0
102
RTVSPost2010PropOp52
 70
     0
102
RTVSPost2010Prop53
 90
        2
102
RTVSPost2010PropOp53
 70
     0
102
RTVSPost2010Prop54
  1
strokes_ogs.tif
102
RTVSPost2010PropOp54
 70
     0
102
RTVSPost2010Prop55
280
     0
102
RTVSPost2010PropOp55
 70
     0
102
RTVSPost2010Prop56
140
1.0
102
RTVSPost2010PropOp56
 70
     0
102
RTVSPost2010Prop57
140
1.0
102
RTVSPost2010PropOp57
 70
     0
102
RTVSPropertyOp0
 70
     0
102
RTVSPropertyOp1
 70
     0
102
RTVSPropertyOp2
 70
     0
102
RTVSPropertyOp3
 70
     0
102
RTVSPropertyOp4
 70
     0
102
RTVSPropertyOp5
 70
     0
102
RTVSPropertyOp6
 70
     0
102
RTVSPropertyOp7
 70
     0
102
RTVSPropertyOp8
 70
     0
102
RTVSPropertyOp9
 70
     0
102
RTVSPropertyOp10
 70
     0
102
RTVSPropertyOp11
 70
     0
102
RTVSPropertyOp12
 70
     0
102
RTVSPropertyOp13
 70
     0
102
RTVSPropertyOp14
 70
     2
102
RTVSPropertyOp15
 70
     0
102
RTVSPropertyOp16
 70
     0
102
RTVSPropertyOp17
 70
     0
102
RTVSPropertyOp18
 70
     0
102
RTVSPropertyOp19
 70
     0
102
RTVSPropertyOp20
 70
     0
102
RTVSPropertyOp21
 70
     0
102
RTVSPropertyOp22
 70
     0
102
RTVSPropertyOp23
 70
     0
102
RTVSPropertyOp24
 70
     0
102
RTVSPropertyOp25
 70
     0
102
RTVSPropertyOp26
 70
     0
102
RTVSPropertyOp27
 70
     0
102
RTVSPropertyOp28
 70
     0
102
RTVSPropertyOp29
 70
     0
102
RTVSPropertyOp30
 70
     0
102
RTVSPropertyOp31
 70
     0
102
RTVSPropertyOp32
 70
     0
102
RTVSPropertyOp33
 70
     0
102
RTVSPropertyOp34
 70
     0
102
RTVSPropertyOp35
 70
     0
102
RTVSPropertyOp36
 70
     0
102
RTVSPropertyOp37
 70
     0
102
RTVSPropertyOp38
 70
     0
102
RTVSPropertyOp39
 70
     0
102
RTVSPropertyOp40
 70
     0
102
RTVSPropertyOp41
 70
     0
102
RTVSPropertyOp42
 70
     0
102
RTVSPropertyOp43
 70
     0
102
RTVSPropertyOp44
 70
     0
102
RTVSPropertyOp45
 70
     0
102
RTVSPropertyOp46
 70
     0
102
RTVSPropertyOp47
 70
     0
102
RTVSPropertyOp48
 70
     0
102
RTVSPropertyOp49
 70
     0
102
RTVSPropertyOp50
 70
     0
102
RTVSPropertyOp51
 70
     0
102
RTVSPropertyOp52
 70
     0
102
RTVSPropertyOp53
 70
     0
102
RTVSPropertyOp54
 70
     0
102
RTVSPropertyOp55
 70
     0
102
RTVSPropertyOp56
 70
     0
102
RTVSPropertyOp57
 70
     0
102
RTVSPropertyOp58
 70
     0
102
RTVSPropertyOp59
 70
     0
102
RTVSPropertyOp60
 70
     0
102
RTVSPropertyOp61
 70
     0
102
RTVSPropertyOp62
 70
     0
  0
XRECORD
  5
45F
102
{ACAD_REACTORS
330
45E
102
}
330
45E
100
AcDbXrecord
280
     1
102
RTVSPost2010Prop28
280
     0
102
RTVSPost2010PropOp28
 70
     1
102
RTVSPost2010Prop29
280
     1
102
RTVSPost2010PropOp29
 70
     1
102
RTVSPost2010Prop30
280
     1
102
RTVSPost2010PropOp30
 70
     1
102
RTVSPost2010Prop31
280
     0
102
RTVSPost2010PropOp31
 70
     1
102
RTVSPost2010Prop32
280
     0
102
RTVSPost2010PropOp32
 70
     1
102
RTVSPost2010Prop33
280
     0
102
RTVSPost2010PropOp33
 70
     1
102
RTVSPost2010Prop34
280
     0
102
RTVSPost2010PropOp34
 70
     1
102
RTVSPost2010Prop35
280
     0
102
RTVSPost2010PropOp35
 70
     1
102
RTVSPost2010Prop36
280
     0
102
RTVSPost2010PropOp36
 70
     1
102
RTVSPost2010Prop37
 90
       50
102
RTVSPost2010PropOp37
 70
     1
102
RTVSPost2010Prop38
140
0.0
102
RTVSPost2010PropOp38
 70
     1
102
RTVSPost2010Prop39
140
1.0
102
RTVSPost2010PropOp39
 70
     1
102
RTVSPost2010Prop40
 90
        0
102
RTVSPost2010PropOp40
 70
     1
102
RTVSPost2010Prop41ColorIndex
 90
       18
102
RTVSPost2010Prop41ColorRGB
 90
        0
102
RTVSPost2010PropOp41
 70
     1
102
RTVSPost2010Prop42
 90
       50
102
RTVSPost2010PropOp42
 70
     1
102
RTVSPost2010Prop43
 90
        3
102
RTVSPost2010PropOp43
 70
     1
102
RTVSPost2010Prop44ColorIndex
 90
        5
102
RTVSPost2010Prop44ColorRGB
 90
      255
102
RTVSPost2010PropOp44
 70
     1
102
RTVSPost2010Prop45
280
     0
102
RTVSPost2010PropOp45
 70
     1
102
RTVSPost2010Prop46
 90
       50
102
RTVSPost2010PropOp46
 70
     1
102
RTVSPost2010Prop47
 90
       50
102
RTVSPost2010PropOp47
 70
     1
102
RTVSPost2010Prop48
 90
       50
102
RTVSPost2010PropOp48
 70
     1
102
RTVSPost2010Prop49
280
     0
102
RTVSPost2010PropOp49
 70
     1
102
RTVSPost2010Prop50
 90
       50
102
RTVSPost2010PropOp50
 70
     1
102
RTVSPost2010Prop51ColorIndex
 90
      256
102
RTVSPost2010Prop51ColorRGB
 90
-16777216
102
RTVSPost2010PropOp51
 70
     0
102
RTVSPost2010Prop52
140
1.0
102
RTVSPost2010PropOp52
 70
     0
102
RTVSPost2010Prop53
 90
        2
102
RTVSPost2010PropOp53
 70
     1
102
RTVSPost2010Prop54
  1
strokes_ogs.tif
102
RTVSPost2010PropOp54
 70
     1
102
RTVSPost2010Prop55
280
     0
102
RTVSPost2010PropOp55
 70
     1
102
RTVSPost2010Prop56
140
1.0
102
RTVSPost2010PropOp56
 70
     1
102
RTVSPost2010Prop57
140
1.0
102
RTVSPost2010PropOp57
 70
     1
102
RTVSPropertyOp0
 70
     1
102
RTVSPropertyOp1
 70
     1
102
RTVSPropertyOp2
 70
     1
102
RTVSPropertyOp3
 70
     1
102
RTVSPropertyOp4
 70
     1
102
RTVSPropertyOp5
 70
     1
102
RTVSPropertyOp6
 70
     1
102
RTVSPropertyOp7
 70
     1
102
RTVSPropertyOp8
 70
     1
102
RTVSPropertyOp9
 70
     1
102
RTVSPropertyOp10
 70
     1
102
RTVSPropertyOp11
 70
     1
102
RTVSPropertyOp12
 70
     1
102
RTVSPropertyOp13
 70
     1
102
RTVSPropertyOp14
 70
     1
102
RTVSPropertyOp15
 70
     1
102
RTVSPropertyOp16
 70
     1
102
RTVSPropertyOp17
 70
     1
102
RTVSPropertyOp18
 70
     1
102
RTVSPropertyOp19
 70
     1
102
RTVSPropertyOp20
 70
     1
102
RTVSPropertyOp21
 70
     1
102
RTVSPropertyOp22
 70
     1
102
RTVSPropertyOp23
 70
     1
102
RTVSPropertyOp24
 70
     1
102
RTVSPropertyOp25
 70
     1
102
RTVSPropertyOp26
 70
     1
102
RTVSPropertyOp27
 70
     1
102
RTVSPropertyOp28
 70
     1
102
RTVSPropertyOp29
 70
     1
102
RTVSPropertyOp30
 70
     1
102
RTVSPropertyOp31
 70
     1
102
RTVSPropertyOp32
 70
     1
102
RTVSPropertyOp33
 70
     1
102
RTVSPropertyOp34
 70
     1
102
RTVSPropertyOp35
 70
     1
102
RTVSPropertyOp36
 70
     1
102
RTVSPropertyOp37
 70
     1
102
RTVSPropertyOp38
 70
     1
102
RTVSPropertyOp39
 70
     1
102
RTVSPropertyOp40
 70
     1
102
RTVSPropertyOp41
 70
     1
102
RTVSPropertyOp42
 70
     1
102
RTVSPropertyOp43
 70
     1
102
RTVSPropertyOp44
 70
     1
102
RTVSPropertyOp45
 70
     1
102
RTVSPropertyOp46
 70
     1
102
RTVSPropertyOp47
 70
     1
102
RTVSPropertyOp48
 70
     1
102
RTVSPropertyOp49
 70
     1
102
RTVSPropertyOp50
 70
     1
102
RTVSPropertyOp51
 70
     0
102
RTVSPropertyOp52
 70
     0
102
RTVSPropertyOp53
 70
     1
102
RTVSPropertyOp54
 70
     1
102
RTVSPropertyOp55
 70
     1
102
RTVSPropertyOp56
 70
     1
102
RTVSPropertyOp57
 70
     1
102
RTVSPropertyOp58
 70
     1
102
RTVSPropertyOp59
 70
     1
102
RTVSPropertyOp60
 70
     1
102
RTVSPropertyOp61
 70
     1
102
RTVSPropertyOp62
 70
     1
  0
XRECORD
  5
443
102
{ACAD_REACTORS
330
442
102
}
330
442
100
AcDbXrecord
280
     1
102
RTVSPost2010Prop28
280
     0
102
RTVSPost2010PropOp28
 70
     1
102
RTVSPost2010Prop29
280
     1
102
RTVSPost2010PropOp29
 70
     1
102
RTVSPost2010Prop30
280
     1
102
RTVSPost2010PropOp30
 70
     1
102
RTVSPost2010Prop31
280
     0
102
RTVSPost2010PropOp31
 70
     1
102
RTVSPost2010Prop32
280
     0
102
RTVSPost2010PropOp32
 70
     1
102
RTVSPost2010Prop33
280
     0
102
RTVSPost2010PropOp33
 70
     1
102
RTVSPost2010Prop34
280
     0
102
RTVSPost2010PropOp34
 70
     1
102
RTVSPost2010Prop35
280
     0
102
RTVSPost2010PropOp35
 70
     1
102
RTVSPost2010Prop36
280
     0
102
RTVSPost2010PropOp36
 70
     1
102
RTVSPost2010Prop37
 90
       50
102
RTVSPost2010PropOp37
 70
     1
102
RTVSPost2010Prop38
140
0.0
102
RTVSPost2010PropOp38
 70
     1
102
RTVSPost2010Prop39
140
1.0
102
RTVSPost2010PropOp39
 70
     1
102
RTVSPost2010Prop40
 90
        0
102
RTVSPost2010PropOp40
 70
     1
102
RTVSPost2010Prop41ColorIndex
 90
       18
102
RTVSPost2010Prop41ColorRGB
 90
        0
102
RTVSPost2010PropOp41
 70
     1
102
RTVSPost2010Prop42
 90
       50
102
RTVSPost2010PropOp42
 70
     1
102
RTVSPost2010Prop43
 90
        3
102
RTVSPost2010PropOp43
 70
     1
102
RTVSPost2010Prop44ColorIndex
 90
        5
102
RTVSPost2010Prop44ColorRGB
 90
      255
102
RTVSPost2010PropOp44
 70
     1
102
RTVSPost2010Prop45
280
     0
102
RTVSPost2010PropOp45
 70
     1
102
RTVSPost2010Prop46
 90
       50
102
RTVSPost2010PropOp46
 70
     1
102
RTVSPost2010Prop47
 90
       50
102
RTVSPost2010PropOp47
 70
     1
102
RTVSPost2010Prop48
 90
       50
102
RTVSPost2010PropOp48
 70
     1
102
RTVSPost2010Prop49
280
     0
102
RTVSPost2010PropOp49
 70
     1
102
RTVSPost2010Prop50
 90
       50
102
RTVSPost2010PropOp50
 70
     1
102
RTVSPost2010Prop51ColorIndex
 90
      256
102
RTVSPost2010Prop51ColorRGB
 90
-16777216
102
RTVSPost2010PropOp51
 70
     0
102
RTVSPost2010Prop52
140
1.0
102
RTVSPost2010PropOp52
 70
     0
102
RTVSPost2010Prop53
 90
        2
102
RTVSPost2010PropOp53
 70
     1
102
RTVSPost2010Prop54
  1
strokes_ogs.tif
102
RTVSPost2010PropOp54
 70
     1
102
RTVSPost2010Prop55
280
     0
102
RTVSPost2010PropOp55
 70
     1
102
RTVSPost2010Prop56
140
1.0
102
RTVSPost2010PropOp56
 70
     1
102
RTVSPost2010Prop57
140
1.0
102
RTVSPost2010PropOp57
 70
     1
102
RTVSPropertyOp0
 70
     1
102
RTVSPropertyOp1
 70
     1
102
RTVSPropertyOp2
 70
     1
102
RTVSPropertyOp3
 70
     1
102
RTVSPropertyOp4
 70
     1
102
RTVSPropertyOp5
 70
     1
102
RTVSPropertyOp6
 70
     1
102
RTVSPropertyOp7
 70
     1
102
RTVSPropertyOp8
 70
     1
102
RTVSPropertyOp9
 70
     1
102
RTVSPropertyOp10
 70
     1
102
RTVSPropertyOp11
 70
     1
102
RTVSPropertyOp12
 70
     1
102
RTVSPropertyOp13
 70
     1
102
RTVSPropertyOp14
 70
     1
102
RTVSPropertyOp15
 70
     1
102
RTVSPropertyOp16
 70
     1
102
RTVSPropertyOp17
 70
     1
102
RTVSPropertyOp18
 70
     1
102
RTVSPropertyOp19
 70
     1
102
RTVSPropertyOp20
 70
     1
102
RTVSPropertyOp21
 70
     1
102
RTVSPropertyOp22
 70
     1
102
RTVSPropertyOp23
 70
     1
102
RTVSPropertyOp24
 70
     1
102
RTVSPropertyOp25
 70
     1
102
RTVSPropertyOp26
 70
     1
102
RTVSPropertyOp27
 70
     1
102
RTVSPropertyOp28
 70
     1
102
RTVSPropertyOp29
 70
     1
102
RTVSPropertyOp30
 70
     1
102
RTVSPropertyOp31
 70
     1
102
RTVSPropertyOp32
 70
     1
102
RTVSPropertyOp33
 70
     1
102
RTVSPropertyOp34
 70
     1
102
RTVSPropertyOp35
 70
     1
102
RTVSPropertyOp36
 70
     1
102
RTVSPropertyOp37
 70
     1
102
RTVSPropertyOp38
 70
     1
102
RTVSPropertyOp39
 70
     1
102
RTVSPropertyOp40
 70
     1
102
RTVSPropertyOp41
 70
     1
102
RTVSPropertyOp42
 70
     1
102
RTVSPropertyOp43
 70
     1
102
RTVSPropertyOp44
 70
     1
102
RTVSPropertyOp45
 70
     1
102
RTVSPropertyOp46
 70
     1
102
RTVSPropertyOp47
 70
     1
102
RTVSPropertyOp48
 70
     1
102
RTVSPropertyOp49
 70
     1
102
RTVSPropertyOp50
 70
     1
102
RTVSPropertyOp51
 70
     0
102
RTVSPropertyOp52
 70
     0
102
RTVSPropertyOp53
 70
     1
102
RTVSPropertyOp54
 70
     1
102
RTVSPropertyOp55
 70
     1
102
RTVSPropertyOp56
 70
     1
102
RTVSPropertyOp57
 70
     1
102
RTVSPropertyOp58
 70
     1
102
RTVSPropertyOp59
 70
     1
102
RTVSPropertyOp60
 70
     1
102
RTVSPropertyOp61
 70
     1
102
RTVSPropertyOp62
 70
     1
  0
XRECORD
  5
445
102
{ACAD_REACTORS
330
444
102
}
330
444
100
AcDbXrecord
280
     1
102
RTVSPost2010Prop28
280
     0
102
RTVSPost2010PropOp28
 70
     1
102
RTVSPost2010Prop29
280
     1
102
RTVSPost2010PropOp29
 70
     1
102
RTVSPost2010Prop30
280
     1
102
RTVSPost2010PropOp30
 70
     1
102
RTVSPost2010Prop31
280
     0
102
RTVSPost2010PropOp31
 70
     1
102
RTVSPost2010Prop32
280
     0
102
RTVSPost2010PropOp32
 70
     1
102
RTVSPost2010Prop33
280
     0
102
RTVSPost2010PropOp33
 70
     1
102
RTVSPost2010Prop34
280
     0
102
RTVSPost2010PropOp34
 70
     1
102
RTVSPost2010Prop35
280
     0
102
RTVSPost2010PropOp35
 70
     1
102
RTVSPost2010Prop36
280
     0
102
RTVSPost2010PropOp36
 70
     1
102
RTVSPost2010Prop37
 90
       50
102
RTVSPost2010PropOp37
 70
     1
102
RTVSPost2010Prop38
140
0.0
102
RTVSPost2010PropOp38
 70
     1
102
RTVSPost2010Prop39
140
1.0
102
RTVSPost2010PropOp39
 70
     1
102
RTVSPost2010Prop40
 90
        0
102
RTVSPost2010PropOp40
 70
     1
102
RTVSPost2010Prop41ColorIndex
 90
       18
102
RTVSPost2010Prop41ColorRGB
 90
        0
102
RTVSPost2010PropOp41
 70
     1
102
RTVSPost2010Prop42
 90
       50
102
RTVSPost2010PropOp42
 70
     1
102
RTVSPost2010Prop43
 90
        3
102
RTVSPost2010PropOp43
 70
     1
102
RTVSPost2010Prop44ColorIndex
 90
        5
102
RTVSPost2010Prop44ColorRGB
 90
      255
102
RTVSPost2010PropOp44
 70
     1
102
RTVSPost2010Prop45
280
     0
102
RTVSPost2010PropOp45
 70
     1
102
RTVSPost2010Prop46
 90
       50
102
RTVSPost2010PropOp46
 70
     1
102
RTVSPost2010Prop47
 90
       50
102
RTVSPost2010PropOp47
 70
     1
102
RTVSPost2010Prop48
 90
       50
102
RTVSPost2010PropOp48
 70
     1
102
RTVSPost2010Prop49
280
     0
102
RTVSPost2010PropOp49
 70
     1
102
RTVSPost2010Prop50
 90
       50
102
RTVSPost2010PropOp50
 70
     1
102
RTVSPost2010Prop51ColorIndex
 90
      256
102
RTVSPost2010Prop51ColorRGB
 90
-16777216
102
RTVSPost2010PropOp51
 70
     0
102
RTVSPost2010Prop52
140
1.0
102
RTVSPost2010PropOp52
 70
     0
102
RTVSPost2010Prop53
 90
        2
102
RTVSPost2010PropOp53
 70
     1
102
RTVSPost2010Prop54
  1
strokes_ogs.tif
102
RTVSPost2010PropOp54
 70
     1
102
RTVSPost2010Prop55
280
     0
102
RTVSPost2010PropOp55
 70
     1
102
RTVSPost2010Prop56
140
1.0
102
RTVSPost2010PropOp56
 70
     1
102
RTVSPost2010Prop57
140
1.0
102
RTVSPost2010PropOp57
 70
     1
102
RTVSPropertyOp0
 70
     1
102
RTVSPropertyOp1
 70
     1
102
RTVSPropertyOp2
 70
     1
102
RTVSPropertyOp3
 70
     1
102
RTVSPropertyOp4
 70
     1
102
RTVSPropertyOp5
 70
     1
102
RTVSPropertyOp6
 70
     1
102
RTVSPropertyOp7
 70
     1
102
RTVSPropertyOp8
 70
     1
102
RTVSPropertyOp9
 70
     1
102
RTVSPropertyOp10
 70
     1
102
RTVSPropertyOp11
 70
     1
102
RTVSPropertyOp12
 70
     1
102
RTVSPropertyOp13
 70
     1
102
RTVSPropertyOp14
 70
     1
102
RTVSPropertyOp15
 70
     1
102
RTVSPropertyOp16
 70
     1
102
RTVSPropertyOp17
 70
     1
102
RTVSPropertyOp18
 70
     1
102
RTVSPropertyOp19
 70
     1
102
RTVSPropertyOp20
 70
     1
102
RTVSPropertyOp21
 70
     1
102
RTVSPropertyOp22
 70
     1
102
RTVSPropertyOp23
 70
     1
102
RTVSPropertyOp24
 70
     1
102
RTVSPropertyOp25
 70
     1
102
RTVSPropertyOp26
 70
     1
102
RTVSPropertyOp27
 70
     1
102
RTVSPropertyOp28
 70
     1
102
RTVSPropertyOp29
 70
     1
102
RTVSPropertyOp30
 70
     1
102
RTVSPropertyOp31
 70
     1
102
RTVSPropertyOp32
 70
     1
102
RTVSPropertyOp33
 70
     1
102
RTVSPropertyOp34
 70
     1
102
RTVSPropertyOp35
 70
     1
102
RTVSPropertyOp36
 70
     1
102
RTVSPropertyOp37
 70
     1
102
RTVSPropertyOp38
 70
     1
102
RTVSPropertyOp39
 70
     1
102
RTVSPropertyOp40
 70
     1
102
RTVSPropertyOp41
 70
     1
102
RTVSPropertyOp42
 70
     1
102
RTVSPropertyOp43
 70
     1
102
RTVSPropertyOp44
 70
     1
102
RTVSPropertyOp45
 70
     1
102
RTVSPropertyOp46
 70
     1
102
RTVSPropertyOp47
 70
     1
102
RTVSPropertyOp48
 70
     1
102
RTVSPropertyOp49
 70
     1
102
RTVSPropertyOp50
 70
     1
102
RTVSPropertyOp51
 70
     0
102
RTVSPropertyOp52
 70
     0
102
RTVSPropertyOp53
 70
     1
102
RTVSPropertyOp54
 70
     1
102
RTVSPropertyOp55
 70
     1
102
RTVSPropertyOp56
 70
     1
102
RTVSPropertyOp57
 70
     1
102
RTVSPropertyOp58
 70
     1
102
RTVSPropertyOp59
 70
     1
102
RTVSPropertyOp60
 70
     1
102
RTVSPropertyOp61
 70
     1
102
RTVSPropertyOp62
 70
     1
  0
XRECORD
  5
447
102
{ACAD_REACTORS
330
446
102
}
330
446
100
AcDbXrecord
280
     1
102
RTVSPost2010Prop28
280
     0
102
RTVSPost2010PropOp28
 70
     1
102
RTVSPost2010Prop29
280
     1
102
RTVSPost2010PropOp29
 70
     1
102
RTVSPost2010Prop30
280
     1
102
RTVSPost2010PropOp30
 70
     1
102
RTVSPost2010Prop31
280
     0
102
RTVSPost2010PropOp31
 70
     1
102
RTVSPost2010Prop32
280
     0
102
RTVSPost2010PropOp32
 70
     1
102
RTVSPost2010Prop33
280
     0
102
RTVSPost2010PropOp33
 70
     1
102
RTVSPost2010Prop34
280
     0
102
RTVSPost2010PropOp34
 70
     1
102
RTVSPost2010Prop35
280
     0
102
RTVSPost2010PropOp35
 70
     1
102
RTVSPost2010Prop36
280
     0
102
RTVSPost2010PropOp36
 70
     1
102
RTVSPost2010Prop37
 90
       50
102
RTVSPost2010PropOp37
 70
     1
102
RTVSPost2010Prop38
140
0.0
102
RTVSPost2010PropOp38
 70
     1
102
RTVSPost2010Prop39
140
1.0
102
RTVSPost2010PropOp39
 70
     1
102
RTVSPost2010Prop40
 90
        0
102
RTVSPost2010PropOp40
 70
     1
102
RTVSPost2010Prop41ColorIndex
 90
       18
102
RTVSPost2010Prop41ColorRGB
 90
        0
102
RTVSPost2010PropOp41
 70
     1
102
RTVSPost2010Prop42
 90
       50
102
RTVSPost2010PropOp42
 70
     1
102
RTVSPost2010Prop43
 90
        3
102
RTVSPost2010PropOp43
 70
     1
102
RTVSPost2010Prop44ColorIndex
 90
        5
102
RTVSPost2010Prop44ColorRGB
 90
      255
102
RTVSPost2010PropOp44
 70
     1
102
RTVSPost2010Prop45
280
     0
102
RTVSPost2010PropOp45
 70
     1
102
RTVSPost2010Prop46
 90
       50
102
RTVSPost2010PropOp46
 70
     1
102
RTVSPost2010Prop47
 90
       50
102
RTVSPost2010PropOp47
 70
     1
102
RTVSPost2010Prop48
 90
       50
102
RTVSPost2010PropOp48
 70
     1
102
RTVSPost2010Prop49
280
     0
102
RTVSPost2010PropOp49
 70
     1
102
RTVSPost2010Prop50
 90
       50
102
RTVSPost2010PropOp50
 70
     1
102
RTVSPost2010Prop51ColorIndex
 90
      256
102
RTVSPost2010Prop51ColorRGB
 90
-16777216
102
RTVSPost2010PropOp51
 70
     0
102
RTVSPost2010Prop52
140
1.0
102
RTVSPost2010PropOp52
 70
     0
102
RTVSPost2010Prop53
 90
        2
102
RTVSPost2010PropOp53
 70
     1
102
RTVSPost2010Prop54
  1
strokes_ogs.tif
102
RTVSPost2010PropOp54
 70
     1
102
RTVSPost2010Prop55
280
     0
102
RTVSPost2010PropOp55
 70
     1
102
RTVSPost2010Prop56
140
1.0
102
RTVSPost2010PropOp56
 70
     1
102
RTVSPost2010Prop57
140
1.0
102
RTVSPost2010PropOp57
 70
     1
102
RTVSPropertyOp0
 70
     1
102
RTVSPropertyOp1
 70
     1
102
RTVSPropertyOp2
 70
     1
102
RTVSPropertyOp3
 70
     1
102
RTVSPropertyOp4
 70
     1
102
RTVSPropertyOp5
 70
     1
102
RTVSPropertyOp6
 70
     1
102
RTVSPropertyOp7
 70
     1
102
RTVSPropertyOp8
 70
     1
102
RTVSPropertyOp9
 70
     1
102
RTVSPropertyOp10
 70
     1
102
RTVSPropertyOp11
 70
     1
102
RTVSPropertyOp12
 70
     1
102
RTVSPropertyOp13
 70
     1
102
RTVSPropertyOp14
 70
     1
102
RTVSPropertyOp15
 70
     1
102
RTVSPropertyOp16
 70
     1
102
RTVSPropertyOp17
 70
     1
102
RTVSPropertyOp18
 70
     1
102
RTVSPropertyOp19
 70
     1
102
RTVSPropertyOp20
 70
     1
102
RTVSPropertyOp21
 70
     1
102
RTVSPropertyOp22
 70
     1
102
RTVSPropertyOp23
 70
     1
102
RTVSPropertyOp24
 70
     1
102
RTVSPropertyOp25
 70
     1
102
RTVSPropertyOp26
 70
     1
102
RTVSPropertyOp27
 70
     1
102
RTVSPropertyOp28
 70
     1
102
RTVSPropertyOp29
 70
     1
102
RTVSPropertyOp30
 70
     1
102
RTVSPropertyOp31
 70
     1
102
RTVSPropertyOp32
 70
     1
102
RTVSPropertyOp33
 70
     1
102
RTVSPropertyOp34
 70
     1
102
RTVSPropertyOp35
 70
     1
102
RTVSPropertyOp36
 70
     1
102
RTVSPropertyOp37
 70
     1
102
RTVSPropertyOp38
 70
     1
102
RTVSPropertyOp39
 70
     1
102
RTVSPropertyOp40
 70
     1
102
RTVSPropertyOp41
 70
     1
102
RTVSPropertyOp42
 70
     1
102
RTVSPropertyOp43
 70
     1
102
RTVSPropertyOp44
 70
     1
102
RTVSPropertyOp45
 70
     1
102
RTVSPropertyOp46
 70
     1
102
RTVSPropertyOp47
 70
     1
102
RTVSPropertyOp48
 70
     1
102
RTVSPropertyOp49
 70
     1
102
RTVSPropertyOp50
 70
     1
102
RTVSPropertyOp51
 70
     0
102
RTVSPropertyOp52
 70
     0
102
RTVSPropertyOp53
 70
     1
102
RTVSPropertyOp54
 70
     1
102
RTVSPropertyOp55
 70
     1
102
RTVSPropertyOp56
 70
     1
102
RTVSPropertyOp57
 70
     1
102
RTVSPropertyOp58
 70
     1
102
RTVSPropertyOp59
 70
     1
102
RTVSPropertyOp60
 70
     1
102
RTVSPropertyOp61
 70
     1
102
RTVSPropertyOp62
 70
     1
  0
XRECORD
  5
449
102
{ACAD_REACTORS
330
448
102
}
330
448
100
AcDbXrecord
280
     1
102
RTVSPost2010Prop28
280
     0
102
RTVSPost2010PropOp28
 70
     1
102
RTVSPost2010Prop29
280
     1
102
RTVSPost2010PropOp29
 70
     1
102
RTVSPost2010Prop30
280
     1
102
RTVSPost2010PropOp30
 70
     1
102
RTVSPost2010Prop31
280
     0
102
RTVSPost2010PropOp31
 70
     1
102
RTVSPost2010Prop32
280
     0
102
RTVSPost2010PropOp32
 70
     1
102
RTVSPost2010Prop33
280
     0
102
RTVSPost2010PropOp33
 70
     1
102
RTVSPost2010Prop34
280
     0
102
RTVSPost2010PropOp34
 70
     1
102
RTVSPost2010Prop35
280
     0
102
RTVSPost2010PropOp35
 70
     1
102
RTVSPost2010Prop36
280
     0
102
RTVSPost2010PropOp36
 70
     1
102
RTVSPost2010Prop37
 90
       50
102
RTVSPost2010PropOp37
 70
     1
102
RTVSPost2010Prop38
140
0.0
102
RTVSPost2010PropOp38
 70
     1
102
RTVSPost2010Prop39
140
1.0
102
RTVSPost2010PropOp39
 70
     1
102
RTVSPost2010Prop40
 90
        0
102
RTVSPost2010PropOp40
 70
     1
102
RTVSPost2010Prop41ColorIndex
 90
       18
102
RTVSPost2010Prop41ColorRGB
 90
        0
102
RTVSPost2010PropOp41
 70
     1
102
RTVSPost2010Prop42
 90
       50
102
RTVSPost2010PropOp42
 70
     1
102
RTVSPost2010Prop43
 90
        3
102
RTVSPost2010PropOp43
 70
     1
102
RTVSPost2010Prop44ColorIndex
 90
        5
102
RTVSPost2010Prop44ColorRGB
 90
      255
102
RTVSPost2010PropOp44
 70
     1
102
RTVSPost2010Prop45
280
     0
102
RTVSPost2010PropOp45
 70
     1
102
RTVSPost2010Prop46
 90
       50
102
RTVSPost2010PropOp46
 70
     1
102
RTVSPost2010Prop47
 90
       50
102
RTVSPost2010PropOp47
 70
     1
102
RTVSPost2010Prop48
 90
       50
102
RTVSPost2010PropOp48
 70
     1
102
RTVSPost2010Prop49
280
     0
102
RTVSPost2010PropOp49
 70
     1
102
RTVSPost2010Prop50
 90
       50
102
RTVSPost2010PropOp50
 70
     1
102
RTVSPost2010Prop51ColorIndex
 90
      256
102
RTVSPost2010Prop51ColorRGB
 90
-16777216
102
RTVSPost2010PropOp51
 70
     0
102
RTVSPost2010Prop52
140
1.0
102
RTVSPost2010PropOp52
 70
     0
102
RTVSPost2010Prop53
 90
        2
102
RTVSPost2010PropOp53
 70
     1
102
RTVSPost2010Prop54
  1
strokes_ogs.tif
102
RTVSPost2010PropOp54
 70
     1
102
RTVSPost2010Prop55
280
     0
102
RTVSPost2010PropOp55
 70
     1
102
RTVSPost2010Prop56
140
1.0
102
RTVSPost2010PropOp56
 70
     1
102
RTVSPost2010Prop57
140
1.0
102
RTVSPost2010PropOp57
 70
     1
102
RTVSPropertyOp0
 70
     1
102
RTVSPropertyOp1
 70
     1
102
RTVSPropertyOp2
 70
     1
102
RTVSPropertyOp3
 70
     1
102
RTVSPropertyOp4
 70
     1
102
RTVSPropertyOp5
 70
     1
102
RTVSPropertyOp6
 70
     1
102
RTVSPropertyOp7
 70
     1
102
RTVSPropertyOp8
 70
     1
102
RTVSPropertyOp9
 70
     1
102
RTVSPropertyOp10
 70
     1
102
RTVSPropertyOp11
 70
     1
102
RTVSPropertyOp12
 70
     1
102
RTVSPropertyOp13
 70
     1
102
RTVSPropertyOp14
 70
     1
102
RTVSPropertyOp15
 70
     1
102
RTVSPropertyOp16
 70
     1
102
RTVSPropertyOp17
 70
     1
102
RTVSPropertyOp18
 70
     1
102
RTVSPropertyOp19
 70
     1
102
RTVSPropertyOp20
 70
     1
102
RTVSPropertyOp21
 70
     1
102
RTVSPropertyOp22
 70
     1
102
RTVSPropertyOp23
 70
     1
102
RTVSPropertyOp24
 70
     1
102
RTVSPropertyOp25
 70
     1
102
RTVSPropertyOp26
 70
     1
102
RTVSPropertyOp27
 70
     1
102
RTVSPropertyOp28
 70
     1
102
RTVSPropertyOp29
 70
     1
102
RTVSPropertyOp30
 70
     1
102
RTVSPropertyOp31
 70
     1
102
RTVSPropertyOp32
 70
     1
102
RTVSPropertyOp33
 70
     1
102
RTVSPropertyOp34
 70
     1
102
RTVSPropertyOp35
 70
     1
102
RTVSPropertyOp36
 70
     1
102
RTVSPropertyOp37
 70
     1
102
RTVSPropertyOp38
 70
     1
102
RTVSPropertyOp39
 70
     1
102
RTVSPropertyOp40
 70
     1
102
RTVSPropertyOp41
 70
     1
102
RTVSPropertyOp42
 70
     1
102
RTVSPropertyOp43
 70
     1
102
RTVSPropertyOp44
 70
     1
102
RTVSPropertyOp45
 70
     1
102
RTVSPropertyOp46
 70
     1
102
RTVSPropertyOp47
 70
     1
102
RTVSPropertyOp48
 70
     1
102
RTVSPropertyOp49
 70
     1
102
RTVSPropertyOp50
 70
     1
102
RTVSPropertyOp51
 70
     0
102
RTVSPropertyOp52
 70
     0
102
RTVSPropertyOp53
 70
     1
102
RTVSPropertyOp54
 70
     1
102
RTVSPropertyOp55
 70
     1
102
RTVSPropertyOp56
 70
     1
102
RTVSPropertyOp57
 70
     1
102
RTVSPropertyOp58
 70
     1
102
RTVSPropertyOp59
 70
     1
102
RTVSPropertyOp60
 70
     1
102
RTVSPropertyOp61
 70
     1
102
RTVSPropertyOp62
 70
     1
  0
XRECORD
  5
451
102
{ACAD_REACTORS
330
450
102
}
330
450
100
AcDbXrecord
280
     1
102
RTVSPost2010Prop28
280
     0
102
RTVSPost2010PropOp28
 70
     1
102
RTVSPost2010Prop29
280
     1
102
RTVSPost2010PropOp29
 70
     1
102
RTVSPost2010Prop30
280
     1
102
RTVSPost2010PropOp30
 70
     1
102
RTVSPost2010Prop31
280
     0
102
RTVSPost2010PropOp31
 70
     1
102
RTVSPost2010Prop32
280
     0
102
RTVSPost2010PropOp32
 70
     1
102
RTVSPost2010Prop33
280
     0
102
RTVSPost2010PropOp33
 70
     1
102
RTVSPost2010Prop34
280
     0
102
RTVSPost2010PropOp34
 70
     1
102
RTVSPost2010Prop35
280
     0
102
RTVSPost2010PropOp35
 70
     1
102
RTVSPost2010Prop36
280
     0
102
RTVSPost2010PropOp36
 70
     1
102
RTVSPost2010Prop37
 90
       50
102
RTVSPost2010PropOp37
 70
     1
102
RTVSPost2010Prop38
140
0.0
102
RTVSPost2010PropOp38
 70
     1
102
RTVSPost2010Prop39
140
1.0
102
RTVSPost2010PropOp39
 70
     1
102
RTVSPost2010Prop40
 90
        0
102
RTVSPost2010PropOp40
 70
     1
102
RTVSPost2010Prop41ColorIndex
 90
       18
102
RTVSPost2010Prop41ColorRGB
 90
        0
102
RTVSPost2010PropOp41
 70
     1
102
RTVSPost2010Prop42
 90
       50
102
RTVSPost2010PropOp42
 70
     1
102
RTVSPost2010Prop43
 90
        3
102
RTVSPost2010PropOp43
 70
     1
102
RTVSPost2010Prop44ColorIndex
 90
        5
102
RTVSPost2010Prop44ColorRGB
 90
      255
102
RTVSPost2010PropOp44
 70
     1
102
RTVSPost2010Prop45
280
     0
102
RTVSPost2010PropOp45
 70
     1
102
RTVSPost2010Prop46
 90
       50
102
RTVSPost2010PropOp46
 70
     1
102
RTVSPost2010Prop47
 90
       50
102
RTVSPost2010PropOp47
 70
     1
102
RTVSPost2010Prop48
 90
       50
102
RTVSPost2010PropOp48
 70
     1
102
RTVSPost2010Prop49
280
     0
102
RTVSPost2010PropOp49
 70
     1
102
RTVSPost2010Prop50
 90
       50
102
RTVSPost2010PropOp50
 70
     1
102
RTVSPost2010Prop51ColorIndex
 90
      256
102
RTVSPost2010Prop51ColorRGB
 90
-16777216
102
RTVSPost2010PropOp51
 70
     0
102
RTVSPost2010Prop52
140
1.0
102
RTVSPost2010PropOp52
 70
     0
102
RTVSPost2010Prop53
 90
        2
102
RTVSPost2010PropOp53
 70
     1
102
RTVSPost2010Prop54
  1
strokes_ogs.tif
102
RTVSPost2010PropOp54
 70
     1
102
RTVSPost2010Prop55
280
     0
102
RTVSPost2010PropOp55
 70
     1
102
RTVSPost2010Prop56
140
1.0
102
RTVSPost2010PropOp56
 70
     1
102
RTVSPost2010Prop57
140
1.0
102
RTVSPost2010PropOp57
 70
     1
102
RTVSPropertyOp0
 70
     1
102
RTVSPropertyOp1
 70
     1
102
RTVSPropertyOp2
 70
     1
102
RTVSPropertyOp3
 70
     1
102
RTVSPropertyOp4
 70
     1
102
RTVSPropertyOp5
 70
     1
102
RTVSPropertyOp6
 70
     1
102
RTVSPropertyOp7
 70
     1
102
RTVSPropertyOp8
 70
     1
102
RTVSPropertyOp9
 70
     1
102
RTVSPropertyOp10
 70
     1
102
RTVSPropertyOp11
 70
     1
102
RTVSPropertyOp12
 70
     1
102
RTVSPropertyOp13
 70
     1
102
RTVSPropertyOp14
 70
     1
102
RTVSPropertyOp15
 70
     1
102
RTVSPropertyOp16
 70
     1
102
RTVSPropertyOp17
 70
     1
102
RTVSPropertyOp18
 70
     1
102
RTVSPropertyOp19
 70
     1
102
RTVSPropertyOp20
 70
     1
102
RTVSPropertyOp21
 70
     1
102
RTVSPropertyOp22
 70
     1
102
RTVSPropertyOp23
 70
     1
102
RTVSPropertyOp24
 70
     1
102
RTVSPropertyOp25
 70
     1
102
RTVSPropertyOp26
 70
     1
102
RTVSPropertyOp27
 70
     1
102
RTVSPropertyOp28
 70
     1
102
RTVSPropertyOp29
 70
     1
102
RTVSPropertyOp30
 70
     1
102
RTVSPropertyOp31
 70
     1
102
RTVSPropertyOp32
 70
     1
102
RTVSPropertyOp33
 70
     1
102
RTVSPropertyOp34
 70
     1
102
RTVSPropertyOp35
 70
     1
102
RTVSPropertyOp36
 70
     1
102
RTVSPropertyOp37
 70
     1
102
RTVSPropertyOp38
 70
     1
102
RTVSPropertyOp39
 70
     1
102
RTVSPropertyOp40
 70
     1
102
RTVSPropertyOp41
 70
     1
102
RTVSPropertyOp42
 70
     1
102
RTVSPropertyOp43
 70
     1
102
RTVSPropertyOp44
 70
     1
102
RTVSPropertyOp45
 70
     1
102
RTVSPropertyOp46
 70
     1
102
RTVSPropertyOp47
 70
     1
102
RTVSPropertyOp48
 70
     1
102
RTVSPropertyOp49
 70
     1
102
RTVSPropertyOp50
 70
     1
102
RTVSPropertyOp51
 70
     0
102
RTVSPropertyOp52
 70
     0
102
RTVSPropertyOp53
 70
     1
102
RTVSPropertyOp54
 70
     1
102
RTVSPropertyOp55
 70
     1
102
RTVSPropertyOp56
 70
     1
102
RTVSPropertyOp57
 70
     1
102
RTVSPropertyOp58
 70
     1
102
RTVSPropertyOp59
 70
     1
102
RTVSPropertyOp60
 70
     1
102
RTVSPropertyOp61
 70
     1
102
RTVSPropertyOp62
 70
     1
  0
XRECORD
  5
46D
102
{ACAD_REACTORS
330
46C
102
}
330
46C
100
AcDbXrecord
280
     1
102
RTVSPost2010Prop28
280
     0
102
RTVSPost2010PropOp28
 70
     0
102
RTVSPost2010Prop29
280
     1
102
RTVSPost2010PropOp29
 70
     0
102
RTVSPost2010Prop30
280
     1
102
RTVSPost2010PropOp30
 70
     0
102
RTVSPost2010Prop31
280
     0
102
RTVSPost2010PropOp31
 70
     0
102
RTVSPost2010Prop32
280
     0
102
RTVSPost2010PropOp32
 70
     0
102
RTVSPost2010Prop33
280
     0
102
RTVSPost2010PropOp33
 70
     0
102
RTVSPost2010Prop34
280
     0
102
RTVSPost2010PropOp34
 70
     0
102
RTVSPost2010Prop35
280
     0
102
RTVSPost2010PropOp35
 70
     0
102
RTVSPost2010Prop36
280
     0
102
RTVSPost2010PropOp36
 70
     0
102
RTVSPost2010Prop37
 90
       50
102
RTVSPost2010PropOp37
 70
     0
102
RTVSPost2010Prop38
140
0.0
102
RTVSPost2010PropOp38
 70
     0
102
RTVSPost2010Prop39
140
1.0
102
RTVSPost2010PropOp39
 70
     0
102
RTVSPost2010Prop40
 90
        0
102
RTVSPost2010PropOp40
 70
     0
102
RTVSPost2010Prop41ColorIndex
 90
       18
102
RTVSPost2010Prop41ColorRGB
 90
        0
102
RTVSPost2010PropOp41
 70
     0
102
RTVSPost2010Prop42
 90
       50
102
RTVSPost2010PropOp42
 70
     0
102
RTVSPost2010Prop43
 90
        3
102
RTVSPost2010PropOp43
 70
     0
102
RTVSPost2010Prop44ColorIndex
 90
        5
102
RTVSPost2010Prop44ColorRGB
 90
      255
102
RTVSPost2010PropOp44
 70
     0
102
RTVSPost2010Prop45
280
     0
102
RTVSPost2010PropOp45
 70
     0
102
RTVSPost2010Prop46
 90
       50
102
RTVSPost2010PropOp46
 70
     0
102
RTVSPost2010Prop47
 90
       50
102
RTVSPost2010PropOp47
 70
     0
102
RTVSPost2010Prop48
 90
       50
102
RTVSPost2010PropOp48
 70
     0
102
RTVSPost2010Prop49
280
     0
102
RTVSPost2010PropOp49
 70
     0
102
RTVSPost2010Prop50
 90
       50
102
RTVSPost2010PropOp50
 70
     0
102
RTVSPost2010Prop51ColorIndex
 90
      256
102
RTVSPost2010Prop51ColorRGB
 90
-16777216
102
RTVSPost2010PropOp51
 70
     0
102
RTVSPost2010Prop52
140
1.0
102
RTVSPost2010PropOp52
 70
     0
102
RTVSPost2010Prop53
 90
        2
102
RTVSPost2010PropOp53
 70
     0
102
RTVSPost2010Prop54
  1
strokes_ogs.tif
102
RTVSPost2010PropOp54
 70
     0
102
RTVSPost2010Prop55
280
     0
102
RTVSPost2010PropOp55
 70
     0
102
RTVSPost2010Prop56
140
1.0
102
RTVSPost2010PropOp56
 70
     0
102
RTVSPost2010Prop57
140
1.0
102
RTVSPost2010PropOp57
 70
     0
102
RTVSPropertyOp0
 70
     0
102
RTVSPropertyOp1
 70
     0
102
RTVSPropertyOp2
 70
     0
102
RTVSPropertyOp3
 70
     0
102
RTVSPropertyOp4
 70
     0
102
RTVSPropertyOp5
 70
     0
102
RTVSPropertyOp6
 70
     0
102
RTVSPropertyOp7
 70
     0
102
RTVSPropertyOp8
 70
     0
102
RTVSPropertyOp9
 70
     0
102
RTVSPropertyOp10
 70
     0
102
RTVSPropertyOp11
 70
     0
102
RTVSPropertyOp12
 70
     0
102
RTVSPropertyOp13
 70
     0
102
RTVSPropertyOp14
 70
     2
102
RTVSPropertyOp15
 70
     0
102
RTVSPropertyOp16
 70
     0
102
RTVSPropertyOp17
 70
     0
102
RTVSPropertyOp18
 70
     0
102
RTVSPropertyOp19
 70
     0
102
RTVSPropertyOp20
 70
     0
102
RTVSPropertyOp21
 70
     0
102
RTVSPropertyOp22
 70
     0
102
RTVSPropertyOp23
 70
     0
102
RTVSPropertyOp24
 70
     0
102
RTVSPropertyOp25
 70
     0
102
RTVSPropertyOp26
 70
     0
102
RTVSPropertyOp27
 70
     0
102
RTVSPropertyOp28
 70
     0
102
RTVSPropertyOp29
 70
     0
102
RTVSPropertyOp30
 70
     0
102
RTVSPropertyOp31
 70
     0
102
RTVSPropertyOp32
 70
     0
102
RTVSPropertyOp33
 70
     0
102
RTVSPropertyOp34
 70
     0
102
RTVSPropertyOp35
 70
     0
102
RTVSPropertyOp36
 70
     0
102
RTVSPropertyOp37
 70
     0
102
RTVSPropertyOp38
 70
     0
102
RTVSPropertyOp39
 70
     0
102
RTVSPropertyOp40
 70
     0
102
RTVSPropertyOp41
 70
     0
102
RTVSPropertyOp42
 70
     0
102
RTVSPropertyOp43
 70
     0
102
RTVSPropertyOp44
 70
     0
102
RTVSPropertyOp45
 70
     0
102
RTVSPropertyOp46
 70
     0
102
RTVSPropertyOp47
 70
     0
102
RTVSPropertyOp48
 70
     0
102
RTVSPropertyOp49
 70
     0
102
RTVSPropertyOp50
 70
     0
102
RTVSPropertyOp51
 70
     0
102
RTVSPropertyOp52
 70
     0
102
RTVSPropertyOp53
 70
     0
102
RTVSPropertyOp54
 70
     0
102
RTVSPropertyOp55
 70
     0
102
RTVSPropertyOp56
 70
     0
102
RTVSPropertyOp57
 70
     0
102
RTVSPropertyOp58
 70
     0
102
RTVSPropertyOp59
 70
     0
102
RTVSPropertyOp60
 70
     0
102
RTVSPropertyOp61
 70
     0
102
RTVSPropertyOp62
 70
     0
  0
XRECORD
  5
45D
102
{ACAD_REACTORS
330
45C
102
}
330
45C
100
AcDbXrecord
280
     1
102
RTVSPost2010Prop28
280
     0
102
RTVSPost2010PropOp28
 70
     1
102
RTVSPost2010Prop29
280
     1
102
RTVSPost2010PropOp29
 70
     1
102
RTVSPost2010Prop30
280
     1
102
RTVSPost2010PropOp30
 70
     1
102
RTVSPost2010Prop31
280
     0
102
RTVSPost2010PropOp31
 70
     1
102
RTVSPost2010Prop32
280
     0
102
RTVSPost2010PropOp32
 70
     1
102
RTVSPost2010Prop33
280
     0
102
RTVSPost2010PropOp33
 70
     1
102
RTVSPost2010Prop34
280
     0
102
RTVSPost2010PropOp34
 70
     1
102
RTVSPost2010Prop35
280
     0
102
RTVSPost2010PropOp35
 70
     1
102
RTVSPost2010Prop36
280
     0
102
RTVSPost2010PropOp36
 70
     1
102
RTVSPost2010Prop37
 90
       50
102
RTVSPost2010PropOp37
 70
     1
102
RTVSPost2010Prop38
140
0.0
102
RTVSPost2010PropOp38
 70
     1
102
RTVSPost2010Prop39
140
1.0
102
RTVSPost2010PropOp39
 70
     1
102
RTVSPost2010Prop40
 90
        0
102
RTVSPost2010PropOp40
 70
     1
102
RTVSPost2010Prop41ColorIndex
 90
       18
102
RTVSPost2010Prop41ColorRGB
 90
        0
102
RTVSPost2010PropOp41
 70
     1
102
RTVSPost2010Prop42
 90
       50
102
RTVSPost2010PropOp42
 70
     1
102
RTVSPost2010Prop43
 90
        3
102
RTVSPost2010PropOp43
 70
     1
102
RTVSPost2010Prop44ColorIndex
 90
        5
102
RTVSPost2010Prop44ColorRGB
 90
      255
102
RTVSPost2010PropOp44
 70
     1
102
RTVSPost2010Prop45
280
     0
102
RTVSPost2010PropOp45
 70
     1
102
RTVSPost2010Prop46
 90
       50
102
RTVSPost2010PropOp46
 70
     1
102
RTVSPost2010Prop47
 90
       50
102
RTVSPost2010PropOp47
 70
     1
102
RTVSPost2010Prop48
 90
       50
102
RTVSPost2010PropOp48
 70
     1
102
RTVSPost2010Prop49
280
     0
102
RTVSPost2010PropOp49
 70
     1
102
RTVSPost2010Prop50
 90
       50
102
RTVSPost2010PropOp50
 70
     1
102
RTVSPost2010Prop51ColorIndex
 90
      256
102
RTVSPost2010Prop51ColorRGB
 90
-16777216
102
RTVSPost2010PropOp51
 70
     0
102
RTVSPost2010Prop52
140
1.0
102
RTVSPost2010PropOp52
 70
     0
102
RTVSPost2010Prop53
 90
        2
102
RTVSPost2010PropOp53
 70
     1
102
RTVSPost2010Prop54
  1
strokes_ogs.tif
102
RTVSPost2010PropOp54
 70
     1
102
RTVSPost2010Prop55
280
     0
102
RTVSPost2010PropOp55
 70
     1
102
RTVSPost2010Prop56
140
1.0
102
RTVSPost2010PropOp56
 70
     1
102
RTVSPost2010Prop57
140
1.0
102
RTVSPost2010PropOp57
 70
     1
102
RTVSPropertyOp0
 70
     1
102
RTVSPropertyOp1
 70
     1
102
RTVSPropertyOp2
 70
     1
102
RTVSPropertyOp3
 70
     1
102
RTVSPropertyOp4
 70
     1
102
RTVSPropertyOp5
 70
     1
102
RTVSPropertyOp6
 70
     1
102
RTVSPropertyOp7
 70
     1
102
RTVSPropertyOp8
 70
     1
102
RTVSPropertyOp9
 70
     1
102
RTVSPropertyOp10
 70
     1
102
RTVSPropertyOp11
 70
     1
102
RTVSPropertyOp12
 70
     1
102
RTVSPropertyOp13
 70
     1
102
RTVSPropertyOp14
 70
     1
102
RTVSPropertyOp15
 70
     1
102
RTVSPropertyOp16
 70
     1
102
RTVSPropertyOp17
 70
     1
102
RTVSPropertyOp18
 70
     1
102
RTVSPropertyOp19
 70
     1
102
RTVSPropertyOp20
 70
     1
102
RTVSPropertyOp21
 70
     1
102
RTVSPropertyOp22
 70
     1
102
RTVSPropertyOp23
 70
     1
102
RTVSPropertyOp24
 70
     1
102
RTVSPropertyOp25
 70
     1
102
RTVSPropertyOp26
 70
     1
102
RTVSPropertyOp27
 70
     1
102
RTVSPropertyOp28
 70
     1
102
RTVSPropertyOp29
 70
     1
102
RTVSPropertyOp30
 70
     1
102
RTVSPropertyOp31
 70
     1
102
RTVSPropertyOp32
 70
     1
102
RTVSPropertyOp33
 70
     1
102
RTVSPropertyOp34
 70
     1
102
RTVSPropertyOp35
 70
     1
102
RTVSPropertyOp36
 70
     1
102
RTVSPropertyOp37
 70
     1
102
RTVSPropertyOp38
 70
     1
102
RTVSPropertyOp39
 70
     1
102
RTVSPropertyOp40
 70
     1
102
RTVSPropertyOp41
 70
     1
102
RTVSPropertyOp42
 70
     1
102
RTVSPropertyOp43
 70
     1
102
RTVSPropertyOp44
 70
     1
102
RTVSPropertyOp45
 70
     1
102
RTVSPropertyOp46
 70
     1
102
RTVSPropertyOp47
 70
     1
102
RTVSPropertyOp48
 70
     1
102
RTVSPropertyOp49
 70
     1
102
RTVSPropertyOp50
 70
     1
102
RTVSPropertyOp51
 70
     0
102
RTVSPropertyOp52
 70
     0
102
RTVSPropertyOp53
 70
     1
102
RTVSPropertyOp54
 70
     1
102
RTVSPropertyOp55
 70
     1
102
RTVSPropertyOp56
 70
     1
102
RTVSPropertyOp57
 70
     1
102
RTVSPropertyOp58
 70
     1
102
RTVSPropertyOp59
 70
     1
102
RTVSPropertyOp60
 70
     1
102
RTVSPropertyOp61
 70
     1
102
RTVSPropertyOp62
 70
     1
  0
XRECORD
  5
46F
102
{ACAD_REACTORS
330
46E
102
}
330
46E
100
AcDbXrecord
280
     1
102
RTVSPost2010Prop28
280
     0
102
RTVSPost2010PropOp28
 70
     0
102
RTVSPost2010Prop29
280
     1
102
RTVSPost2010PropOp29
 70
     0
102
RTVSPost2010Prop30
280
     1
102
RTVSPost2010PropOp30
 70
     0
102
RTVSPost2010Prop31
280
     0
102
RTVSPost2010PropOp31
 70
     0
102
RTVSPost2010Prop32
280
     0
102
RTVSPost2010PropOp32
 70
     0
102
RTVSPost2010Prop33
280
     0
102
RTVSPost2010PropOp33
 70
     0
102
RTVSPost2010Prop34
280
     0
102
RTVSPost2010PropOp34
 70
     0
102
RTVSPost2010Prop35
280
     0
102
RTVSPost2010PropOp35
 70
     0
102
RTVSPost2010Prop36
280
     0
102
RTVSPost2010PropOp36
 70
     0
102
RTVSPost2010Prop37
 90
       50
102
RTVSPost2010PropOp37
 70
     0
102
RTVSPost2010Prop38
140
0.0
102
RTVSPost2010PropOp38
 70
     0
102
RTVSPost2010Prop39
140
1.0
102
RTVSPost2010PropOp39
 70
     0
102
RTVSPost2010Prop40
 90
        0
102
RTVSPost2010PropOp40
 70
     0
102
RTVSPost2010Prop41ColorIndex
 90
       18
102
RTVSPost2010Prop41ColorRGB
 90
        0
102
RTVSPost2010PropOp41
 70
     0
102
RTVSPost2010Prop42
 90
       50
102
RTVSPost2010PropOp42
 70
     0
102
RTVSPost2010Prop43
 90
        3
102
RTVSPost2010PropOp43
 70
     0
102
RTVSPost2010Prop44ColorIndex
 90
        5
102
RTVSPost2010Prop44ColorRGB
 90
      255
102
RTVSPost2010PropOp44
 70
     0
102
RTVSPost2010Prop45
280
     0
102
RTVSPost2010PropOp45
 70
     0
102
RTVSPost2010Prop46
 90
       50
102
RTVSPost2010PropOp46
 70
     0
102
RTVSPost2010Prop47
 90
       50
102
RTVSPost2010PropOp47
 70
     0
102
RTVSPost2010Prop48
 90
       50
102
RTVSPost2010PropOp48
 70
     0
102
RTVSPost2010Prop49
280
     0
102
RTVSPost2010PropOp49
 70
     0
102
RTVSPost2010Prop50
 90
       50
102
RTVSPost2010PropOp50
 70
     0
102
RTVSPost2010Prop51ColorIndex
 90
      256
102
RTVSPost2010Prop51ColorRGB
 90
-16777216
102
RTVSPost2010PropOp51
 70
     0
102
RTVSPost2010Prop52
140
1.0
102
RTVSPost2010PropOp52
 70
     0
102
RTVSPost2010Prop53
 90
        2
102
RTVSPost2010PropOp53
 70
     0
102
RTVSPost2010Prop54
  1
strokes_ogs.tif
102
RTVSPost2010PropOp54
 70
     0
102
RTVSPost2010Prop55
280
     0
102
RTVSPost2010PropOp55
 70
     0
102
RTVSPost2010Prop56
140
1.0
102
RTVSPost2010PropOp56
 70
     0
102
RTVSPost2010Prop57
140
1.0
102
RTVSPost2010PropOp57
 70
     0
102
RTVSPropertyOp0
 70
     0
102
RTVSPropertyOp1
 70
     0
102
RTVSPropertyOp2
 70
     0
102
RTVSPropertyOp3
 70
     0
102
RTVSPropertyOp4
 70
     0
102
RTVSPropertyOp5
 70
     0
102
RTVSPropertyOp6
 70
     0
102
RTVSPropertyOp7
 70
     0
102
RTVSPropertyOp8
 70
     0
102
RTVSPropertyOp9
 70
     0
102
RTVSPropertyOp10
 70
     0
102
RTVSPropertyOp11
 70
     0
102
RTVSPropertyOp12
 70
     0
102
RTVSPropertyOp13
 70
     0
102
RTVSPropertyOp14
 70
     2
102
RTVSPropertyOp15
 70
     0
102
RTVSPropertyOp16
 70
     0
102
RTVSPropertyOp17
 70
     0
102
RTVSPropertyOp18
 70
     0
102
RTVSPropertyOp19
 70
     0
102
RTVSPropertyOp20
 70
     0
102
RTVSPropertyOp21
 70
     0
102
RTVSPropertyOp22
 70
     0
102
RTVSPropertyOp23
 70
     0
102
RTVSPropertyOp24
 70
     0
102
RTVSPropertyOp25
 70
     0
102
RTVSPropertyOp26
 70
     0
102
RTVSPropertyOp27
 70
     0
102
RTVSPropertyOp28
 70
     0
102
RTVSPropertyOp29
 70
     0
102
RTVSPropertyOp30
 70
     0
102
RTVSPropertyOp31
 70
     0
102
RTVSPropertyOp32
 70
     0
102
RTVSPropertyOp33
 70
     0
102
RTVSPropertyOp34
 70
     0
102
RTVSPropertyOp35
 70
     0
102
RTVSPropertyOp36
 70
     0
102
RTVSPropertyOp37
 70
     0
102
RTVSPropertyOp38
 70
     0
102
RTVSPropertyOp39
 70
     0
102
RTVSPropertyOp40
 70
     0
102
RTVSPropertyOp41
 70
     0
102
RTVSPropertyOp42
 70
     0
102
RTVSPropertyOp43
 70
     0
102
RTVSPropertyOp44
 70
     0
102
RTVSPropertyOp45
 70
     0
102
RTVSPropertyOp46
 70
     0
102
RTVSPropertyOp47
 70
     0
102
RTVSPropertyOp48
 70
     0
102
RTVSPropertyOp49
 70
     0
102
RTVSPropertyOp50
 70
     0
102
RTVSPropertyOp51
 70
     0
102
RTVSPropertyOp52
 70
     0
102
RTVSPropertyOp53
 70
     0
102
RTVSPropertyOp54
 70
     0
102
RTVSPropertyOp55
 70
     0
102
RTVSPropertyOp56
 70
     0
102
RTVSPropertyOp57
 70
     0
102
RTVSPropertyOp58
 70
     0
102
RTVSPropertyOp59
 70
     0
102
RTVSPropertyOp60
 70
     0
102
RTVSPropertyOp61
 70
     0
102
RTVSPropertyOp62
 70
     0
  0
XRECORD
  5
455
102
{ACAD_REACTORS
330
454
102
}
330
454
100
AcDbXrecord
280
     1
102
RTVSPost2010Prop28
280
     0
102
RTVSPost2010PropOp28
 70
     1
102
RTVSPost2010Prop29
280
     1
102
RTVSPost2010PropOp29
 70
     1
102
RTVSPost2010Prop30
280
     1
102
RTVSPost2010PropOp30
 70
     1
102
RTVSPost2010Prop31
280
     0
102
RTVSPost2010PropOp31
 70
     1
102
RTVSPost2010Prop32
280
     0
102
RTVSPost2010PropOp32
 70
     1
102
RTVSPost2010Prop33
280
     0
102
RTVSPost2010PropOp33
 70
     1
102
RTVSPost2010Prop34
280
     0
102
RTVSPost2010PropOp34
 70
     1
102
RTVSPost2010Prop35
280
     0
102
RTVSPost2010PropOp35
 70
     1
102
RTVSPost2010Prop36
280
     0
102
RTVSPost2010PropOp36
 70
     1
102
RTVSPost2010Prop37
 90
       50
102
RTVSPost2010PropOp37
 70
     1
102
RTVSPost2010Prop38
140
0.0
102
RTVSPost2010PropOp38
 70
     1
102
RTVSPost2010Prop39
140
1.0
102
RTVSPost2010PropOp39
 70
     1
102
RTVSPost2010Prop40
 90
        0
102
RTVSPost2010PropOp40
 70
     1
102
RTVSPost2010Prop41ColorIndex
 90
       18
102
RTVSPost2010Prop41ColorRGB
 90
        0
102
RTVSPost2010PropOp41
 70
     1
102
RTVSPost2010Prop42
 90
       50
102
RTVSPost2010PropOp42
 70
     1
102
RTVSPost2010Prop43
 90
        3
102
RTVSPost2010PropOp43
 70
     1
102
RTVSPost2010Prop44ColorIndex
 90
        5
102
RTVSPost2010Prop44ColorRGB
 90
      255
102
RTVSPost2010PropOp44
 70
     1
102
RTVSPost2010Prop45
280
     0
102
RTVSPost2010PropOp45
 70
     1
102
RTVSPost2010Prop46
 90
       50
102
RTVSPost2010PropOp46
 70
     1
102
RTVSPost2010Prop47
 90
       50
102
RTVSPost2010PropOp47
 70
     1
102
RTVSPost2010Prop48
 90
       50
102
RTVSPost2010PropOp48
 70
     1
102
RTVSPost2010Prop49
280
     0
102
RTVSPost2010PropOp49
 70
     1
102
RTVSPost2010Prop50
 90
       50
102
RTVSPost2010PropOp50
 70
     1
102
RTVSPost2010Prop51ColorIndex
 90
      256
102
RTVSPost2010Prop51ColorRGB
 90
-16777216
102
RTVSPost2010PropOp51
 70
     0
102
RTVSPost2010Prop52
140
1.0
102
RTVSPost2010PropOp52
 70
     0
102
RTVSPost2010Prop53
 90
        2
102
RTVSPost2010PropOp53
 70
     1
102
RTVSPost2010Prop54
  1
strokes_ogs.tif
102
RTVSPost2010PropOp54
 70
     1
102
RTVSPost2010Prop55
280
     0
102
RTVSPost2010PropOp55
 70
     1
102
RTVSPost2010Prop56
140
1.0
102
RTVSPost2010PropOp56
 70
     1
102
RTVSPost2010Prop57
140
1.0
102
RTVSPost2010PropOp57
 70
     1
102
RTVSPropertyOp0
 70
     1
102
RTVSPropertyOp1
 70
     1
102
RTVSPropertyOp2
 70
     1
102
RTVSPropertyOp3
 70
     1
102
RTVSPropertyOp4
 70
     1
102
RTVSPropertyOp5
 70
     1
102
RTVSPropertyOp6
 70
     1
102
RTVSPropertyOp7
 70
     1
102
RTVSPropertyOp8
 70
     1
102
RTVSPropertyOp9
 70
     1
102
RTVSPropertyOp10
 70
     1
102
RTVSPropertyOp11
 70
     1
102
RTVSPropertyOp12
 70
     1
102
RTVSPropertyOp13
 70
     1
102
RTVSPropertyOp14
 70
     1
102
RTVSPropertyOp15
 70
     1
102
RTVSPropertyOp16
 70
     1
102
RTVSPropertyOp17
 70
     1
102
RTVSPropertyOp18
 70
     1
102
RTVSPropertyOp19
 70
     1
102
RTVSPropertyOp20
 70
     1
102
RTVSPropertyOp21
 70
     1
102
RTVSPropertyOp22
 70
     1
102
RTVSPropertyOp23
 70
     1
102
RTVSPropertyOp24
 70
     1
102
RTVSPropertyOp25
 70
     1
102
RTVSPropertyOp26
 70
     1
102
RTVSPropertyOp27
 70
     1
102
RTVSPropertyOp28
 70
     1
102
RTVSPropertyOp29
 70
     1
102
RTVSPropertyOp30
 70
     1
102
RTVSPropertyOp31
 70
     1
102
RTVSPropertyOp32
 70
     1
102
RTVSPropertyOp33
 70
     1
102
RTVSPropertyOp34
 70
     1
102
RTVSPropertyOp35
 70
     1
102
RTVSPropertyOp36
 70
     1
102
RTVSPropertyOp37
 70
     1
102
RTVSPropertyOp38
 70
     1
102
RTVSPropertyOp39
 70
     1
102
RTVSPropertyOp40
 70
     1
102
RTVSPropertyOp41
 70
     1
102
RTVSPropertyOp42
 70
     1
102
RTVSPropertyOp43
 70
     1
102
RTVSPropertyOp44
 70
     1
102
RTVSPropertyOp45
 70
     1
102
RTVSPropertyOp46
 70
     1
102
RTVSPropertyOp47
 70
     1
102
RTVSPropertyOp48
 70
     1
102
RTVSPropertyOp49
 70
     1
102
RTVSPropertyOp50
 70
     1
102
RTVSPropertyOp51
 70
     0
102
RTVSPropertyOp52
 70
     0
102
RTVSPropertyOp53
 70
     1
102
RTVSPropertyOp54
 70
     1
102
RTVSPropertyOp55
 70
     1
102
RTVSPropertyOp56
 70
     1
102
RTVSPropertyOp57
 70
     1
102
RTVSPropertyOp58
 70
     1
102
RTVSPropertyOp59
 70
     1
102
RTVSPropertyOp60
 70
     1
102
RTVSPropertyOp61
 70
     1
102
RTVSPropertyOp62
 70
     1
  0
XRECORD
  5
46B
102
{ACAD_REACTORS
330
46A
102
}
330
46A
100
AcDbXrecord
280
     1
102
RTVSPost2010Prop28
280
     0
102
RTVSPost2010PropOp28
 70
     1
102
RTVSPost2010Prop29
280
     1
102
RTVSPost2010PropOp29
 70
     1
102
RTVSPost2010Prop30
280
     1
102
RTVSPost2010PropOp30
 70
     1
102
RTVSPost2010Prop31
280
     0
102
RTVSPost2010PropOp31
 70
     1
102
RTVSPost2010Prop32
280
     0
102
RTVSPost2010PropOp32
 70
     1
102
RTVSPost2010Prop33
280
     0
102
RTVSPost2010PropOp33
 70
     1
102
RTVSPost2010Prop34
280
     0
102
RTVSPost2010PropOp34
 70
     1
102
RTVSPost2010Prop35
280
     0
102
RTVSPost2010PropOp35
 70
     1
102
RTVSPost2010Prop36
280
     0
102
RTVSPost2010PropOp36
 70
     1
102
RTVSPost2010Prop37
 90
       50
102
RTVSPost2010PropOp37
 70
     1
102
RTVSPost2010Prop38
140
0.0
102
RTVSPost2010PropOp38
 70
     1
102
RTVSPost2010Prop39
140
1.0
102
RTVSPost2010PropOp39
 70
     1
102
RTVSPost2010Prop40
 90
        0
102
RTVSPost2010PropOp40
 70
     1
102
RTVSPost2010Prop41ColorIndex
 90
       18
102
RTVSPost2010Prop41ColorRGB
 90
        0
102
RTVSPost2010PropOp41
 70
     1
102
RTVSPost2010Prop42
 90
       50
102
RTVSPost2010PropOp42
 70
     1
102
RTVSPost2010Prop43
 90
        3
102
RTVSPost2010PropOp43
 70
     1
102
RTVSPost2010Prop44ColorIndex
 90
        5
102
RTVSPost2010Prop44ColorRGB
 90
      255
102
RTVSPost2010PropOp44
 70
     1
102
RTVSPost2010Prop45
280
     0
102
RTVSPost2010PropOp45
 70
     1
102
RTVSPost2010Prop46
 90
       50
102
RTVSPost2010PropOp46
 70
     1
102
RTVSPost2010Prop47
 90
       50
102
RTVSPost2010PropOp47
 70
     1
102
RTVSPost2010Prop48
 90
       50
102
RTVSPost2010PropOp48
 70
     1
102
RTVSPost2010Prop49
280
     0
102
RTVSPost2010PropOp49
 70
     1
102
RTVSPost2010Prop50
 90
       50
102
RTVSPost2010PropOp50
 70
     1
102
RTVSPost2010Prop51ColorIndex
 90
      256
102
RTVSPost2010Prop51ColorRGB
 90
-16777216
102
RTVSPost2010PropOp51
 70
     0
102
RTVSPost2010Prop52
140
1.0
102
RTVSPost2010PropOp52
 70
     0
102
RTVSPost2010Prop53
 90
        2
102
RTVSPost2010PropOp53
 70
     1
102
RTVSPost2010Prop54
  1
strokes_ogs.tif
102
RTVSPost2010PropOp54
 70
     1
102
RTVSPost2010Prop55
280
     0
102
RTVSPost2010PropOp55
 70
     1
102
RTVSPost2010Prop56
140
1.0
102
RTVSPost2010PropOp56
 70
     1
102
RTVSPost2010Prop57
140
1.0
102
RTVSPost2010PropOp57
 70
     1
102
RTVSPropertyOp0
 70
     1
102
RTVSPropertyOp1
 70
     1
102
RTVSPropertyOp2
 70
     1
102
RTVSPropertyOp3
 70
     1
102
RTVSPropertyOp4
 70
     1
102
RTVSPropertyOp5
 70
     1
102
RTVSPropertyOp6
 70
     1
102
RTVSPropertyOp7
 70
     1
102
RTVSPropertyOp8
 70
     1
102
RTVSPropertyOp9
 70
     1
102
RTVSPropertyOp10
 70
     1
102
RTVSPropertyOp11
 70
     1
102
RTVSPropertyOp12
 70
     1
102
RTVSPropertyOp13
 70
     1
102
RTVSPropertyOp14
 70
     1
102
RTVSPropertyOp15
 70
     1
102
RTVSPropertyOp16
 70
     1
102
RTVSPropertyOp17
 70
     1
102
RTVSPropertyOp18
 70
     1
102
RTVSPropertyOp19
 70
     1
102
RTVSPropertyOp20
 70
     1
102
RTVSPropertyOp21
 70
     1
102
RTVSPropertyOp22
 70
     1
102
RTVSPropertyOp23
 70
     1
102
RTVSPropertyOp24
 70
     1
102
RTVSPropertyOp25
 70
     1
102
RTVSPropertyOp26
 70
     1
102
RTVSPropertyOp27
 70
     1
102
RTVSPropertyOp28
 70
     1
102
RTVSPropertyOp29
 70
     1
102
RTVSPropertyOp30
 70
     1
102
RTVSPropertyOp31
 70
     1
102
RTVSPropertyOp32
 70
     1
102
RTVSPropertyOp33
 70
     1
102
RTVSPropertyOp34
 70
     1
102
RTVSPropertyOp35
 70
     1
102
RTVSPropertyOp36
 70
     1
102
RTVSPropertyOp37
 70
     1
102
RTVSPropertyOp38
 70
     1
102
RTVSPropertyOp39
 70
     1
102
RTVSPropertyOp40
 70
     1
102
RTVSPropertyOp41
 70
     1
102
RTVSPropertyOp42
 70
     1
102
RTVSPropertyOp43
 70
     1
102
RTVSPropertyOp44
 70
     1
102
RTVSPropertyOp45
 70
     1
102
RTVSPropertyOp46
 70
     1
102
RTVSPropertyOp47
 70
     1
102
RTVSPropertyOp48
 70
     1
102
RTVSPropertyOp49
 70
     1
102
RTVSPropertyOp50
 70
     1
102
RTVSPropertyOp51
 70
     0
102
RTVSPropertyOp52
 70
     0
102
RTVSPropertyOp53
 70
     1
102
RTVSPropertyOp54
 70
     1
102
RTVSPropertyOp55
 70
     1
102
RTVSPropertyOp56
 70
     1
102
RTVSPropertyOp57
 70
     1
102
RTVSPropertyOp58
 70
     1
102
RTVSPropertyOp59
 70
     1
102
RTVSPropertyOp60
 70
     1
102
RTVSPropertyOp61
 70
     1
102
RTVSPropertyOp62
 70
     1
  0
XRECORD
  5
469
102
{ACAD_REACTORS
330
468
102
}
330
468
100
AcDbXrecord
280
     1
102
RTVSPost2010Prop28
280
     0
102
RTVSPost2010PropOp28
 70
     1
102
RTVSPost2010Prop29
280
     1
102
RTVSPost2010PropOp29
 70
     1
102
RTVSPost2010Prop30
280
     1
102
RTVSPost2010PropOp30
 70
     1
102
RTVSPost2010Prop31
280
     0
102
RTVSPost2010PropOp31
 70
     1
102
RTVSPost2010Prop32
280
     0
102
RTVSPost2010PropOp32
 70
     1
102
RTVSPost2010Prop33
280
     0
102
RTVSPost2010PropOp33
 70
     1
102
RTVSPost2010Prop34
280
     0
102
RTVSPost2010PropOp34
 70
     1
102
RTVSPost2010Prop35
280
     0
102
RTVSPost2010PropOp35
 70
     1
102
RTVSPost2010Prop36
280
     0
102
RTVSPost2010PropOp36
 70
     1
102
RTVSPost2010Prop37
 90
       50
102
RTVSPost2010PropOp37
 70
     1
102
RTVSPost2010Prop38
140
0.0
102
RTVSPost2010PropOp38
 70
     1
102
RTVSPost2010Prop39
140
1.0
102
RTVSPost2010PropOp39
 70
     1
102
RTVSPost2010Prop40
 90
        0
102
RTVSPost2010PropOp40
 70
     1
102
RTVSPost2010Prop41ColorIndex
 90
       18
102
RTVSPost2010Prop41ColorRGB
 90
        0
102
RTVSPost2010PropOp41
 70
     1
102
RTVSPost2010Prop42
 90
       50
102
RTVSPost2010PropOp42
 70
     1
102
RTVSPost2010Prop43
 90
        3
102
RTVSPost2010PropOp43
 70
     1
102
RTVSPost2010Prop44ColorIndex
 90
        5
102
RTVSPost2010Prop44ColorRGB
 90
      255
102
RTVSPost2010PropOp44
 70
     1
102
RTVSPost2010Prop45
280
     0
102
RTVSPost2010PropOp45
 70
     1
102
RTVSPost2010Prop46
 90
       50
102
RTVSPost2010PropOp46
 70
     1
102
RTVSPost2010Prop47
 90
       50
102
RTVSPost2010PropOp47
 70
     1
102
RTVSPost2010Prop48
 90
       50
102
RTVSPost2010PropOp48
 70
     1
102
RTVSPost2010Prop49
280
     0
102
RTVSPost2010PropOp49
 70
     1
102
RTVSPost2010Prop50
 90
       50
102
RTVSPost2010PropOp50
 70
     1
102
RTVSPost2010Prop51ColorIndex
 90
      256
102
RTVSPost2010Prop51ColorRGB
 90
-16777216
102
RTVSPost2010PropOp51
 70
     0
102
RTVSPost2010Prop52
140
1.0
102
RTVSPost2010PropOp52
 70
     0
102
RTVSPost2010Prop53
 90
        2
102
RTVSPost2010PropOp53
 70
     1
102
RTVSPost2010Prop54
  1
strokes_ogs.tif
102
RTVSPost2010PropOp54
 70
     1
102
RTVSPost2010Prop55
280
     0
102
RTVSPost2010PropOp55
 70
     1
102
RTVSPost2010Prop56
140
1.0
102
RTVSPost2010PropOp56
 70
     1
102
RTVSPost2010Prop57
140
1.0
102
RTVSPost2010PropOp57
 70
     1
102
RTVSPropertyOp0
 70
     1
102
RTVSPropertyOp1
 70
     1
102
RTVSPropertyOp2
 70
     1
102
RTVSPropertyOp3
 70
     1
102
RTVSPropertyOp4
 70
     1
102
RTVSPropertyOp5
 70
     1
102
RTVSPropertyOp6
 70
     1
102
RTVSPropertyOp7
 70
     1
102
RTVSPropertyOp8
 70
     1
102
RTVSPropertyOp9
 70
     1
102
RTVSPropertyOp10
 70
     1
102
RTVSPropertyOp11
 70
     1
102
RTVSPropertyOp12
 70
     1
102
RTVSPropertyOp13
 70
     1
102
RTVSPropertyOp14
 70
     1
102
RTVSPropertyOp15
 70
     1
102
RTVSPropertyOp16
 70
     1
102
RTVSPropertyOp17
 70
     1
102
RTVSPropertyOp18
 70
     1
102
RTVSPropertyOp19
 70
     1
102
RTVSPropertyOp20
 70
     1
102
RTVSPropertyOp21
 70
     1
102
RTVSPropertyOp22
 70
     1
102
RTVSPropertyOp23
 70
     1
102
RTVSPropertyOp24
 70
     1
102
RTVSPropertyOp25
 70
     1
102
RTVSPropertyOp26
 70
     1
102
RTVSPropertyOp27
 70
     1
102
RTVSPropertyOp28
 70
     1
102
RTVSPropertyOp29
 70
     1
102
RTVSPropertyOp30
 70
     1
102
RTVSPropertyOp31
 70
     1
102
RTVSPropertyOp32
 70
     1
102
RTVSPropertyOp33
 70
     1
102
RTVSPropertyOp34
 70
     1
102
RTVSPropertyOp35
 70
     1
102
RTVSPropertyOp36
 70
     1
102
RTVSPropertyOp37
 70
     1
102
RTVSPropertyOp38
 70
     1
102
RTVSPropertyOp39
 70
     1
102
RTVSPropertyOp40
 70
     1
102
RTVSPropertyOp41
 70
     1
102
RTVSPropertyOp42
 70
     1
102
RTVSPropertyOp43
 70
     1
102
RTVSPropertyOp44
 70
     1
102
RTVSPropertyOp45
 70
     1
102
RTVSPropertyOp46
 70
     1
102
RTVSPropertyOp47
 70
     1
102
RTVSPropertyOp48
 70
     1
102
RTVSPropertyOp49
 70
     1
102
RTVSPropertyOp50
 70
     1
102
RTVSPropertyOp51
 70
     0
102
RTVSPropertyOp52
 70
     0
102
RTVSPropertyOp53
 70
     1
102
RTVSPropertyOp54
 70
     1
102
RTVSPropertyOp55
 70
     1
102
RTVSPropertyOp56
 70
     1
102
RTVSPropertyOp57
 70
     1
102
RTVSPropertyOp58
 70
     1
102
RTVSPropertyOp59
 70
     1
102
RTVSPropertyOp60
 70
     1
102
RTVSPropertyOp61
 70
     1
102
RTVSPropertyOp62
 70
     1
  0
XRECORD
  5
463
102
{ACAD_REACTORS
330
462
102
}
330
462
100
AcDbXrecord
280
     1
102
RTVSPost2010Prop28
280
     0
102
RTVSPost2010PropOp28
 70
     1
102
RTVSPost2010Prop29
280
     1
102
RTVSPost2010PropOp29
 70
     1
102
RTVSPost2010Prop30
280
     1
102
RTVSPost2010PropOp30
 70
     1
102
RTVSPost2010Prop31
280
     0
102
RTVSPost2010PropOp31
 70
     1
102
RTVSPost2010Prop32
280
     0
102
RTVSPost2010PropOp32
 70
     1
102
RTVSPost2010Prop33
280
     0
102
RTVSPost2010PropOp33
 70
     1
102
RTVSPost2010Prop34
280
     0
102
RTVSPost2010PropOp34
 70
     1
102
RTVSPost2010Prop35
280
     0
102
RTVSPost2010PropOp35
 70
     1
102
RTVSPost2010Prop36
280
     0
102
RTVSPost2010PropOp36
 70
     1
102
RTVSPost2010Prop37
 90
       50
102
RTVSPost2010PropOp37
 70
     1
102
RTVSPost2010Prop38
140
0.0
102
RTVSPost2010PropOp38
 70
     1
102
RTVSPost2010Prop39
140
1.0
102
RTVSPost2010PropOp39
 70
     1
102
RTVSPost2010Prop40
 90
        0
102
RTVSPost2010PropOp40
 70
     1
102
RTVSPost2010Prop41ColorIndex
 90
       18
102
RTVSPost2010Prop41ColorRGB
 90
        0
102
RTVSPost2010PropOp41
 70
     1
102
RTVSPost2010Prop42
 90
       50
102
RTVSPost2010PropOp42
 70
     1
102
RTVSPost2010Prop43
 90
        3
102
RTVSPost2010PropOp43
 70
     1
102
RTVSPost2010Prop44ColorIndex
 90
        5
102
RTVSPost2010Prop44ColorRGB
 90
      255
102
RTVSPost2010PropOp44
 70
     1
102
RTVSPost2010Prop45
280
     0
102
RTVSPost2010PropOp45
 70
     1
102
RTVSPost2010Prop46
 90
       50
102
RTVSPost2010PropOp46
 70
     1
102
RTVSPost2010Prop47
 90
       50
102
RTVSPost2010PropOp47
 70
     1
102
RTVSPost2010Prop48
 90
       50
102
RTVSPost2010PropOp48
 70
     1
102
RTVSPost2010Prop49
280
     0
102
RTVSPost2010PropOp49
 70
     1
102
RTVSPost2010Prop50
 90
       50
102
RTVSPost2010PropOp50
 70
     1
102
RTVSPost2010Prop51ColorIndex
 90
      256
102
RTVSPost2010Prop51ColorRGB
 90
-16777216
102
RTVSPost2010PropOp51
 70
     0
102
RTVSPost2010Prop52
140
1.0
102
RTVSPost2010PropOp52
 70
     0
102
RTVSPost2010Prop53
 90
        2
102
RTVSPost2010PropOp53
 70
     1
102
RTVSPost2010Prop54
  1
strokes_ogs.tif
102
RTVSPost2010PropOp54
 70
     1
102
RTVSPost2010Prop55
280
     0
102
RTVSPost2010PropOp55
 70
     1
102
RTVSPost2010Prop56
140
1.0
102
RTVSPost2010PropOp56
 70
     1
102
RTVSPost2010Prop57
140
1.0
102
RTVSPost2010PropOp57
 70
     1
102
RTVSPropertyOp0
 70
     1
102
RTVSPropertyOp1
 70
     1
102
RTVSPropertyOp2
 70
     1
102
RTVSPropertyOp3
 70
     1
102
RTVSPropertyOp4
 70
     1
102
RTVSPropertyOp5
 70
     1
102
RTVSPropertyOp6
 70
     1
102
RTVSPropertyOp7
 70
     1
102
RTVSPropertyOp8
 70
     1
102
RTVSPropertyOp9
 70
     1
102
RTVSPropertyOp10
 70
     1
102
RTVSPropertyOp11
 70
     1
102
RTVSPropertyOp12
 70
     1
102
RTVSPropertyOp13
 70
     1
102
RTVSPropertyOp14
 70
     1
102
RTVSPropertyOp15
 70
     1
102
RTVSPropertyOp16
 70
     1
102
RTVSPropertyOp17
 70
     1
102
RTVSPropertyOp18
 70
     1
102
RTVSPropertyOp19
 70
     1
102
RTVSPropertyOp20
 70
     1
102
RTVSPropertyOp21
 70
     1
102
RTVSPropertyOp22
 70
     1
102
RTVSPropertyOp23
 70
     1
102
RTVSPropertyOp24
 70
     1
102
RTVSPropertyOp25
 70
     1
102
RTVSPropertyOp26
 70
     1
102
RTVSPropertyOp27
 70
     1
102
RTVSPropertyOp28
 70
     1
102
RTVSPropertyOp29
 70
     1
102
RTVSPropertyOp30
 70
     1
102
RTVSPropertyOp31
 70
     1
102
RTVSPropertyOp32
 70
     1
102
RTVSPropertyOp33
 70
     1
102
RTVSPropertyOp34
 70
     1
102
RTVSPropertyOp35
 70
     1
102
RTVSPropertyOp36
 70
     1
102
RTVSPropertyOp37
 70
     1
102
RTVSPropertyOp38
 70
     1
102
RTVSPropertyOp39
 70
     1
102
RTVSPropertyOp40
 70
     1
102
RTVSPropertyOp41
 70
     1
102
RTVSPropertyOp42
 70
     1
102
RTVSPropertyOp43
 70
     1
102
RTVSPropertyOp44
 70
     1
102
RTVSPropertyOp45
 70
     1
102
RTVSPropertyOp46
 70
     1
102
RTVSPropertyOp47
 70
     1
102
RTVSPropertyOp48
 70
     1
102
RTVSPropertyOp49
 70
     1
102
RTVSPropertyOp50
 70
     1
102
RTVSPropertyOp51
 70
     0
102
RTVSPropertyOp52
 70
     0
102
RTVSPropertyOp53
 70
     1
102
RTVSPropertyOp54
 70
     1
102
RTVSPropertyOp55
 70
     1
102
RTVSPropertyOp56
 70
     1
102
RTVSPropertyOp57
 70
     1
102
RTVSPropertyOp58
 70
     1
102
RTVSPropertyOp59
 70
     1
102
RTVSPropertyOp60
 70
     1
102
RTVSPropertyOp61
 70
     1
102
RTVSPropertyOp62
 70
     1
  0
XRECORD
  5
465
102
{ACAD_REACTORS
330
464
102
}
330
464
100
AcDbXrecord
280
     1
102
RTVSPost2010Prop28
280
     0
102
RTVSPost2010PropOp28
 70
     1
102
RTVSPost2010Prop29
280
     1
102
RTVSPost2010PropOp29
 70
     1
102
RTVSPost2010Prop30
280
     1
102
RTVSPost2010PropOp30
 70
     1
102
RTVSPost2010Prop31
280
     0
102
RTVSPost2010PropOp31
 70
     1
102
RTVSPost2010Prop32
280
     0
102
RTVSPost2010PropOp32
 70
     1
102
RTVSPost2010Prop33
280
     0
102
RTVSPost2010PropOp33
 70
     1
102
RTVSPost2010Prop34
280
     0
102
RTVSPost2010PropOp34
 70
     1
102
RTVSPost2010Prop35
280
     0
102
RTVSPost2010PropOp35
 70
     1
102
RTVSPost2010Prop36
280
     0
102
RTVSPost2010PropOp36
 70
     1
102
RTVSPost2010Prop37
 90
       50
102
RTVSPost2010PropOp37
 70
     1
102
RTVSPost2010Prop38
140
0.0
102
RTVSPost2010PropOp38
 70
     1
102
RTVSPost2010Prop39
140
1.0
102
RTVSPost2010PropOp39
 70
     1
102
RTVSPost2010Prop40
 90
        0
102
RTVSPost2010PropOp40
 70
     1
102
RTVSPost2010Prop41ColorIndex
 90
       18
102
RTVSPost2010Prop41ColorRGB
 90
        0
102
RTVSPost2010PropOp41
 70
     1
102
RTVSPost2010Prop42
 90
       50
102
RTVSPost2010PropOp42
 70
     1
102
RTVSPost2010Prop43
 90
        3
102
RTVSPost2010PropOp43
 70
     1
102
RTVSPost2010Prop44ColorIndex
 90
        5
102
RTVSPost2010Prop44ColorRGB
 90
      255
102
RTVSPost2010PropOp44
 70
     1
102
RTVSPost2010Prop45
280
     0
102
RTVSPost2010PropOp45
 70
     1
102
RTVSPost2010Prop46
 90
       50
102
RTVSPost2010PropOp46
 70
     1
102
RTVSPost2010Prop47
 90
       50
102
RTVSPost2010PropOp47
 70
     1
102
RTVSPost2010Prop48
 90
       50
102
RTVSPost2010PropOp48
 70
     1
102
RTVSPost2010Prop49
280
     0
102
RTVSPost2010PropOp49
 70
     1
102
RTVSPost2010Prop50
 90
       50
102
RTVSPost2010PropOp50
 70
     1
102
RTVSPost2010Prop51ColorIndex
 90
      256
102
RTVSPost2010Prop51ColorRGB
 90
-16777216
102
RTVSPost2010PropOp51
 70
     0
102
RTVSPost2010Prop52
140
1.0
102
RTVSPost2010PropOp52
 70
     0
102
RTVSPost2010Prop53
 90
        2
102
RTVSPost2010PropOp53
 70
     1
102
RTVSPost2010Prop54
  1
strokes_ogs.tif
102
RTVSPost2010PropOp54
 70
     1
102
RTVSPost2010Prop55
280
     0
102
RTVSPost2010PropOp55
 70
     1
102
RTVSPost2010Prop56
140
1.0
102
RTVSPost2010PropOp56
 70
     1
102
RTVSPost2010Prop57
140
1.0
102
RTVSPost2010PropOp57
 70
     1
102
RTVSPropertyOp0
 70
     1
102
RTVSPropertyOp1
 70
     1
102
RTVSPropertyOp2
 70
     1
102
RTVSPropertyOp3
 70
     1
102
RTVSPropertyOp4
 70
     1
102
RTVSPropertyOp5
 70
     1
102
RTVSPropertyOp6
 70
     1
102
RTVSPropertyOp7
 70
     1
102
RTVSPropertyOp8
 70
     1
102
RTVSPropertyOp9
 70
     1
102
RTVSPropertyOp10
 70
     1
102
RTVSPropertyOp11
 70
     1
102
RTVSPropertyOp12
 70
     1
102
RTVSPropertyOp13
 70
     1
102
RTVSPropertyOp14
 70
     1
102
RTVSPropertyOp15
 70
     1
102
RTVSPropertyOp16
 70
     1
102
RTVSPropertyOp17
 70
     1
102
RTVSPropertyOp18
 70
     1
102
RTVSPropertyOp19
 70
     1
102
RTVSPropertyOp20
 70
     1
102
RTVSPropertyOp21
 70
     1
102
RTVSPropertyOp22
 70
     1
102
RTVSPropertyOp23
 70
     1
102
RTVSPropertyOp24
 70
     1
102
RTVSPropertyOp25
 70
     1
102
RTVSPropertyOp26
 70
     1
102
RTVSPropertyOp27
 70
     1
102
RTVSPropertyOp28
 70
     1
102
RTVSPropertyOp29
 70
     1
102
RTVSPropertyOp30
 70
     1
102
RTVSPropertyOp31
 70
     1
102
RTVSPropertyOp32
 70
     1
102
RTVSPropertyOp33
 70
     1
102
RTVSPropertyOp34
 70
     1
102
RTVSPropertyOp35
 70
     1
102
RTVSPropertyOp36
 70
     1
102
RTVSPropertyOp37
 70
     1
102
RTVSPropertyOp38
 70
     1
102
RTVSPropertyOp39
 70
     1
102
RTVSPropertyOp40
 70
     1
102
RTVSPropertyOp41
 70
     1
102
RTVSPropertyOp42
 70
     1
102
RTVSPropertyOp43
 70
     1
102
RTVSPropertyOp44
 70
     1
102
RTVSPropertyOp45
 70
     1
102
RTVSPropertyOp46
 70
     1
102
RTVSPropertyOp47
 70
     1
102
RTVSPropertyOp48
 70
     1
102
RTVSPropertyOp49
 70
     1
102
RTVSPropertyOp50
 70
     1
102
RTVSPropertyOp51
 70
     0
102
RTVSPropertyOp52
 70
     0
102
RTVSPropertyOp53
 70
     1
102
RTVSPropertyOp54
 70
     1
102
RTVSPropertyOp55
 70
     1
102
RTVSPropertyOp56
 70
     1
102
RTVSPropertyOp57
 70
     1
102
RTVSPropertyOp58
 70
     1
102
RTVSPropertyOp59
 70
     1
102
RTVSPropertyOp60
 70
     1
102
RTVSPropertyOp61
 70
     1
102
RTVSPropertyOp62
 70
     1
  0
XRECORD
  5
45B
102
{ACAD_REACTORS
330
45A
102
}
330
45A
100
AcDbXrecord
280
     1
102
RTVSPost2010Prop28
280
     0
102
RTVSPost2010PropOp28
 70
     1
102
RTVSPost2010Prop29
280
     1
102
RTVSPost2010PropOp29
 70
     1
102
RTVSPost2010Prop30
280
     1
102
RTVSPost2010PropOp30
 70
     1
102
RTVSPost2010Prop31
280
     0
102
RTVSPost2010PropOp31
 70
     1
102
RTVSPost2010Prop32
280
     0
102
RTVSPost2010PropOp32
 70
     1
102
RTVSPost2010Prop33
280
     0
102
RTVSPost2010PropOp33
 70
     1
102
RTVSPost2010Prop34
280
     0
102
RTVSPost2010PropOp34
 70
     1
102
RTVSPost2010Prop35
280
     0
102
RTVSPost2010PropOp35
 70
     1
102
RTVSPost2010Prop36
280
     0
102
RTVSPost2010PropOp36
 70
     1
102
RTVSPost2010Prop37
 90
       50
102
RTVSPost2010PropOp37
 70
     1
102
RTVSPost2010Prop38
140
0.0
102
RTVSPost2010PropOp38
 70
     1
102
RTVSPost2010Prop39
140
1.0
102
RTVSPost2010PropOp39
 70
     1
102
RTVSPost2010Prop40
 90
        0
102
RTVSPost2010PropOp40
 70
     1
102
RTVSPost2010Prop41ColorIndex
 90
       18
102
RTVSPost2010Prop41ColorRGB
 90
        0
102
RTVSPost2010PropOp41
 70
     1
102
RTVSPost2010Prop42
 90
       50
102
RTVSPost2010PropOp42
 70
     1
102
RTVSPost2010Prop43
 90
        3
102
RTVSPost2010PropOp43
 70
     1
102
RTVSPost2010Prop44ColorIndex
 90
        5
102
RTVSPost2010Prop44ColorRGB
 90
      255
102
RTVSPost2010PropOp44
 70
     1
102
RTVSPost2010Prop45
280
     0
102
RTVSPost2010PropOp45
 70
     1
102
RTVSPost2010Prop46
 90
       50
102
RTVSPost2010PropOp46
 70
     1
102
RTVSPost2010Prop47
 90
       50
102
RTVSPost2010PropOp47
 70
     1
102
RTVSPost2010Prop48
 90
       50
102
RTVSPost2010PropOp48
 70
     1
102
RTVSPost2010Prop49
280
     0
102
RTVSPost2010PropOp49
 70
     1
102
RTVSPost2010Prop50
 90
       50
102
RTVSPost2010PropOp50
 70
     1
102
RTVSPost2010Prop51ColorIndex
 90
      256
102
RTVSPost2010Prop51ColorRGB
 90
-16777216
102
RTVSPost2010PropOp51
 70
     0
102
RTVSPost2010Prop52
140
1.0
102
RTVSPost2010PropOp52
 70
     0
102
RTVSPost2010Prop53
 90
        2
102
RTVSPost2010PropOp53
 70
     1
102
RTVSPost2010Prop54
  1
strokes_ogs.tif
102
RTVSPost2010PropOp54
 70
     1
102
RTVSPost2010Prop55
280
     0
102
RTVSPost2010PropOp55
 70
     1
102
RTVSPost2010Prop56
140
1.0
102
RTVSPost2010PropOp56
 70
     1
102
RTVSPost2010Prop57
140
1.0
102
RTVSPost2010PropOp57
 70
     1
102
RTVSPropertyOp0
 70
     1
102
RTVSPropertyOp1
 70
     1
102
RTVSPropertyOp2
 70
     1
102
RTVSPropertyOp3
 70
     1
102
RTVSPropertyOp4
 70
     1
102
RTVSPropertyOp5
 70
     1
102
RTVSPropertyOp6
 70
     1
102
RTVSPropertyOp7
 70
     1
102
RTVSPropertyOp8
 70
     1
102
RTVSPropertyOp9
 70
     1
102
RTVSPropertyOp10
 70
     1
102
RTVSPropertyOp11
 70
     1
102
RTVSPropertyOp12
 70
     1
102
RTVSPropertyOp13
 70
     1
102
RTVSPropertyOp14
 70
     1
102
RTVSPropertyOp15
 70
     1
102
RTVSPropertyOp16
 70
     1
102
RTVSPropertyOp17
 70
     1
102
RTVSPropertyOp18
 70
     1
102
RTVSPropertyOp19
 70
     1
102
RTVSPropertyOp20
 70
     1
102
RTVSPropertyOp21
 70
     1
102
RTVSPropertyOp22
 70
     1
102
RTVSPropertyOp23
 70
     1
102
RTVSPropertyOp24
 70
     1
102
RTVSPropertyOp25
 70
     1
102
RTVSPropertyOp26
 70
     1
102
RTVSPropertyOp27
 70
     1
102
RTVSPropertyOp28
 70
     1
102
RTVSPropertyOp29
 70
     1
102
RTVSPropertyOp30
 70
     1
102
RTVSPropertyOp31
 70
     1
102
RTVSPropertyOp32
 70
     1
102
RTVSPropertyOp33
 70
     1
102
RTVSPropertyOp34
 70
     1
102
RTVSPropertyOp35
 70
     1
102
RTVSPropertyOp36
 70
     1
102
RTVSPropertyOp37
 70
     1
102
RTVSPropertyOp38
 70
     1
102
RTVSPropertyOp39
 70
     1
102
RTVSPropertyOp40
 70
     1
102
RTVSPropertyOp41
 70
     1
102
RTVSPropertyOp42
 70
     1
102
RTVSPropertyOp43
 70
     1
102
RTVSPropertyOp44
 70
     1
102
RTVSPropertyOp45
 70
     1
102
RTVSPropertyOp46
 70
     1
102
RTVSPropertyOp47
 70
     1
102
RTVSPropertyOp48
 70
     1
102
RTVSPropertyOp49
 70
     1
102
RTVSPropertyOp50
 70
     1
102
RTVSPropertyOp51
 70
     0
102
RTVSPropertyOp52
 70
     0
102
RTVSPropertyOp53
 70
     1
102
RTVSPropertyOp54
 70
     1
102
RTVSPropertyOp55
 70
     1
102
RTVSPropertyOp56
 70
     1
102
RTVSPropertyOp57
 70
     1
102
RTVSPropertyOp58
 70
     1
102
RTVSPropertyOp59
 70
     1
102
RTVSPropertyOp60
 70
     1
102
RTVSPropertyOp61
 70
     1
102
RTVSPropertyOp62
 70
     1
  0
XRECORD
  5
44F
102
{ACAD_REACTORS
330
44E
102
}
330
44E
100
AcDbXrecord
280
     1
102
RTVSPost2010Prop28
280
     0
102
RTVSPost2010PropOp28
 70
     1
102
RTVSPost2010Prop29
280
     1
102
RTVSPost2010PropOp29
 70
     1
102
RTVSPost2010Prop30
280
     1
102
RTVSPost2010PropOp30
 70
     1
102
RTVSPost2010Prop31
280
     0
102
RTVSPost2010PropOp31
 70
     1
102
RTVSPost2010Prop32
280
     0
102
RTVSPost2010PropOp32
 70
     1
102
RTVSPost2010Prop33
280
     0
102
RTVSPost2010PropOp33
 70
     1
102
RTVSPost2010Prop34
280
     0
102
RTVSPost2010PropOp34
 70
     1
102
RTVSPost2010Prop35
280
     0
102
RTVSPost2010PropOp35
 70
     1
102
RTVSPost2010Prop36
280
     0
102
RTVSPost2010PropOp36
 70
     1
102
RTVSPost2010Prop37
 90
       50
102
RTVSPost2010PropOp37
 70
     1
102
RTVSPost2010Prop38
140
0.0
102
RTVSPost2010PropOp38
 70
     1
102
RTVSPost2010Prop39
140
1.0
102
RTVSPost2010PropOp39
 70
     1
102
RTVSPost2010Prop40
 90
        0
102
RTVSPost2010PropOp40
 70
     1
102
RTVSPost2010Prop41ColorIndex
 90
       18
102
RTVSPost2010Prop41ColorRGB
 90
        0
102
RTVSPost2010PropOp41
 70
     1
102
RTVSPost2010Prop42
 90
       50
102
RTVSPost2010PropOp42
 70
     1
102
RTVSPost2010Prop43
 90
        3
102
RTVSPost2010PropOp43
 70
     1
102
RTVSPost2010Prop44ColorIndex
 90
        5
102
RTVSPost2010Prop44ColorRGB
 90
      255
102
RTVSPost2010PropOp44
 70
     1
102
RTVSPost2010Prop45
280
     0
102
RTVSPost2010PropOp45
 70
     1
102
RTVSPost2010Prop46
 90
       50
102
RTVSPost2010PropOp46
 70
     1
102
RTVSPost2010Prop47
 90
       50
102
RTVSPost2010PropOp47
 70
     1
102
RTVSPost2010Prop48
 90
       50
102
RTVSPost2010PropOp48
 70
     1
102
RTVSPost2010Prop49
280
     0
102
RTVSPost2010PropOp49
 70
     1
102
RTVSPost2010Prop50
 90
       50
102
RTVSPost2010PropOp50
 70
     1
102
RTVSPost2010Prop51ColorIndex
 90
      256
102
RTVSPost2010Prop51ColorRGB
 90
-16777216
102
RTVSPost2010PropOp51
 70
     0
102
RTVSPost2010Prop52
140
1.0
102
RTVSPost2010PropOp52
 70
     0
102
RTVSPost2010Prop53
 90
        2
102
RTVSPost2010PropOp53
 70
     1
102
RTVSPost2010Prop54
  1
strokes_ogs.tif
102
RTVSPost2010PropOp54
 70
     1
102
RTVSPost2010Prop55
280
     0
102
RTVSPost2010PropOp55
 70
     1
102
RTVSPost2010Prop56
140
1.0
102
RTVSPost2010PropOp56
 70
     1
102
RTVSPost2010Prop57
140
1.0
102
RTVSPost2010PropOp57
 70
     1
102
RTVSPropertyOp0
 70
     1
102
RTVSPropertyOp1
 70
     1
102
RTVSPropertyOp2
 70
     1
102
RTVSPropertyOp3
 70
     1
102
RTVSPropertyOp4
 70
     1
102
RTVSPropertyOp5
 70
     1
102
RTVSPropertyOp6
 70
     1
102
RTVSPropertyOp7
 70
     1
102
RTVSPropertyOp8
 70
     1
102
RTVSPropertyOp9
 70
     1
102
RTVSPropertyOp10
 70
     1
102
RTVSPropertyOp11
 70
     1
102
RTVSPropertyOp12
 70
     1
102
RTVSPropertyOp13
 70
     1
102
RTVSPropertyOp14
 70
     1
102
RTVSPropertyOp15
 70
     1
102
RTVSPropertyOp16
 70
     1
102
RTVSPropertyOp17
 70
     1
102
RTVSPropertyOp18
 70
     1
102
RTVSPropertyOp19
 70
     1
102
RTVSPropertyOp20
 70
     1
102
RTVSPropertyOp21
 70
     1
102
RTVSPropertyOp22
 70
     1
102
RTVSPropertyOp23
 70
     1
102
RTVSPropertyOp24
 70
     1
102
RTVSPropertyOp25
 70
     1
102
RTVSPropertyOp26
 70
     1
102
RTVSPropertyOp27
 70
     1
102
RTVSPropertyOp28
 70
     1
102
RTVSPropertyOp29
 70
     1
102
RTVSPropertyOp30
 70
     1
102
RTVSPropertyOp31
 70
     1
102
RTVSPropertyOp32
 70
     1
102
RTVSPropertyOp33
 70
     1
102
RTVSPropertyOp34
 70
     1
102
RTVSPropertyOp35
 70
     1
102
RTVSPropertyOp36
 70
     1
102
RTVSPropertyOp37
 70
     1
102
RTVSPropertyOp38
 70
     1
102
RTVSPropertyOp39
 70
     1
102
RTVSPropertyOp40
 70
     1
102
RTVSPropertyOp41
 70
     1
102
RTVSPropertyOp42
 70
     1
102
RTVSPropertyOp43
 70
     1
102
RTVSPropertyOp44
 70
     1
102
RTVSPropertyOp45
 70
     1
102
RTVSPropertyOp46
 70
     1
102
RTVSPropertyOp47
 70
     1
102
RTVSPropertyOp48
 70
     1
102
RTVSPropertyOp49
 70
     1
102
RTVSPropertyOp50
 70
     1
102
RTVSPropertyOp51
 70
     0
102
RTVSPropertyOp52
 70
     0
102
RTVSPropertyOp53
 70
     1
102
RTVSPropertyOp54
 70
     1
102
RTVSPropertyOp55
 70
     1
102
RTVSPropertyOp56
 70
     1
102
RTVSPropertyOp57
 70
     1
102
RTVSPropertyOp58
 70
     1
102
RTVSPropertyOp59
 70
     1
102
RTVSPropertyOp60
 70
     1
102
RTVSPropertyOp61
 70
     1
102
RTVSPropertyOp62
 70
     1
  0
XRECORD
  5
467
102
{ACAD_REACTORS
330
466
102
}
330
466
100
AcDbXrecord
280
     1
102
RTVSPost2010Prop28
280
     0
102
RTVSPost2010PropOp28
 70
     1
102
RTVSPost2010Prop29
280
     1
102
RTVSPost2010PropOp29
 70
     1
102
RTVSPost2010Prop30
280
     1
102
RTVSPost2010PropOp30
 70
     1
102
RTVSPost2010Prop31
280
     0
102
RTVSPost2010PropOp31
 70
     1
102
RTVSPost2010Prop32
280
     0
102
RTVSPost2010PropOp32
 70
     1
102
RTVSPost2010Prop33
280
     0
102
RTVSPost2010PropOp33
 70
     1
102
RTVSPost2010Prop34
280
     0
102
RTVSPost2010PropOp34
 70
     1
102
RTVSPost2010Prop35
280
     0
102
RTVSPost2010PropOp35
 70
     1
102
RTVSPost2010Prop36
280
     0
102
RTVSPost2010PropOp36
 70
     1
102
RTVSPost2010Prop37
 90
       50
102
RTVSPost2010PropOp37
 70
     1
102
RTVSPost2010Prop38
140
0.0
102
RTVSPost2010PropOp38
 70
     1
102
RTVSPost2010Prop39
140
1.0
102
RTVSPost2010PropOp39
 70
     1
102
RTVSPost2010Prop40
 90
        0
102
RTVSPost2010PropOp40
 70
     1
102
RTVSPost2010Prop41ColorIndex
 90
       18
102
RTVSPost2010Prop41ColorRGB
 90
        0
102
RTVSPost2010PropOp41
 70
     1
102
RTVSPost2010Prop42
 90
       50
102
RTVSPost2010PropOp42
 70
     1
102
RTVSPost2010Prop43
 90
        3
102
RTVSPost2010PropOp43
 70
     1
102
RTVSPost2010Prop44ColorIndex
 90
        5
102
RTVSPost2010Prop44ColorRGB
 90
      255
102
RTVSPost2010PropOp44
 70
     1
102
RTVSPost2010Prop45
280
     0
102
RTVSPost2010PropOp45
 70
     1
102
RTVSPost2010Prop46
 90
       50
102
RTVSPost2010PropOp46
 70
     1
102
RTVSPost2010Prop47
 90
       50
102
RTVSPost2010PropOp47
 70
     1
102
RTVSPost2010Prop48
 90
       50
102
RTVSPost2010PropOp48
 70
     1
102
RTVSPost2010Prop49
280
     0
102
RTVSPost2010PropOp49
 70
     1
102
RTVSPost2010Prop50
 90
       50
102
RTVSPost2010PropOp50
 70
     1
102
RTVSPost2010Prop51ColorIndex
 90
      256
102
RTVSPost2010Prop51ColorRGB
 90
-16777216
102
RTVSPost2010PropOp51
 70
     0
102
RTVSPost2010Prop52
140
1.0
102
RTVSPost2010PropOp52
 70
     0
102
RTVSPost2010Prop53
 90
        2
102
RTVSPost2010PropOp53
 70
     1
102
RTVSPost2010Prop54
  1
strokes_ogs.tif
102
RTVSPost2010PropOp54
 70
     1
102
RTVSPost2010Prop55
280
     0
102
RTVSPost2010PropOp55
 70
     1
102
RTVSPost2010Prop56
140
1.0
102
RTVSPost2010PropOp56
 70
     1
102
RTVSPost2010Prop57
140
1.0
102
RTVSPost2010PropOp57
 70
     1
102
RTVSPropertyOp0
 70
     1
102
RTVSPropertyOp1
 70
     1
102
RTVSPropertyOp2
 70
     1
102
RTVSPropertyOp3
 70
     1
102
RTVSPropertyOp4
 70
     1
102
RTVSPropertyOp5
 70
     1
102
RTVSPropertyOp6
 70
     1
102
RTVSPropertyOp7
 70
     1
102
RTVSPropertyOp8
 70
     1
102
RTVSPropertyOp9
 70
     1
102
RTVSPropertyOp10
 70
     1
102
RTVSPropertyOp11
 70
     1
102
RTVSPropertyOp12
 70
     1
102
RTVSPropertyOp13
 70
     1
102
RTVSPropertyOp14
 70
     1
102
RTVSPropertyOp15
 70
     1
102
RTVSPropertyOp16
 70
     1
102
RTVSPropertyOp17
 70
     1
102
RTVSPropertyOp18
 70
     1
102
RTVSPropertyOp19
 70
     1
102
RTVSPropertyOp20
 70
     1
102
RTVSPropertyOp21
 70
     1
102
RTVSPropertyOp22
 70
     1
102
RTVSPropertyOp23
 70
     1
102
RTVSPropertyOp24
 70
     1
102
RTVSPropertyOp25
 70
     1
102
RTVSPropertyOp26
 70
     1
102
RTVSPropertyOp27
 70
     1
102
RTVSPropertyOp28
 70
     1
102
RTVSPropertyOp29
 70
     1
102
RTVSPropertyOp30
 70
     1
102
RTVSPropertyOp31
 70
     1
102
RTVSPropertyOp32
 70
     1
102
RTVSPropertyOp33
 70
     1
102
RTVSPropertyOp34
 70
     1
102
RTVSPropertyOp35
 70
     1
102
RTVSPropertyOp36
 70
     1
102
RTVSPropertyOp37
 70
     1
102
RTVSPropertyOp38
 70
     1
102
RTVSPropertyOp39
 70
     1
102
RTVSPropertyOp40
 70
     1
102
RTVSPropertyOp41
 70
     1
102
RTVSPropertyOp42
 70
     1
102
RTVSPropertyOp43
 70
     1
102
RTVSPropertyOp44
 70
     1
102
RTVSPropertyOp45
 70
     1
102
RTVSPropertyOp46
 70
     1
102
RTVSPropertyOp47
 70
     1
102
RTVSPropertyOp48
 70
     1
102
RTVSPropertyOp49
 70
     1
102
RTVSPropertyOp50
 70
     1
102
RTVSPropertyOp51
 70
     0
102
RTVSPropertyOp52
 70
     0
102
RTVSPropertyOp53
 70
     1
102
RTVSPropertyOp54
 70
     1
102
RTVSPropertyOp55
 70
     1
102
RTVSPropertyOp56
 70
     1
102
RTVSPropertyOp57
 70
     1
102
RTVSPropertyOp58
 70
     1
102
RTVSPropertyOp59
 70
     1
102
RTVSPropertyOp60
 70
     1
102
RTVSPropertyOp61
 70
     1
102
RTVSPropertyOp62
 70
     1
  0
ENDSEC
  0
EOF
